osu file format v14

[General]
AudioFilename: audio.mp3
AudioLeadIn: 0
PreviewTime: 52657
Countdown: 0
SampleSet: Soft
StackLeniency: 0.4
Mode: 0
LetterboxInBreaks: 0
WidescreenStoryboard: 1

[Editor]
Bookmarks: 2526,12473,22736,32841,42947,53052,63157,70736,73105
DistanceSpacing: 1.2
BeatDivisor: 4
GridSize: 32
TimelineZoom: 2.699999

[Metadata]
Title:Chochocho! Yuru Yuri*Capriccio!!!
TitleUnicode:ちょちょちょ!ゆるゆり☆かぷりっちょ!!!
Artist:Nanamori-chu*Gorakubu
ArtistUnicode:七森中☆ごらく部
Creator:pkhg
Version:Insane
Source:ゆるゆり さん☆ハイ!
Tags:irohas mugiwarasekai hazu- iyiyo lasse yuru yuri san hai yryr season 3 opening tv size akaza akari mikami shiori toshinou kyouko ootsubo yuka funami yui tsuda minami yoshikawa chinatsu ookubo rumi Nanamori chu Gorakubu
BeatmapID:1153992
BeatmapSetID:533707

[Difficulty]
HPDrainRate:7
CircleSize:4
OverallDifficulty:8
ApproachRate:9
SliderMultiplier:1.6
SliderTickRate:1

[Events]
//Background and Video events
Video,60,"sanhai.avi"
0,0,"yeeeeeeeeeeeeeeeeeeee.jpg",0,0
//Break Periods
//Storyboard Layer 0 (Background)
//Storyboard Layer 1 (Fail)
//Storyboard Layer 2 (Pass)
//Storyboard Layer 3 (Foreground)
//Storyboard Sound Samples

[TimingPoints]
1186,315.789473684211,4,2,1,5,1,0
1817,-100,4,2,1,55,0,0
12396,-100,4,2,1,55,0,0
22659,-125,4,2,1,45,0,0
30554,-125,4,2,1,45,0,0
32764,-111.111111111111,4,2,1,55,0,0
42870,-125,4,2,1,45,0,0
49817,-125,4,2,1,45,0,0
50763,-125,4,2,1,45,0,0
51079,-125,4,2,1,55,0,0
51395,-125,4,2,1,65,0,0
51712,-125,4,2,1,65,0,0
52659,-100,4,2,1,65,0,0
52975,-100,4,2,1,75,0,1
71922,-100,4,2,1,75,0,1
73028,-100,4,2,1,65,0,0
83291,-100,4,2,1,65,0,0

[Colours]
Combo1 : 255,164,209
Combo2 : 244,64,91
Combo3 : 251,248,102
Combo4 : 100,61,60

[HitObjects]
256,192,554,12,0,1659,0:0:0:0:
309,106,1817,5,8,0:0:0:0:
275,86,1896,1,8,0:0:0:0:
235,85,1975,1,8,0:0:0:0:
200,102,2054,1,8,0:0:0:0:
177,134,2132,1,2,1:3:0:0:
177,134,2449,6,0,L|172:207,3,53.3333333333333,10|2|2|10,0:1|0:1|0:1|0:1,0:0:0:0:
335,231,3080,2,0,L|332:178,3,53.3333333333333,10|2|2|10,0:1|0:1|0:1|0:1,0:0:0:0:
209,324,3712,2,0,L|212:270,3,53.3333333333333,10|2|2|10,0:1|0:1|0:1|0:1,0:0:0:0:
332,178,4343,5,8,0:0:0:0:
173,100,4501,1,8,0:0:0:0:
173,100,4580,1,8,0:0:0:0:
173,100,4659,1,8,0:1:0:0:
310,270,4975,6,0,L|306:323,3,53.3333333333333,10|2|2|10,0:1|0:1|0:1|0:1,0:0:0:0:
186,159,5607,2,0,L|189:212,3,53.3333333333333,10|2|2|10,0:1|0:1|0:1|0:1,0:0:0:0:
338,53,6238,6,0,L|330:172,2,120,4|4|2,0:0|0:0|0:0,0:0:0:0:
184,123,6870,2,0,L|191:242,2,120,4|4|2,0:0|0:0|0:0,0:0:0:0:
338,53,7501,6,0,L|391:56,3,53.3333333333333,10|2|2|10,0:1|0:0|0:0|0:1,0:0:0:0:
184,123,8133,2,0,L|131:120,3,53.3333333333333,10|2|2|10,0:1|0:1|0:1|0:1,0:0:0:0:
328,223,8764,2,0,L|381:220,3,53.3333333333333,10|2|2|10,0:1|0:1|0:1|0:1,0:0:0:0:
172,277,9396,5,8,0:0:0:0:
333,309,9554,1,8,0:0:0:0:
333,309,9633,1,8,0:0:0:0:
333,309,9712,1,8,0:1:0:0:
144,200,10028,6,0,L|91:203,3,53.3333333333333,10|2|2|10,0:1|0:1|0:1|0:1,0:0:0:0:
368,187,10659,2,0,L|421:190,3,53.3333333333333,10|2|2|10,0:1|0:1|0:1|0:1,0:0:0:0:
134,68,11291,6,0,L|15:76,2,120,4|4|2,0:0|0:0|0:0,0:0:0:0:
256,172,11922,1,4,0:0:0:0:
256,172,12396,6,0,P|328:198|390:153,1,160,4|8,0:0|0:0,0:0:0:0:
461,22,12870,2,0,P|466:61|468:101,1,80,8|0,0:1|0:0,0:0:0:0:
413,247,13186,1,8,0:0:0:0:
512,177,13343,1,8,0:0:0:0:
381,100,13501,2,0,P|341:102|301:107,1,80,8|0,0:1|0:0,0:0:0:0:
175,179,13817,5,8,0:0:0:0:
225,47,13975,1,8,0:0:0:0:
92,128,14133,2,0,P|86:167|84:207,1,80,8|8,0:1|0:0,0:0:0:0:
177,299,14449,1,0,0:0:0:0:
254,171,14607,2,0,P|214:173|175:179,1,80,8|8,0:0|0:1,0:0:0:0:
17,284,14922,6,0,P|97:288|176:299,1,160,12|8,0:0|0:0,0:0:0:0:
275,384,15396,1,8,0:1:0:0:
336,269,15554,1,0,0:0:0:0:
184,219,15712,2,0,P|179:259|177:299,1,80,8|8,0:0|0:0,0:0:0:0:
343,348,16028,2,0,P|340:308|335:268,1,80,8|0,0:1|0:0,0:0:0:0:
253,156,16343,5,8,0:0:0:0:
253,156,16501,1,8,0:0:0:0:
200,265,16659,1,8,0:1:0:0:
347,174,16817,2,0,P|386:176|426:181,1,80,8|0,0:0|0:0,0:0:0:0:
239,268,17133,2,0,P|199:273|159:275,1,80,8|0,0:1|0:0,0:0:0:0:
59,137,17449,6,0,P|120:182|193:156,1,160,12|8,0:0|0:0,0:0:0:0:
298,35,17922,2,0,P|258:37|218:42,1,80,8|0,0:1|0:0,0:0:0:0:
133,102,18238,1,8,0:0:0:0:
273,147,18396,1,8,0:0:0:0:
175,269,18554,2,0,P|169:229|167:189,1,80,8|0,0:1|0:0,0:0:0:0:
218,42,18870,5,8,0:0:0:0:
273,147,19028,1,8,0:0:0:0:
133,102,19186,2,0,P|93:104|53:109,1,80,8|8,0:1|0:0,0:0:0:0:
218,42,19501,1,0,0:0:0:0:
273,147,19659,2,0,P|278:186|280:226,1,80,8|8,0:0|0:1,0:0:0:0:
122,254,19975,6,0,P|124:184|192:200,1,160,12|8,0:0|0:0,0:0:0:0:
263,313,20449,1,8,0:1:0:0:
369,234,20607,1,0,0:0:0:0:
291,126,20764,2,0,P|285:165|283:205,1,80,8|8,0:0|0:0,0:0:0:0:
455,265,21080,2,0,P|452:225|447:185,1,80,8|0,0:1|0:0,0:0:0:0:
344,56,21396,5,14,0:1:0:0:
282,205,21554,1,10,0:0:0:0:
512,25,21870,1,10,0:1:0:0:
232,101,22186,1,10,0:1:0:0:
232,101,22501,5,2,0:0:0:0:
155,189,22659,2,0,P|151:220|149:252,1,64,12|0,0:0|0:0,0:0:0:0:
197,319,22896,1,0,0:0:0:0:
216,303,22975,2,0,P|247:299|279:297,1,64,8|0,0:1|0:0,0:0:0:0:
424,358,23291,2,0,P|392:356|360:352,1,64,8|8,0:0|0:0,0:0:0:0:
336,205,23607,2,0,P|350:234|363:263,1,64,8|0,0:1|0:3,0:0:0:0:
242,349,23922,6,0,P|259:322|279:297,1,64,8|8,0:0|0:0,0:0:0:0:
287,293,24159,1,0,0:0:0:0:
295,290,24238,1,8,0:1:0:0:
243,147,24396,1,8,0:0:0:0:
239,154,24475,1,0,0:0:0:0:
235,161,24554,2,0,P|231:192|229:224,1,64,0|8,0:0|0:0,0:0:0:0:
367,302,24870,2,0,P|365:270|361:238,1,64,8|0,0:1|0:0,0:0:0:0:
299,98,25186,5,8,0:0:0:0:
299,98,25343,1,0,0:0:0:0:
262,233,25501,1,8,0:1:0:0:
262,233,25659,1,0,0:0:0:0:
373,152,25817,1,8,0:0:0:0:
219,126,25975,2,0,P|187:127|155:131,1,64,8|8,0:0|0:1,0:0:0:0:
66,227,26291,5,0,0:0:0:0:
158,297,26449,1,8,0:0:0:0:
224,189,26607,2,0,P|222:157|218:126,1,64,8|8,0:0|0:1,0:0:0:0:
147,44,26922,1,8,0:1:0:0:
44,117,27080,2,0,P|75:120|107:122,1,64,0|8,0:0|0:0,0:0:0:0:
233,43,27396,2,0,P|264:39|296:37,1,64,8|8,0:1|0:1,0:0:0:0:
416,90,27712,5,4,0:0:0:0:
323,184,27870,1,0,0:0:0:0:
323,184,27949,1,0,0:0:0:0:
323,184,28028,1,8,0:1:0:0:
449,247,28186,1,0,0:0:0:0:
449,247,28264,1,0,0:0:0:0:
449,247,28343,2,0,P|452:216|454:184,1,64,8|8,0:0|0:0,0:0:0:0:
317,120,28659,2,0,P|319:152|323:184,1,64,8|0,0:1|0:0,0:0:0:0:
391,310,28975,5,8,0:0:0:0:
248,314,29133,1,8,0:0:0:0:
248,314,29212,1,0,0:0:0:0:
248,314,29291,1,8,0:1:0:0:
344,215,29449,1,8,0:1:0:0:
199,158,29607,2,0,P|196:189|194:221,1,64,0|8,0:0|0:0,0:0:0:0:
330,296,29922,2,0,P|328:264|324:232,1,64,8|0,0:1|0:0,0:0:0:0:
255,92,30238,5,8,0:3:0:0:
193,221,30396,1,8,0:3:0:0:
340,138,30554,1,8,0:1:0:0:
340,138,30870,5,8,0:3:0:0:
292,273,31028,1,8,0:3:0:0:
247,110,31186,1,8,0:1:0:0:
247,110,31501,5,8,0:3:0:0:
358,220,31659,1,8,0:3:0:0:
189,189,31817,1,10,0:1:0:0:
189,189,31975,1,8,0:0:0:0:
337,133,32133,1,10,0:1:0:0:
337,133,32291,1,8,0:0:0:0:
259,280,32449,1,8,0:1:0:0:
259,280,32528,1,8,0:1:0:0:
259,280,32607,1,8,0:0:0:0:
153,155,32764,6,0,P|154:119|158:83,1,71.9999978027344,12|0,0:0|0:0,0:0:0:0:
164,71,33001,1,0,0:0:0:0:
171,60,33080,1,8,0:1:0:0:
76,106,33238,1,0,0:0:0:0:
235,123,33396,2,0,P|270:121|306:117,1,71.9999978027344,8|8,0:0|0:0,0:0:0:0:
413,207,33712,2,0,P|377:202|341:201,1,71.9999978027344,8|0,0:1|0:0,0:0:0:0:
232,281,34028,5,8,0:0:0:0:
318,368,34186,1,8,0:0:0:0:
418,278,34343,2,0,P|417:242|413:207,1,71.9999978027344,8|8,0:1|0:0,0:0:0:0:
407,191,34580,1,0,0:0:0:0:
400,176,34659,1,0,0:0:0:0:
496,176,34817,1,8,0:0:0:0:
403,87,34975,2,0,P|367:82|331:80,1,71.9999978027344,8|0,0:1|0:0,0:0:0:0:
189,122,35291,5,8,0:0:0:0:
189,122,35449,1,0,0:0:0:0:
331,178,35607,1,8,0:1:0:0:
331,178,35765,1,0,0:0:0:0:
249,58,35922,1,8,0:0:0:0:
179,203,36080,2,0,P|174:238|173:274,1,71.9999978027344,8|8,0:0|0:1,0:0:0:0:
256,376,36396,5,0,0:0:0:0:
350,297,36554,1,8,0:0:0:0:
250,208,36712,2,0,P|214:203|178:202,1,71.9999978027344,8|8,0:0|0:1,0:0:0:0:
350,297,37028,1,8,0:0:0:0:
419,191,37186,2,0,P|418:155|413:119,1,71.9999978027344,0|8,0:0|0:0,0:0:0:0:
276,23,37501,2,0,P|271:58|270:94,1,71.9999978027344,8|8,0:1|0:1,0:0:0:0:
344,215,37817,5,12,0:0:0:0:
413,119,37975,1,0,0:0:0:0:
512,219,38133,2,0,P|476:218|440:213,1,71.9999978027344,8|0,0:1|0:0,0:0:0:0:
320,124,38449,2,0,P|284:124|248:129,1,71.9999978027344,8|8,0:0|0:0,0:0:0:0:
99,219,38764,2,0,P|134:224|170:224,1,71.9999978027344,8|0,0:1|0:0,0:0:0:0:
289,146,39080,5,8,0:0:0:0:
289,146,39238,1,8,0:0:0:0:
246,286,39396,1,8,0:1:0:0:
246,286,39554,1,8,0:0:0:0:
341,214,39712,1,0,0:0:0:0:
199,133,39870,2,0,P|163:133|127:138,1,71.9999978027344,8|8,0:0|0:1,0:0:0:0:
46,256,40186,1,0,0:0:0:0:
170,211,40343,5,8,0:3:0:0:
29,156,40501,1,8,0:3:0:0:
127,293,40659,1,8,0:1:0:0:
127,293,40975,5,8,0:3:0:0:
127,137,41133,1,8,0:3:0:0:
13,256,41291,1,8,0:1:0:0:
13,256,41607,5,8,0:3:0:0:
170,211,41764,1,8,0:3:0:0:
29,156,41922,1,8,0:1:0:0:
127,293,42080,1,8,0:0:0:0:
117,146,42238,1,8,0:0:0:0:
117,146,42317,1,8,0:0:0:0:
117,146,42396,1,8,0:3:0:0:
214,269,42554,2,0,P|214:304|209:340,1,71.9999978027344,8|4,0:1|0:3,0:0:0:0:
63,289,42870,6,0,P|95:289|127:293,1,64,12|0,0:0|0:0,0:0:0:0:
208,340,43186,2,0,P|271:337|335:329,1,128,0|8,0:0|0:3,0:0:0:0:
409,258,43659,2,0,P|412:226|412:194,1,64,0|0,0:0|0:0,0:0:0:0:
336,103,43975,6,0,P|304:99|272:99,1,64,8|0,0:0|0:0,0:0:0:0:
180,159,44291,1,8,0:0:0:0:
110,74,44449,2,0,P|109:42|113:10,1,64,0|8,0:0|0:0,0:0:0:0:
180,159,44764,1,8,0:3:0:0:
180,159,45080,2,0,P|135:182|86:180,1,96,0|0,0:0|0:0,0:0:0:0:
63,162,45396,6,0,P|31:158|0:158,1,64,4|0,0:0|0:0,0:0:0:0:
122,221,45712,2,0,P|185:213|249:209,1,128,0|8,0:0|0:3,0:0:0:0:
352,254,46186,2,0,P|383:257|415:257,1,64,0|0,0:0|0:0,0:0:0:0:
496,185,46501,6,0,P|499:153|499:121,1,64,8|0,0:0|0:0,0:0:0:0:
422,41,46817,1,8,0:0:0:0:
334,112,46975,2,0,P|302:115|270:115,1,64,0|8,0:0|0:0,0:0:0:0:
167,53,47291,1,8,0:3:0:0:
152,196,47449,1,0,0:0:0:0:
167,53,47607,1,8,0:0:0:0:
270,115,47764,1,8,0:1:0:0:
87,132,47922,5,12,0:0:0:0:
288,219,48159,1,2,0:0:0:0:
167,53,48396,1,2,0:0:0:0:
87,132,48554,5,6,0:0:0:0:
277,121,48791,1,2,0:0:0:0:
142,230,49028,1,2,0:0:0:0:
182,141,49186,5,6,0:0:0:0:
182,141,49501,2,0,P|214:138|246:138,1,64,4|0,0:0|0:0,0:0:0:0:
361,218,49817,1,10,0:1:0:0:
230,309,49975,1,10,0:1:0:0:
230,309,50291,6,0,P|170:326|116:295,1,128,12|8,0:0|0:1,0:0:0:0:
187,172,50764,1,8,0:1:0:0:
187,172,50922,1,8,0:1:0:0:
296,262,51080,1,8,0:1:0:0:
296,262,51238,1,8,0:1:0:0:
116,295,51396,1,8,0:1:0:0:
116,295,51554,1,8,0:1:0:0:
112,135,51712,5,8,0:3:0:0:
137,105,51790,1,0,0:0:0:0:
174,90,51869,1,0,0:0:0:0:
214,93,51948,1,0,0:0:0:0:
246,115,52028,2,0,L|255:160,3,32,8|0|0|0,0:3|0:0|0:0|0:0,0:0:0:0:
247,224,52343,5,8,0:3:0:0:
272,254,52421,1,8,0:0:0:0:
308,269,52500,1,8,0:0:0:0:
348,265,52579,1,8,0:0:0:0:
381,243,52659,2,0,P|420:238|460:236,1,80,8|0,0:3|0:0,0:0:0:0:
252,146,52975,6,0,P|212:140|172:138,1,80,12|0,0:0|0:0,0:0:0:0:
45,236,53291,2,0,P|84:230|124:228,1,80,8|0,0:1|0:0,0:0:0:0:
235,303,53607,1,8,0:0:0:0:
330,195,53764,2,0,P|335:155|337:115,1,80,8|8,0:0|0:1,0:0:0:0:
266,1,54080,1,0,0:0:0:0:
167,137,54238,6,0,P|207:143|247:145,1,80,8|8,0:0|0:0,0:0:0:0:
358,64,54554,1,8,0:1:0:0:
442,198,54712,2,0,P|402:199|362:205,1,80,8|0,0:0|0:0,0:0:0:0:
257,284,55028,1,8,0:3:0:0:
403,363,55186,2,0,P|408:323|410:283,1,80,8|0,0:3|0:0,0:0:0:0:
259,106,55501,6,0,L|265:185,1,80,12|0,0:0|0:0,0:0:0:0:
401,45,55817,2,0,L|394:124,1,80,8|0,0:1|0:0,0:0:0:0:
389,140,56054,1,0,0:0:0:0:
384,155,56133,1,8,0:0:0:0:
297,260,56291,1,8,0:0:0:0:
189,149,56449,2,0,P|229:150|269:156,1,80,8|0,0:1|0:0,0:0:0:0:
402,259,56764,5,8,0:0:0:0:
402,259,56922,1,8,0:0:0:0:
249,311,57080,1,8,0:1:0:0:
249,311,57238,1,8,0:0:0:0:
322,202,57396,1,8,0:1:0:0:
374,355,57554,1,8,0:0:0:0:
226,326,57712,1,8,0:1:0:0:
226,326,57791,1,0,0:0:0:0:
226,326,57870,1,8,0:0:0:0:
402,259,58028,6,0,P|407:219|409:179,1,80,12|0,0:0|0:0,0:0:0:0:
407,163,58264,1,0,0:0:0:0:
404,147,58343,1,8,0:1:0:0:
307,33,58501,2,0,P|309:72|313:112,1,80,8|0,0:0|0:0,0:0:0:0:
431,217,58817,1,10,0:1:0:0:
389,66,58975,1,10,0:1:0:0:
481,123,59133,1,0,0:0:0:0:
321,210,59291,6,0,P|281:209|241:203,1,80,12|0,0:0|0:0,0:0:0:0:
226,197,59528,1,0,0:0:0:0:
211,190,59607,1,8,0:1:0:0:
67,285,59764,2,0,P|106:279|146:278,1,80,8|0,0:0|0:0,0:0:0:0:
265,353,60080,1,10,0:1:0:0:
321,210,60238,1,10,0:1:0:0:
371,312,60396,1,0,0:0:0:0:
182,271,60554,5,12,0:0:0:0:
182,271,60712,1,0,0:0:0:0:
289,174,60870,2,0,P|328:169|368:167,1,80,8|0,0:1|0:0,0:0:0:0:
488,203,61186,1,8,0:0:0:0:
488,203,61343,1,8,0:0:0:0:
392,78,61501,1,8,0:1:0:0:
265,195,61659,5,12,0:1:0:0:
242,226,61737,1,0,0:0:0:0:
236,264,61816,1,10,0:1:0:0:
248,303,61895,1,0,0:0:0:0:
275,325,61975,2,0,L|272:365,3,40,8|0|8|0,0:3|0:0|0:1|0:0,0:0:0:0:
354,334,62291,2,0,L|350:294,1,40,8|0,0:3|0:0,0:0:0:0:
424,260,62449,5,8,0:1:0:0:
399,230,62527,1,0,0:0:0:0:
362,215,62606,1,0,0:0:0:0:
322,218,62685,1,0,0:0:0:0:
290,240,62764,1,8,0:1:0:0:
264,270,62843,1,0,0:0:0:0:
228,285,62922,1,8,0:1:0:0:
188,281,63001,1,0,0:0:0:0:
155,259,63080,6,0,P|150:220|148:180,1,80,12|0,0:0|0:0,0:0:0:0:
298,124,63396,2,0,P|296:163|290:203,1,80,8|0,0:1|0:0,0:0:0:0:
215,328,63712,1,8,0:0:0:0:
103,218,63870,2,0,P|142:219|182:225,1,80,8|8,0:0|0:1,0:0:0:0:
310,306,64186,1,0,0:0:0:0:
401,176,64343,6,0,P|399:136|393:96,1,80,8|8,0:0|0:0,0:0:0:0:
318,0,64659,1,8,0:1:0:0:
220,133,64817,2,0,P|260:139|300:141,1,80,8|0,0:0|0:0,0:0:0:0:
413,59,65133,1,8,0:3:0:0:
496,199,65291,2,0,P|456:200|416:206,1,80,8|0,0:3|0:0,0:0:0:0:
257,287,65607,6,0,P|297:288|337:294,1,80,12|0,0:0|0:0,0:0:0:0:
174,218,65922,2,0,P|168:178|167:138,1,80,8|0,0:1|0:0,0:0:0:0:
172,123,66159,1,0,0:0:0:0:
178,108,66238,1,8,0:0:0:0:
266,21,66396,1,8,0:0:0:0:
377,128,66554,2,0,P|337:125|297:120,1,80,8|0,0:1|0:0,0:0:0:0:
168,25,66870,5,8,0:0:0:0:
111,174,67028,1,8,0:0:0:0:
83,32,67186,1,8,0:1:0:0:
232,89,67344,1,8,0:0:0:0:
185,209,67502,5,8,0:3:0:0:
160,239,67580,1,0,0:0:0:0:
123,254,67659,1,8,0:3:0:0:
83,251,67738,1,0,0:0:0:0:
51,229,67817,1,8,0:3:0:0:
95,93,67975,1,0,0:0:0:0:
185,209,68133,5,8,0:3:0:0:
51,229,68291,1,8,0:3:0:0:
179,120,68449,1,4,0:0:0:0:
179,120,68764,5,8,0:3:0:0:
33,148,68922,1,8,0:3:0:0:
185,209,69080,1,4,0:0:0:0:
185,209,69396,5,8,0:3:0:0:
95,93,69554,1,8,0:3:0:0:
51,229,69712,1,8,0:1:0:0:
179,120,69870,1,8,0:3:0:0:
91,243,70028,2,0,P|92:282|98:322,1,80,2|8,0:0|0:3,0:0:0:0:
249,384,70343,2,0,P|254:344|256:304,1,80,12|0,0:1|0:0,0:0:0:0:
182,159,70659,6,0,L|179:120,3,40,12|0|8|0,0:0|0:0|0:0|0:0,0:0:0:0:
239,59,70975,2,0,L|242:19,3,40,8|0|8|0,0:0|0:0|0:0|0:0,0:0:0:0:
287,131,71291,5,12,0:0:0:0:
312,161,71369,1,0,0:0:0:0:
349,176,71448,1,8,0:0:0:0:
389,173,71527,1,0,0:0:0:0:
421,151,71607,1,4,0:3:0:0:
459,158,71686,1,0,0:0:0:0:
489,184,71765,1,4,0:3:0:0:
505,221,71844,1,0,0:0:0:0:
501,259,71922,5,10,0:1:0:0:
370,308,72080,1,10,0:1:0:0:
510,266,72238,1,10,0:1:0:0:
379,315,72396,1,10,0:1:0:0:
421,151,72554,1,10,0:1:0:0:
421,151,73028,6,0,P|359:196|286:170,1,160,12|8,0:0|0:0,0:0:0:0:
354,36,73501,2,0,P|352:76|347:116,1,80,8|0,0:1|0:0,0:0:0:0:
245,239,73817,1,8,0:0:0:0:
185,120,73975,1,8,0:0:0:0:
62,208,74133,2,0,P|101:213|141:215,1,80,8|0,0:1|0:0,0:0:0:0:
286,147,74449,5,8,0:0:0:0:
222,266,74607,1,8,0:0:0:0:
358,204,74764,2,0,P|397:198|437:196,1,80,8|8,0:1|0:0,0:0:0:0:
306,273,75080,1,0,0:0:0:0:
209,177,75238,2,0,P|203:137|201:97,1,80,8|8,0:0|0:1,0:0:0:0:
339,0,75554,6,0,P|335:79|329:159,1,160,12|8,0:0|0:0,0:0:0:0:
260,287,76028,1,8,0:1:0:0:
377,238,76186,1,0,0:0:0:0:
243,160,76343,2,0,P|203:161|163:167,1,80,8|8,0:0|0:0,0:0:0:0:
39,241,76659,2,0,P|78:242|118:248,1,80,8|0,0:1|0:0,0:0:0:0:
217,346,76975,5,8,0:0:0:0:
217,346,77133,1,8,0:0:0:0:
118,248,77291,1,8,0:1:0:0:
243,160,77449,2,0,P|249:199|250:239,1,80,8|0,0:0|0:0,0:0:0:0:
341,355,77764,2,0,P|342:315|348:275,1,80,8|0,0:1|0:1,0:0:0:0:
511,272,78080,6,0,P|500:342|431:323,1,160,12|8,0:0|0:0,0:0:0:0:
347,228,78554,2,0,P|307:221|267:220,1,80,8|0,0:1|0:0,0:0:0:0:
163,297,78870,1,8,0:0:0:0:
248,384,79028,1,8,0:0:0:0:
354,307,79186,2,0,P|353:267|347:228,1,80,8|0,0:1|0:0,0:0:0:0:
261,106,79501,5,8,0:0:0:0:
225,215,79659,1,8,0:0:0:0:
354,135,79817,2,0,P|393:128|433:127,1,80,8|8,0:1|0:0,0:0:0:0:
315,222,80133,1,0,0:0:0:0:
261,106,80291,2,0,P|221:99|181:98,1,80,8|8,0:0|0:1,0:0:0:0:
68,238,80607,6,0,P|126:187|200:207,1,160,12|8,0:0|0:0,0:0:0:0:
238,331,81080,1,8,0:1:0:0:
144,266,81238,1,0,0:0:0:0:
274,164,81396,2,0,P|280:203|281:243,1,80,8|8,0:0|0:0,0:0:0:0:
365,359,81712,2,0,P|365:319|372:279,1,80,8|0,0:1|0:0,0:0:0:0:
474,190,82028,6,0,P|474:150|467:110,1,80,8|8,0:0|0:0,0:0:0:0:
371,34,82343,1,8,0:1:0:0:
327,158,82501,1,8,0:0:0:0:
467,110,82659,1,4,0:3:0:0:
396,238,82817,1,8,0:0:0:0:
396,238,82896,1,8,0:0:0:0:
396,238,82975,1,8,0:3:0:0:
383,87,83133,1,0,0:0:0:0:
484,197,83291,6,0,L|489:270,3,53.3333333333333,10|2|2|10,0:1|0:1|0:1|0:1,0:0:0:0:
353,286,83922,2,0,L|348:359,3,53.3333333333333,10|2|2|10,0:1|0:1|0:1|0:1,0:0:0:0:
247,133,84554,2,0,L|251:187,3,53.3333333333333,10|2|2|10,0:1|0:1|0:1|0:1,0:0:0:0:
178,310,85186,5,8,0:0:0:0:
348,245,85343,1,0,0:0:0:0:
348,245,85422,1,0,0:0:0:0:
348,245,85501,1,10,0:1:0:0:
164,160,85817,6,0,L|91:154,3,53.3333333333333,10|2|2|10,0:1|0:1|0:1|0:1,0:0:0:0:
296,68,86449,2,0,L|369:62,3,53.3333333333333,10|2|2|10,0:1|0:1|0:1|0:1,0:0:0:0:
190,204,87080,6,0,L|71:196,2,120,4|4|2,0:0|0:0|0:0,0:0:0:0:
322,257,87712,2,0,L|441:249,2,120,4|4|4,0:0|0:0|0:0,0:0:0:0:
