osu file format v14

[General]
AudioFilename: audio.mp3
AudioLeadIn: 0
PreviewTime: 52657
Countdown: 0
SampleSet: Soft
StackLeniency: 0.4
Mode: 0
LetterboxInBreaks: 0
WidescreenStoryboard: 0

[Editor]
Bookmarks: 2526,12473,22736,32841,38133,42947,53052,63157,70736,73105
DistanceSpacing: 1.2
BeatDivisor: 4
GridSize: 4
TimelineZoom: 2.699999

[Metadata]
Title:Chochocho! Yuru Yuri*Capriccio!!!
TitleUnicode:ちょちょちょ!ゆるゆり☆かぷりっちょ!!!
Artist:Nanamori-chu*Gorakubu
ArtistUnicode:七森中☆ごらく部
Creator:pkhg
Version:Hard
Source:ゆるゆり さん☆ハイ!
Tags:irohas mugiwarasekai hazu- iyiyo lasse yuru yuri san hai yryr season 3 opening tv size akaza akari mikami shiori toshinou kyouko ootsubo yuka funami yui tsuda minami yoshikawa chinatsu ookubo rumi Nanamori chu Gorakubu
BeatmapID:1154708
BeatmapSetID:533707

[Difficulty]
HPDrainRate:6
CircleSize:3.5
OverallDifficulty:6
ApproachRate:8
SliderMultiplier:1.5
SliderTickRate:1

[Events]
//Background and Video events
Video,60,"sanhai.avi"
0,0,"yeeeeeeeeeeeeeeeeeeee.jpg",0,0
//Break Periods
//Storyboard Layer 0 (Background)
//Storyboard Layer 1 (Fail)
//Storyboard Layer 2 (Pass)
//Storyboard Layer 3 (Foreground)
//Storyboard Sound Samples

[TimingPoints]
1186,315.789473684211,4,2,1,5,1,0
1817,-100,4,2,1,55,0,0
12396,-100,4,2,1,55,0,0
22659,-125,4,2,1,45,0,0
30554,-125,4,2,1,45,0,0
32764,-111.111111111111,4,2,1,55,0,0
42870,-125,4,2,1,45,0,0
49817,-125,4,2,1,45,0,0
50763,-125,4,2,1,45,0,0
51079,-125,4,2,1,55,0,0
51395,-125,4,2,1,65,0,0
51712,-125,4,2,1,65,0,0
52659,-100,4,2,1,65,0,0
52975,-100,4,2,1,75,0,1
71922,-100,4,2,1,75,0,1
73028,-100,4,2,1,65,0,0
83291,-100,4,2,1,65,0,0

[Colours]
Combo1 : 255,164,209
Combo2 : 244,64,91
Combo3 : 251,248,102
Combo4 : 100,61,60

[HitObjects]
256,192,554,12,0,1501,0:0:0:0:
149,234,1817,6,0,L|192:232,3,37.5,8|8|8|8,0:0|0:0|0:0|0:0,0:0:0:0:
222,218,2133,1,2,1:3:0:0:
222,218,2449,6,0,L|278:222,3,50,10|2|2|10,0:1|0:1|0:1|0:1,0:0:0:0:
440,287,3080,2,0,L|390:290,3,50,10|2|2|10,0:1|0:1|0:1|0:1,0:0:0:0:
312,127,3712,2,0,L|262:123,3,50,10|2|2|10,0:1|0:1|0:1|0:1,0:0:0:0:
123,239,4343,6,0,L|207:231,1,75,8|8,0:0|0:0,0:0:0:0:
217,230,4580,1,8,0:0:0:0:
236,228,4659,1,8,0:1:0:0:
380,335,4975,6,0,L|330:339,3,50,10|2|2|10,0:1|0:1|0:1|0:1,0:0:0:0:
164,267,5607,2,0,L|214:271,3,50,10|2|2|10,0:1|0:1|0:1|0:1,0:0:0:0:
344,146,6238,6,0,P|397:135|446:161,2,112.5,4|4|2,0:0|0:0|0:0,0:0:0:0:
386,227,6870,2,0,P|434:252|488:241,2,112.5,4|4|2,0:0|0:0|0:0,0:0:0:0:
344,146,7501,6,0,L|348:96,3,50,10|2|2|10,0:1|0:0|0:0|0:1,0:0:0:0:
200,201,8133,2,0,L|204:251,3,50,10|2|2|10,0:1|0:1|0:1|0:1,0:0:0:0:
368,325,8764,2,0,L|372:275,3,50,10|2|2|10,0:1|0:1|0:1|0:1,0:0:0:0:
202,211,9396,6,0,L|193:127,1,75,8|8,0:0|0:0,0:0:0:0:
192,117,9633,1,8,0:0:0:0:
190,98,9712,1,8,0:1:0:0:
356,23,10028,6,0,L|406:27,3,50,10|2|2|10,0:1|0:1|0:1|0:1,0:0:0:0:
240,94,10659,2,0,L|190:98,3,50,10|2|2|10,0:1|0:1|0:1|0:1,0:0:0:0:
360,155,11291,6,0,P|408:128|462:139,2,112.5,4|4|2,0:0|0:0|0:0,0:0:0:0:
422,220,11922,1,4,0:0:0:0:
422,220,12396,6,0,P|352:243|288:203,1,150,4|8,0:0|0:0,0:0:0:0:
239,130,12870,2,0,P|204:119|167:121,1,75,8|0,0:1|0:0,0:0:0:0:
100,179,13186,2,0,P|88:214|90:251,1,75,8|8,0:0|0:0,0:0:0:0:
156,315,13501,2,0,L|236:323,1,75,8|0,0:1|0:0,0:0:0:0:
316,367,13817,5,8,0:0:0:0:
316,367,13975,1,8,0:0:0:0:
384,307,14133,2,0,P|386:269|374:234,1,75,8|8,0:1|0:0,0:0:0:0:
308,175,14449,1,0,0:0:0:0:
356,99,14607,2,0,P|391:86|428:89,1,75,8|8,0:0|0:1,0:0:0:0:
308,175,14922,6,0,B|278:194|236:173|236:173|196:154|165:175,1,150,12|8,0:0|0:0,0:0:0:0:
110,247,15396,1,8,0:1:0:0:
110,247,15554,1,0,0:0:0:0:
160,323,15712,2,0,P|194:335|231:333,1,75,8|8,0:0|0:0,0:0:0:0:
300,271,16028,2,0,P|334:258|371:260,1,75,8|0,0:1|0:0,0:0:0:0:
448,319,16343,5,8,0:0:0:0:
448,319,16501,1,8,0:0:0:0:
502,247,16659,1,8,0:1:0:0:
432,191,16817,2,0,P|420:156|422:119,1,75,8|0,0:0|0:0,0:0:0:0:
496,67,17133,2,0,P|508:102|506:139,1,75,8|0,0:1|0:0,0:0:0:0:
364,48,17449,6,0,P|434:27|496:67,1,150,12|8,0:0|0:0,0:0:0:0:
512,155,17922,2,0,L|504:235,1,75,8|0,0:1|0:0,0:0:0:0:
444,299,18238,2,0,P|410:312|373:310,1,75,8|8,0:0|0:0,0:0:0:0:
296,259,18554,2,0,P|262:246|225:248,1,75,8|0,0:1|0:0,0:0:0:0:
148,295,18870,5,8,0:0:0:0:
148,295,19028,1,8,0:0:0:0:
88,227,19186,2,0,L|80:152,1,75,8|8,0:1|0:0,0:0:0:0:
144,89,19501,1,0,0:0:0:0:
84,23,19659,2,0,P|50:10|13:12,1,75,8|8,0:0|0:1,0:0:0:0:
144,89,19975,6,0,L|300:79,1,150,12|8,0:0|0:0,0:0:0:0:
364,23,20449,1,8,0:1:0:0:
364,23,20607,1,0,0:0:0:0:
440,71,20764,2,0,P|452:106|450:143,1,75,8|8,0:0|0:0,0:0:0:0:
388,211,21080,2,0,P|376:246|378:283,1,75,8|0,0:1|0:0,0:0:0:0:
440,367,21396,5,14,0:1:0:0:
440,367,21554,1,10,0:0:0:0:
288,271,21870,1,10,0:1:0:0:
444,179,22186,1,10,0:1:0:0:
351,334,22501,5,2,0:0:0:0:
268,355,22659,2,0,L|200:347,1,60,12|0,0:0|0:0,0:0:0:0:
192,339,22896,1,0,0:0:0:0:
180,327,22975,2,0,P|172:295|176:251,1,60,8|0,0:1|0:0,0:0:0:0:
228,203,23291,2,0,P|256:152|237:97,1,120,8|8,0:0|0:1,0:0:0:0:
237,97,23922,6,0,L|169:89,1,60,8|8,0:0|0:0,0:0:0:0:
163,99,24159,1,0,0:0:0:0:
148,107,24238,2,0,L|80:99,1,60,8|8,0:1|0:0,0:0:0:0:
24,160,24554,2,0,P|16:192|20:236,1,60,0|8,0:0|0:0,0:0:0:0:
68,296,24870,1,8,0:1:0:0:
68,296,25028,1,0,0:0:0:0:
148,264,25186,6,0,P|177:263|206:271,1,60,8|0,0:0|0:0,0:0:0:0:
276,324,25501,2,0,P|305:324|334:316,1,60,8|0,0:1|0:0,0:0:0:0:
392,252,25817,1,8,0:0:0:0:
336,188,25975,2,0,P|308:137|327:82,1,120,8|0,0:0|0:0,0:0:0:0:
403,41,26449,5,8,0:0:0:0:
403,41,26607,2,0,L|462:33,1,60,8|8,0:0|0:1,0:0:0:0:
321,3,26922,1,8,0:1:0:0:
245,48,27080,2,0,L|185:40,1,60,0|8,0:0|0:0,0:0:0:0:
116,88,27396,2,0,L|108:148,1,60,8|8,0:1|0:1,0:0:0:0:
155,218,27712,5,4,0:0:0:0:
86,266,27870,2,0,L|42:262,2,30,0|0|8,0:0|0:0|0:1,0:0:0:0:
169,313,28186,1,0,0:0:0:0:
169,313,28264,1,0,0:0:0:0:
169,313,28343,2,0,L|229:321,1,60,8|8,0:0|0:0,0:0:0:0:
299,273,28659,2,0,L|359:265,1,60,8|0,0:1|0:0,0:0:0:0:
413,200,28975,6,0,P|413:170|405:141,1,60,8|8,0:0|0:0,0:0:0:0:
393,129,29211,1,0,0:0:0:0:
376,120,29291,2,0,L|316:112,1,60,8|8,0:1|0:1,0:0:0:0:
239,79,29607,2,0,L|179:86,1,60,0|8,0:0|0:0,0:0:0:0:
104,48,29922,1,8,0:1:0:0:
104,48,30080,1,0,0:0:0:0:
36,112,30238,6,0,P|28:140|28:170,1,60,8|8,0:3|0:3,0:0:0:0:
68,256,30554,1,8,0:1:0:0:
68,256,30870,6,0,P|96:263|126:263,1,60,8|8,0:3|0:3,0:0:0:0:
212,224,31186,1,8,0:1:0:0:
212,224,31501,6,0,P|219:195|219:165,1,60,8|8,0:3|0:3,0:0:0:0:
180,76,31817,2,0,P|151:68|121:68,1,60,10|8,0:1|0:0,0:0:0:0:
36,112,32133,2,0,P|28:140|28:170,1,60,10|8,0:1|0:0,0:0:0:0:
68,256,32449,2,0,P|96:263|126:263,1,60,8|8,0:1|0:0,0:0:0:0:
212,224,32764,6,0,P|243:214|276:216,1,67.4999979400635,12|0,0:0|0:0,0:0:0:0:
293,225,33001,1,0,0:0:0:0:
307,235,33080,2,0,L|373:228,1,67.4999979400635,8|0,0:1|0:0,0:0:0:0:
441,165,33396,2,0,B|459:138|439:100|439:100|422:64|441:36,1,134.999995880127,8|8,0:0|0:1,0:0:0:0:
440,36,34028,6,0,P|406:33|374:43,1,67.4999979400635,8|8,0:0|0:0,0:0:0:0:
300,96,34343,2,0,P|266:98|234:88,1,67.4999979400635,8|8,0:1|0:0,0:0:0:0:
220,77,34580,1,0,0:0:0:0:
204,68,34660,2,0,P|170:65|138:75,1,67.4999979400635,0|8,0:0|0:0,0:0:0:0:
86,150,34975,2,0,L|79:216,1,67.4999979400635,8|0,0:1|0:0,0:0:0:0:
138,287,35291,6,0,P|170:296|203:293,1,67.4999979400635,8|0,0:0|0:0,0:0:0:0:
271,232,35607,2,0,P|303:222|336:225,1,67.4999979400635,8|0,0:1|0:0,0:0:0:0:
419,264,35922,1,8,0:0:0:0:
472,190,36080,2,0,L|457:55,1,134.999995880127,8|0,0:0|0:0,0:0:0:0:
379,8,36554,1,8,0:0:0:0:
330,85,36712,6,0,P|272:116|211:95,1,134.999995880127,8|8,0:0|0:0,0:0:0:0:
139,37,37186,2,0,P|105:33|73:43,1,67.4999979400635,0|8,0:0|0:0,0:0:0:0:
21,119,37501,2,0,P|17:152|27:184,1,67.4999979400635,8|8,0:1|0:1,0:0:0:0:
96,244,37817,6,0,L|162:251,1,67.4999979400635,12|0,0:0|0:0,0:0:0:0:
242,298,38133,2,0,L|308:291,1,67.4999979400635,8|0,0:1|0:0,0:0:0:0:
384,236,38449,2,0,P|415:178|394:117,1,134.999995880127,8|8,0:0|0:1,0:0:0:0:
393,116,39080,6,0,P|360:106|327:110,1,67.4999979400635,8|8,0:0|0:0,0:0:0:0:
264,176,39396,2,0,P|231:185|198:181,1,67.4999979400635,8|8,0:1|0:0,0:0:0:0:
132,120,39712,1,0,0:0:0:0:
68,184,39870,2,0,P|58:216|62:249,1,67.4999979400635,8|8,0:0|0:1,0:0:0:0:
120,320,40186,1,0,0:0:0:0:
196,272,40343,6,0,L|262:265,1,67.4999979400635,8|8,0:3|0:3,0:0:0:0:
361,251,40659,1,8,0:1:0:0:
361,251,40975,6,0,L|321:197,1,67.4999979400635,8|8,0:3|0:3,0:0:0:0:
260,118,41291,1,8,0:1:0:0:
260,118,41607,6,0,L|233:178,1,67.4999979400635,8|8,0:3|0:3,0:0:0:0:
196,272,41922,2,0,L|262:265,1,67.4999979400635,8|8,0:1|0:0,0:0:0:0:
320,336,42238,2,0,L|316:369,2,33.7499989700318,8|8|8,0:0|0:0|0:3,0:0:0:0:
396,284,42554,2,0,P|406:252|402:218,1,67.4999979400635,8|4,0:1|0:3,0:0:0:0:
332,148,42870,6,0,P|323:120|326:90,1,60,12|0,0:0|0:0,0:0:0:0:
375,22,43186,2,0,P|319:2|267:29,1,120,0|8,0:0|0:3,0:0:0:0:
245,109,43659,2,0,P|189:128|137:101,1,120,0|8,0:0|0:0,0:0:0:0:
137,101,44291,5,8,0:0:0:0:
75,157,44449,2,0,P|68:185|70:215,1,60,0|8,0:0|0:0,0:0:0:0:
124,280,44764,1,8,0:3:0:0:
124,280,45080,2,0,L|241:292,1,90,0|0,0:0|0:0,0:0:0:0:
238,302,45396,6,0,L|297:295,1,60,4|0,0:0|0:0,0:0:0:0:
360,240,45712,2,0,B|376:215|361:183|361:183|344:149|360:125,1,120,0|8,0:0|0:3,0:0:0:0:
408,60,46186,1,0,0:0:0:0:
408,60,46501,6,0,P|352:40|300:67,1,120,8|8,0:0|0:0,0:0:0:0:
272,144,46975,1,0,0:0:0:0:
272,144,47291,2,0,P|269:173|276:202,1,60,8|0,0:3|0:0,0:0:0:0:
332,268,47607,2,0,P|334:297|327:326,1,60,8|8,0:0|0:1,0:0:0:0:
248,352,47922,6,0,L|158:342,2,90,12|2|2,0:0|0:0|0:0,0:0:0:0:
326,326,48554,2,0,L|415:316,2,90,6|2|2,0:0|0:0|0:0,0:0:0:0:
260,264,49186,1,6,0:0:0:0:
260,264,49501,2,0,P|240:208|264:154,1,120,4|10,0:0|0:1,0:0:0:0:
332,104,49975,1,10,0:1:0:0:
332,104,50291,6,0,L|204:92,1,120,12|8,0:0|0:1,0:0:0:0:
140,140,50764,2,0,P|132:168|135:198,1,60,8|8,0:1|0:1,0:0:0:0:
200,256,51080,2,0,P|207:284|204:314,1,60,8|8,0:1|0:1,0:0:0:0:
136,368,51396,2,0,P|106:370|77:363,1,60,8|8,0:1|0:1,0:0:0:0:
212,320,51712,6,0,L|241:315,3,30,8|0|0|0,0:3|0:0|0:0|0:0,0:0:0:0:
268,328,52028,2,0,L|297:332,3,30,8|0|0|0,0:3|0:0|0:0|0:0,0:0:0:0:
324,316,52343,2,0,L|353:311,3,30,8|8|8|8,0:3|0:0|0:0|0:0,0:0:0:0:
384,292,52659,2,0,P|392:256|389:219,1,75,8|0,0:3|0:0,0:0:0:0:
324,128,52975,6,0,P|288:116|251:119,1,75,12|0,0:0|0:0,0:0:0:0:
184,180,53291,2,0,P|129:189|85:157,1,112.5,8|0,0:1|0:0,0:0:0:0:
77,132,53607,2,0,L|73:52,1,75,8|8,0:0|0:0,0:0:0:0:
9,184,53922,2,0,L|13:264,1,75,8|0,0:1|0:0,0:0:0:0:
85,344,54238,6,0,B|133:364|133:364|229:348,1,150,8|8,0:0|0:1,0:0:0:0:
296,284,54712,2,0,P|333:281|368:292,1,75,8|0,0:0|0:0,0:0:0:0:
440,348,55028,1,8,0:3:0:0:
460,260,55186,2,0,L|456:180,1,75,8|0,0:3|0:0,0:0:0:0:
392,92,55501,6,0,P|356:80|319:83,1,75,12|0,0:0|0:0,0:0:0:0:
252,144,55817,2,0,B|224:155|197:144|197:144|170:132|143:144,1,112.5,8|0,0:1|0:0,0:0:0:0:
124,160,56133,2,0,P|112:195|115:232,1,75,8|8,0:0|0:0,0:0:0:0:
172,304,56449,2,0,P|207:315|244:312,1,75,8|0,0:1|0:0,0:0:0:0:
332,244,56764,6,0,P|367:233|404:236,1,75,8|8,0:0|0:0,0:0:0:0:
256,192,57080,2,0,P|221:181|184:184,1,75,8|8,0:1|0:0,0:0:0:0:
312,124,57396,2,0,P|347:113|384:116,1,75,8|8,0:1|0:0,0:0:0:0:
240,72,57712,2,0,P|205:61|168:64,1,75,8|8,0:1|0:0,0:0:0:0:
84,132,58028,5,12,0:0:0:0:
140,216,58186,1,0,0:0:0:0:
140,216,58264,1,0,0:0:0:0:
140,216,58343,1,8,0:1:0:0:
84,288,58501,2,0,P|145:247|215:265,1,150,8|10,0:0|0:1,0:0:0:0:
284,324,58975,2,0,P|321:327|356:316,1,75,10|0,0:1|0:0,0:0:0:0:
432,232,59291,5,12,0:0:0:0:
360,176,59449,1,0,0:0:0:0:
360,176,59528,1,0,0:0:0:0:
360,176,59607,1,8,0:1:0:0:
416,108,59764,2,0,B|376:132|376:132|272:116,1,150,8|10,0:0|0:1,0:0:0:0:
203,59,60238,2,0,P|166:55|131:67,1,75,10|0,0:1|0:0,0:0:0:0:
71,154,60554,6,0,L|67:234,1,75,12|0,0:0|0:0,0:0:0:0:
128,295,60870,1,8,0:1:0:0:
128,295,61028,1,0,0:0:0:0:
195,238,61186,2,0,P|230:226|267:230,1,75,8|8,0:0|0:0,0:0:0:0:
339,283,61501,1,8,0:1:0:0:
407,215,61659,6,0,L|415:175,3,37.5,12|0|8|0,0:1|0:0|0:1|0:0,0:0:0:0:
422,149,61975,2,0,L|414:109,3,37.5,8|0|8|0,0:1|0:0|0:1|0:0,0:0:0:0:
421,82,62291,1,8,0:1:0:0:
335,33,62449,2,0,L|296:18,3,37.5,8|0|0|0,0:1|0:0|0:0|0:0,0:0:0:0:
270,21,62764,2,0,L|231:34,3,37.5,8|0|8|0,0:1|0:0|0:1|0:0,0:0:0:0:
215,56,63080,6,0,P|179:67|142:63,1,75,12|0,0:0|0:0,0:0:0:0:
86,0,63396,2,0,P|57:47|64:101,1,112.5,8|0,0:1|0:0,0:0:0:0:
77,114,63712,2,0,L|81:194,1,75,8|8,0:0|0:0,0:0:0:0:
164,225,64028,2,0,L|160:305,1,75,8|0,0:1|0:0,0:0:0:0:
95,367,64343,6,0,P|156:326|226:344,1,150,8|8,0:0|0:1,0:0:0:0:
311,371,64817,2,0,P|315:334|303:299,1,75,8|0,0:0|0:0,0:0:0:0:
227,248,65133,1,8,0:3:0:0:
285,179,65291,2,0,P|320:167|357:171,1,75,8|0,0:3|0:0,0:0:0:0:
493,242,65607,6,0,P|456:247|421:235,1,75,12|0,0:0|0:0,0:0:0:0:
357,171,65922,2,0,L|348:58,1,112.5,8|0,0:1|0:0,0:0:0:0:
327,37,66238,2,0,P|291:24|254:29,1,75,8|8,0:0|0:0,0:0:0:0:
191,93,66554,2,0,P|155:105|118:100,1,75,8|0,0:1|0:0,0:0:0:0:
36,55,66870,6,0,P|67:99|58:153,1,112.5,8|0,0:0|0:0,0:0:0:0:
47,174,67186,2,0,P|35:210|40:247,1,75,8|8,0:1|0:0,0:0:0:0:
100,312,67501,2,0,L|140:316,3,37.5,8|0|8|0,0:3|0:0|0:3|0:0,0:0:0:0:
166,308,67817,2,0,P|202:303|238:315,1,75,8|0,0:3|0:0,0:0:0:0:
353,364,68133,6,0,P|330:335|323:298,1,75,8|8,0:3|0:3,0:0:0:0:
361,203,68449,1,4,0:0:0:0:
361,203,68764,6,0,P|347:236|318:261,1,75,8|8,0:3|0:3,0:0:0:0:
217,276,69080,1,4,0:0:0:0:
217,276,69396,6,0,P|253:271|288:283,1,75,8|8,0:3|0:3,0:0:0:0:
352,364,69712,2,0,P|388:368|424:356,1,75,8|8,0:1|0:3,0:0:0:0:
327,230,70028,2,0,P|304:259|297:295,1,75,2|8,0:0|0:3,0:0:0:0:
455,276,70343,2,0,P|440:241|412:217,1,75,12|0,0:1|0:0,0:0:0:0:
287,150,70659,6,0,L|246:153,7,37.5,12|0|8|0|8|0|8|0,0:0|0:0|0:0|0:0|0:0|0:0|0:0|0:0,0:0:0:0:
217,131,71291,2,0,L|176:128,7,37.5,12|0|8|0|4|0|4|0,0:0|0:0|0:0|0:0|0:3|0:0|0:3|0:0,0:0:0:0:
154,113,71922,5,10,0:1:0:0:
154,113,72080,1,10,0:1:0:0:
142,208,72238,1,10,0:1:0:0:
142,208,72396,1,10,0:1:0:0:
127,299,72554,1,10,0:1:0:0:
127,299,73028,6,0,P|197:281|257:322,1,150,12|8,0:0|0:0,0:0:0:0:
334,372,73501,2,0,P|345:336|342:299,1,75,8|0,0:1|0:0,0:0:0:0:
283,230,73817,2,0,P|271:194|274:157,1,75,8|8,0:0|0:0,0:0:0:0:
294,69,74133,2,0,P|265:45|229:34,1,75,8|8,0:1|0:0,0:0:0:0:
145,64,74449,5,8,0:0:0:0:
145,64,74607,1,8,0:0:0:0:
85,128,74764,2,0,L|95:208,1,75,8|8,0:1|0:0,0:0:0:0:
173,248,75080,1,0,0:0:0:0:
117,320,75238,2,0,P|82:333|45:330,1,75,8|8,0:0|0:1,0:0:0:0:
173,248,75554,6,0,B|203:229|245:250|245:250|285:269|315:249,1,150,12|8,0:0|0:0,0:0:0:0:
375,180,76028,1,8,0:1:0:0:
375,180,76186,1,0,0:0:0:0:
453,224,76343,2,0,P|464:259|462:296,1,75,8|8,0:0|0:0,0:0:0:0:
389,348,76659,2,0,L|314:356,1,75,8|0,0:1|0:0,0:0:0:0:
166,296,76975,6,0,L|241:304,1,75,8|8,0:0|0:0,0:0:0:0:
325,268,77291,1,8,0:1:0:0:
273,196,77449,2,0,P|270:158|282:123,1,75,8|0,0:0|0:0,0:0:0:0:
424,144,77764,2,0,P|393:164|357:172,1,75,8|0,0:1|0:1,0:0:0:0:
232,47,78080,6,0,P|304:34|361:79,1,150,12|8,0:0|0:0,0:0:0:0:
281,123,78554,2,0,P|269:158|273:196,1,75,8|0,0:1|0:0,0:0:0:0:
337,260,78870,2,0,P|348:295|345:332,1,75,8|8,0:0|0:0,0:0:0:0:
269,376,79186,2,0,L|194:368,1,75,8|0,0:1|0:0,0:0:0:0:
121,316,79501,5,8,0:0:0:0:
121,316,79659,1,8,0:0:0:0:
173,244,79817,2,0,P|176:206|164:171,1,75,8|8,0:1|0:0,0:0:0:0:
89,124,80133,1,0,0:0:0:0:
141,52,80291,2,0,P|176:40|213:43,1,75,8|8,0:0|0:1,0:0:0:0:
269,140,80607,6,0,P|255:68|300:11,1,150,12|8,0:0|0:0,0:0:0:0:
393,0,81080,1,8,0:1:0:0:
393,0,81238,1,0,0:0:0:0:
457,64,81396,2,0,P|468:99|465:136,1,75,8|8,0:0|0:0,0:0:0:0:
417,212,81712,2,0,P|405:247|408:284,1,75,8|0,0:1|0:0,0:0:0:0:
469,356,82028,6,0,P|411:311|340:324,1,150,8|8,0:0|0:1,0:0:0:0:
273,384,82501,1,8,0:0:0:0:
197,336,82659,2,0,P|185:300|188:263,1,75,4|8,0:3|0:0,0:0:0:0:
197,248,82896,1,8,0:0:0:0:
205,232,82975,2,0,P|217:196|214:159,1,75,8|0,0:3|0:0,0:0:0:0:
149,96,83291,6,0,L|99:92,3,50,10|2|2|10,0:1|0:1|0:1|0:1,0:0:0:0:
265,28,83922,2,0,L|315:24,3,50,10|2|2|10,0:1|0:1|0:1|0:1,0:0:0:0:
453,144,84554,2,0,L|403:140,3,50,10|2|2|10,0:1|0:1|0:1|0:1,0:0:0:0:
357,316,85186,6,0,L|273:324,1,75,8|0,0:0|0:0,0:0:0:0:
263,325,85423,1,0,0:0:0:0:
244,327,85502,1,10,0:1:0:0:
137,184,85817,6,0,L|140:234,3,50,10|2|2|10,0:1|0:1|0:1|0:1,0:0:0:0:
249,88,86449,2,0,L|252:38,3,50,10|2|2|10,0:1|0:1|0:1|0:1,0:0:0:0:
341,196,87080,6,0,P|352:249|326:298,2,112.5,4|4|2,0:0|0:0|0:0,0:0:0:0:
253,176,87712,2,0,P|226:224|237:278,2,112.5,4|4|4,0:0|0:0|0:0,0:0:0:0:
