osu file format v14

[General]
AudioFilename: audio.mp3
AudioLeadIn: 0
PreviewTime: 58005
Countdown: 1
SampleSet: None
StackLeniency: 0.7
Mode: 0
LetterboxInBreaks: 0
WidescreenStoryboard: 1

[Editor]
Bookmarks: 4037,35505,73657,75940
DistanceSpacing: 1.1
BeatDivisor: 2
GridSize: 4
TimelineZoom: 1

[Metadata]
Title:Acchu~ma Seishun! feat. Firebat92
TitleUnicode:あっちゅ~ま青春! feat. Firebat92
Artist:Nanamori-chu*Gorakubu
ArtistUnicode:七森中☆ごらく部
Creator:Mimasu
Version:Epic mapper style
Source:Yuru yuri
Tags:yuru yuri Firebat
BeatmapID:1737112
BeatmapSetID:819988

[Difficulty]
HPDrainRate:5
CircleSize:4
OverallDifficulty:5
ApproachRate:9
SliderMultiplier:1.4
SliderTickRate:1

[Events]
//Background and Video events
0,0,"hqdefault.jpg",0,0
//Break Periods
//Storyboard Layer 0 (Background)
//Storyboard Layer 1 (Fail)
//Storyboard Layer 2 (Pass)
//Storyboard Layer 3 (Foreground)
//Storyboard Sound Samples

[TimingPoints]
614,326.086956521739,4,2,0,30,1,0
614,-100,4,2,0,30,0,0
5668,-66.6666666666667,4,2,0,30,0,0
75940,-133.333333333333,4,2,0,30,0,0
76266,-66.6666666666667,4,2,0,30,0,0
89146,-270.27027027027,4,2,0,30,0,0

[HitObjects]
77,165,614,6,0,B|135:174|79:209|184:212,1,70
379,277,1103,2,0,B|386:199|301:218|365:91,1,140
308,325,1592,1,0,0:0:0:0:
343,108,1755,1,4,0:0:0:0:
465,311,2081,1,0,0:0:0:0:
181,149,2407,2,0,B|108:90|107:196|8:86,1,140
445,349,3222,6,0,B|475:298|415:315|473:232,1,70
120,75,3711,2,0,B|121:182|81:93|66:254,1,140
281,78,4200,5,0,0:0:0:0:
171,294,4363,1,4,0:0:0:0:
118,32,4527,5,0,0:0:0:0:
255,311,4690,1,4,0:0:0:0:
203,44,4853,1,0,0:0:0:0:
129,245,5016,5,4,3:0:0:0:
165,225,5097,1,4,3:0:0:0:
204,241,5179,1,4,3:0:0:0:
214,270,5260,1,4,3:0:0:0:
248,293,5342,1,4,3:0:0:0:
287,279,5423,1,4,3:0:0:0:
309,244,5505,1,4,3:0:0:0:
375,335,5668,1,12,0:0:0:0:
87,59,5831,5,0,0:0:0:0:
237,302,5994,1,8,0:0:0:0:
235,55,6157,5,0,0:0:0:0:
110,292,6320,1,8,0:0:0:0:
59,120,6483,5,0,0:0:0:0:
199,343,6646,1,8,0:0:0:0:
275,121,6809,5,0,0:0:0:0:
137,362,6972,1,12,0:0:0:0:
170,69,7135,5,0,0:0:0:0:
317,322,7298,1,8,0:0:0:0:
329,64,7461,5,0,0:0:0:0:
187,310,7624,1,8,0:0:0:0:
199,61,7787,5,0,0:0:0:0:
344,297,7950,1,8,0:0:0:0:
337,114,8113,5,0,0:0:0:0:
177,340,8277,1,12,0:0:0:0:
117,40,8440,5,0,0:0:0:0:
272,332,8603,2,0,P|321:374|370:357,1,105.000004005432,8|0,0:0|0:0,0:0:0:0:
281,39,8929,2,0,B|219:94|150:-3|78:78,1,210.000008010865,8|8,0:0|0:0,0:0:0:0:
275,278,9418,5,0,0:0:0:0:
436,160,9581,1,12,0:0:0:0:
279,36,9744,1,0,0:0:0:0:
262,305,9907,5,0,0:0:0:0:
460,160,10070,1,12,0:0:0:0:
267,7,10233,1,0,0:0:0:0:
52,224,10396,1,0,0:0:0:0:
104,318,10559,1,0,0:0:0:0:
121,344,10641,1,0,0:0:0:0:
144,364,10722,1,0,0:0:0:0:
173,376,10804,1,0,0:0:0:0:
203,383,10885,1,4,0:0:0:0:
383,138,11863,5,0,0:0:0:0:
358,117,11945,1,0,0:0:0:0:
326,110,12027,1,0,0:0:0:0:
296,121,12108,1,0,0:0:0:0:
281,144,12190,2,0,B|151:199|227:101|81:148,1,210.000008010865
365,221,12760,5,0,0:0:0:0:
160,82,12923,1,0,0:0:0:0:
128,259,13086,5,0,0:0:0:0:
306,80,13249,1,0,0:0:0:0:
268,337,13494,2,0,B|216:317|220:355|152:324,1,105.000004005432
385,71,13820,1,8,0:0:0:0:
111,204,14146,2,0,B|131:152|93:156|124:88,1,105.000004005432
377,321,14472,1,8,0:0:0:0:
268,337,14798,5,0,0:0:0:0:
118,101,14961,1,0,0:0:0:0:
385,71,15124,1,0,0:0:0:0:
165,329,15287,1,0,0:0:0:0:
401,180,15450,5,0,0:0:0:0:
118,101,15613,1,0,0:0:0:0:
377,321,15777,1,0,0:0:0:0:
312,113,15940,1,0,0:0:0:0:
239,43,16103,6,0,B|240:116|207:75|225:172,1,105.000004005432
261,308,16429,1,8,0:0:0:0:
107,209,16755,2,0,B|180:208|139:241|236:223,1,105.000004005432
372,187,17081,1,8,0:0:0:0:
129,237,17407,6,0,B|283:156|192:243|332:175,1,210.000008010865
394,84,17896,1,0,0:0:0:0:
225,281,18059,1,0,0:0:0:0:
210,99,18222,1,0,0:0:0:0:
309,275,18385,2,0,B|286:348|353:288|332:377,1,105.000004005432
113,81,18711,5,0,0:0:0:0:
385,269,19037,1,0,0:0:0:0:
130,273,19363,5,0,0:0:0:0:
324,62,19690,1,0,0:0:0:0:
85,104,20016,2,0,B|190:249|28:134|170:312|169:308,1,210.000008010865
186,80,20505,1,0,0:0:0:0:
74,306,20668,1,0,0:0:0:0:
25,64,20831,1,0,0:0:0:0:
328,63,20994,2,0,B|394:100|360:45|445:91,1,105.000004005432
203,326,21320,1,0,0:0:0:0:
399,209,21646,1,0,0:0:0:0:
114,142,21972,5,0,0:0:0:0:
100,176,22054,1,0,0:0:0:0:
100,212,22135,1,0,0:0:0:0:
112,246,22217,1,0,0:0:0:0:
139,269,22298,1,0,0:0:0:0:
174,277,22380,1,0,0:0:0:0:
210,272,22461,1,0,0:0:0:0:
208,144,22624,1,0,0:0:0:0:
54,319,22787,1,0,0:0:0:0:
379,297,23929,5,8,0:0:0:0:
265,63,24092,2,0,B|201:101|217:43|155:113,1,105.000004005432
385,201,24418,1,0,0:0:0:0:
151,315,24581,1,8,0:0:0:0:
385,201,24744,2,0,B|347:137|405:153|335:91,1,105.000004005432
161,279,25070,1,0,0:0:0:0:
351,105,25233,5,8,0:0:0:0:
159,133,25396,2,0,B|138:182|107:149|95:225,1,105.000004005432
219,276,25722,1,0,0:0:0:0:
62,103,25885,1,8,0:0:0:0:
103,286,26048,2,0,B|115:215|128:262|165:190,1,105.000004005432
310,101,26374,1,0,0:0:0:0:
178,297,26537,5,8,0:0:0:0:
165,149,26700,2,0,B|208:102|211:139|256:93,1,105.000004005432
127,289,27027,1,0,0:0:0:0:
203,63,27190,1,8,0:0:0:0:
145,223,27353,2,0,B|171:287|195:235|222:319,1,105.000004005432
133,100,27679,1,0,0:0:0:0:
153,333,27842,5,8,0:0:0:0:
345,200,28005,2,0,B|352:130|385:164|391:91,1,105.000004005432
241,263,28331,1,0,0:0:0:0:
462,135,28494,1,8,0:0:0:0:
300,274,28657,2,0,B|263:332|254:284|216:352,1,105.000004005432
198,159,28983,1,0,0:0:0:0:
390,345,29146,5,8,0:0:0:0:
254,217,29309,2,0,B|218:284|210:218|169:321,1,105.000004005432
165,123,29635,1,0,0:0:0:0:
252,304,29798,1,8,0:0:0:0:
134,228,29961,2,0,B|110:275|81:244|63:333,1,105.000004005432
297,216,30287,1,0,0:0:0:0:
46,246,30450,5,8,0:0:0:0:
173,148,30613,2,0,B|223:102|212:137|272:80,1,105.000004005432
185,298,30940,5,0,0:0:0:0:
208,51,31103,1,0,0:0:0:0:
305,283,31266,5,0,0:0:0:0:
101,100,31429,1,0,0:0:0:0:
256,343,31592,5,0,0:0:0:0:
319,118,31755,1,8,0:0:0:0:
256,343,31918,5,8,0:0:0:0:
193,118,32081,1,8,0:0:0:0:
256,343,32244,5,8,0:0:0:0:
256,172,32407,1,8,0:0:0:0:
256,76,32570,2,0,B|235:131|288:139|250:184,1,105.000004005432
215,332,33059,5,4,0:0:0:0:
327,84,33222,1,4,0:0:0:0:
312,183,34363,6,0,B|280:260|245:181|219:285|221:284,1,105.000004005432
161,294,34690,1,8,0:0:0:0:
259,154,34853,1,0,0:0:0:0:
308,212,35016,2,0,B|242:262|251:176|177:254|179:254,1,105.000004005432
215,58,35342,1,8,0:0:0:0:
287,213,35505,1,0,0:0:0:0:
265,248,35668,6,0,B|188:216|267:181|163:155|164:157,1,105.000004005432
316,275,35994,1,8,0:0:0:0:
162,98,36157,1,0,0:0:0:0:
235,244,36321,2,0,B|185:178|271:187|193:113|193:115,1,105.000004005432
266,293,36646,1,8,0:0:0:0:
221,63,36809,1,0,0:0:0:0:
312,183,36972,6,0,B|280:260|245:181|219:285|221:284,1,105.000004005432
403,76,37298,1,8,0:0:0:0:
319,325,37461,1,0,0:0:0:0:
308,212,37625,2,0,B|242:262|251:176|177:254|179:254,1,105.000004005432
441,165,37950,1,8,0:0:0:0:
244,338,38113,1,0,0:0:0:0:
291,235,38277,2,0,B|209:246|260:176|156:206|158:207,1,105.000004005432
429,261,38603,1,8,0:0:0:0:
172,313,38766,1,0,0:0:0:0:
264,247,38930,2,0,B|188:216|267:181|163:155|163:157,1,105.000004005432
372,339,39255,1,8,0:0:0:0:
123,255,39418,1,0,0:0:0:0:
208,199,39581,6,0,B|232:260|267:181|293:285|276:248,1,105.000004005432
51,126,39907,1,8,0:0:0:0:
299,349,40070,1,0,0:0:0:0:
210,177,40234,2,0,B|201:238|271:187|241:291|245:254,1,105.000004005432
111,32,40559,1,8,0:0:0:0:
214,349,40722,1,0,0:0:0:0:
223,156,40885,2,0,B|185:205|271:196|193:270|215:240,1,105.000004005432
210,0,41211,1,8,0:0:0:0:
141,307,41374,1,0,0:0:0:0:
327,175,41537,2,0,B|365:126|279:135|357:61|335:91,1,105.000004005432
322,0,41863,1,8,0:0:0:0:
99,235,42026,1,0,0:0:0:0:
143,242,42190,5,12,0:0:0:0:
372,125,42353,1,12,0:0:0:0:
89,167,42516,5,12,0:0:0:0:
426,195,42679,1,8,0:0:0:0:
204,310,42842,5,12,0:0:0:0:
312,56,43005,1,0,0:0:0:0:
371,150,43168,2,0,B|366:207|397:181|391:260,1,105.000004005432
463,93,43494,5,8,0:0:0:0:
293,147,43657,1,8,0:0:0:0:
287,325,43820,2,8,B|219:350|225:311|171:365|171:364,1,105.000004005432
49,291,44146,5,8,0:0:0:0:
219,237,44309,1,0,0:0:0:0:
225,59,44472,2,8,B|293:34|287:73|341:19|341:20,1,105.000004005432
186,351,44798,5,8,0:0:0:0:
371,150,44961,1,8,0:0:0:0:
49,291,45124,1,8,0:0:0:0:
325,32,45287,5,0,0:0:0:0:
391,250,45450,1,8,0:0:0:0:
121,134,45613,5,8,0:0:0:0:
287,325,45777,1,8,0:0:0:0:
156,277,46103,1,8,0:0:0:0:
272,178,46266,1,8,0:0:0:0:
246,257,46429,2,0,B|215:193|195:255|155:166,1,105.000004005432,8|0,0:0|0:0,0:0:0:0:
357,128,46755,5,8,0:0:0:0:
240,206,46918,1,8,0:0:0:0:
266,127,47081,2,8,B|297:191|317:129|357:218,1,105.000004005432
168,192,47407,1,8,0:0:0:0:
256,104,47570,1,0,0:0:0:0:
256,280,47733,1,8,0:0:0:0:
341,186,47896,2,0,B|354:122|423:169|432:74,1,105.000004005432,0|8,0:0|0:0,0:0:0:0:
192,313,48222,1,0,0:0:0:0:
111,192,48385,5,8,0:0:0:0:
93,159,48467,1,0,0:0:0:0:
86,122,48548,1,8,0:0:0:0:
93,85,48630,1,0,0:0:0:0:
116,56,48711,1,8,0:0:0:0:
257,326,48874,5,0,0:0:0:0:
246,99,49037,1,8,0:0:0:0:
156,293,49200,5,0,0:0:0:0:
350,108,49363,1,8,0:0:0:0:
328,316,49527,5,0,0:0:0:0:
202,119,49690,1,8,0:0:0:0:
212,307,49853,5,0,0:0:0:0:
301,74,50016,1,8,0:0:0:0:
397,206,50179,2,0,B|393:263|432:249|412:329,1,105.000004005432,0|8,0:0|0:0,0:0:0:0:
145,138,50505,1,0,0:0:0:0:
270,51,50668,2,0,B|327:55|313:16|393:36,1,105.000004005432,8|0,0:0|0:0,0:0:0:0:
212,307,50994,1,8,0:0:0:0:
174,114,51320,5,8,0:0:0:0:
334,110,51483,1,8,0:0:0:0:
338,270,51646,1,8,0:0:0:0:
178,274,51809,1,8,0:0:0:0:
255,102,51972,2,0,B|270:37|330:71|342:18,1,105.000004005432,8|0,0:0|0:0,0:0:0:0:
257,282,52298,2,0,B|242:347|182:313|170:366,1,105.000004005432,8|0,0:0|0:0,0:0:0:0:
331,38,52624,1,14,0:0:0:0:
178,274,52787,1,14,0:0:0:0:
255,102,52950,1,14,0:0:0:0:
338,270,53113,1,14,0:0:0:0:
180,345,53277,1,14,0:0:0:0:
410,267,53603,5,14,0:0:0:0:
166,193,53766,1,14,0:0:0:0:
475,241,54092,5,14,0:0:0:0:
184,113,54255,1,14,0:0:0:0:
274,303,54418,1,14,0:0:0:0:
364,119,54581,1,14,0:0:0:0:
188,336,55233,5,2,0:0:0:0:
400,260,55559,1,2,0:0:0:0:
112,124,55885,1,2,0:0:0:0:
324,48,56211,1,6,0:0:0:0:
216,275,56537,5,4,0:0:0:0:
339,231,56700,1,4,0:0:0:0:
295,108,56863,1,4,0:0:0:0:
172,152,57027,1,4,0:0:0:0:
257,287,57190,2,0,B|297:287|297:215|256:215|256:215|256:120,1,157.500006008148,4|0,0:0|0:0,0:0:0:0:
256,128,57516,1,0,0:0:0:0:
256,352,57679,5,0,0:0:0:0:
172,152,57842,1,8,0:0:0:0:
339,231,58005,2,0,B|343:300|354:270|359:344,1,105.000004005432
172,152,58331,2,0,B|167:82|156:112|151:38,1,105.000004005432,0|8,0:0|0:0,0:0:0:0:
427,284,58657,1,0,0:0:0:0:
85,100,58820,1,0,0:0:0:0:
216,275,58983,2,0,B|255:332|258:281|304:341,1,105.000004005432,0|8,0:0|0:0,0:0:0:0:
296,109,59309,2,0,B|257:52|254:103|208:43,1,105.000004005432
256,30,59635,6,0,B|256:97|277:57|277:146,1,105.000004005432,0|8,0:0|0:0,0:0:0:0:
332,317,59961,1,0,0:0:0:0:
180,67,60124,1,0,0:0:0:0:
170,330,60450,6,0,B|227:293|174:264|283:235,1,105.000004005432,8|0,0:0|0:0,0:0:0:0:
114,282,60777,1,0,0:0:0:0:
181,199,60940,1,0,0:0:0:0:
49,248,61103,1,8,0:0:0:0:
85,148,61266,5,0,0:0:0:0:
54,314,61429,1,0,0:0:0:0:
129,195,61592,2,0,B|165:134|182:172|225:109,1,105.000004005432,0|8,0:0|0:0,0:0:0:0:
256,309,61918,1,0,0:0:0:0:
381,45,62244,6,0,B|345:106|328:68|285:131,1,105.000004005432,0|8,0:0|0:0,0:0:0:0:
219,253,62570,1,0,0:0:0:0:
409,122,62733,1,8,0:0:0:0:
155,152,63222,5,0,0:0:0:0:
324,279,63385,1,0,0:0:0:0:
340,155,63548,5,0,0:0:0:0:
114,202,63711,1,8,0:0:0:0:
238,331,63874,5,0,0:0:0:0:
277,16,64037,1,0,0:0:0:0:
426,281,64200,5,0,0:0:0:0:
65,148,64363,1,8,0:0:0:0:
316,284,64527,5,0,0:0:0:0:
382,108,64690,1,0,0:0:0:0:
196,284,64853,5,0,0:0:0:0:
130,108,65016,1,8,0:0:0:0:
388,310,65179,5,8,0:0:0:0:
509,186,65342,1,8,0:0:0:0:
124,310,65505,5,8,0:0:0:0:
3,186,65831,1,0,0:0:0:0:
204,317,65994,5,0,0:0:0:0:
194,129,66157,1,0,0:0:0:0:
152,347,66320,5,0,0:0:0:0:
292,138,66483,1,0,0:0:0:0:
210,366,66646,5,0,0:0:0:0:
375,197,66809,1,0,0:0:0:0:
286,362,66972,5,8,0:0:0:0:
417,257,67135,1,0,0:0:0:0:
359,355,67298,5,8,0:0:0:0:
468,311,67461,1,0,0:0:0:0:
445,169,67624,2,0,B|427:125|377:137|377:137|334:92,1,105.000004005432,8|0,0:0|0:0,0:0:0:0:
159,73,67950,5,8,0:0:0:0:
135,101,68032,1,0,0:0:0:0:
126,136,68113,1,8,0:0:0:0:
131,172,68195,1,0,0:0:0:0:
145,205,68277,1,8,0:0:0:0:
426,343,68440,5,0,0:0:0:0:
311,292,68603,2,0,B|337:215|359:269|388:173,1,105.000004005432
144,144,68929,1,8,0:0:0:0:
173,269,69092,1,0,0:0:0:0:
304,80,69255,1,0,0:0:0:0:
179,109,69418,1,0,0:0:0:0:
208,304,69581,2,0,B|272:304|250:353|372:313|353:314,1,105.000004005432,8|0,0:0|0:0,0:0:0:0:
358,161,69907,1,0,0:0:0:0:
154,223,70070,5,0,0:0:0:0:
368,240,70233,2,0,B|368:176|417:198|377:76|378:95,1,105.000004005432,8|0,0:0|0:0,0:0:0:0:
225,90,70559,1,0,0:0:0:0:
287,294,70722,1,0,0:0:0:0:
159,73,71048,5,0,0:0:0:0:
137,289,71211,1,8,0:0:0:0:
353,73,71374,5,0,0:0:0:0:
375,289,71537,1,0,0:0:0:0:
93,111,71700,5,0,0:0:0:0:
32,308,71863,1,8,0:0:0:0:
419,111,72026,5,0,0:0:0:0:
480,308,72353,1,0,0:0:0:0:
419,111,72516,1,0,0:0:0:0:
193,226,72679,2,0,B|217:303|163:257|213:349,1,105.000004005432,0|8,0:0|0:0,0:0:0:0:
278,74,73005,1,0,0:0:0:0:
100,305,73168,2,0,B|76:228|130:274|80:182,1,105.000004005432
193,226,73657,5,0,0:0:0:0:
222,129,73820,1,8,0:0:0:0:
319,158,73983,1,0,0:0:0:0:
290,255,74146,5,8,0:0:0:0:
133,257,74309,1,0,0:0:0:0:
190,69,74472,1,8,0:0:0:0:
321,314,74635,5,0,0:0:0:0:
378,126,74798,1,8,0:0:0:0:
73,290,74961,1,0,0:0:0:0:
157,9,75124,5,8,0:0:0:0:
354,374,75287,1,0,0:0:0:0:
438,93,75450,1,8,0:0:0:0:
252,362,75613,6,0,P|319:304|288:276,1,105.000004005432,0|8,0:0|0:0,0:0:0:0:
260,22,75940,2,0,P|193:80|224:108,1,105.000004005432
219,291,76429,5,2,0:0:0:0:
355,229,76592,1,2,0:0:0:0:
293,93,76755,1,2,0:0:0:0:
157,155,76918,2,2,B|216:118|216:186|313:127,1,105.000004005432
438,93,77244,1,2,0:0:0:0:
218,318,77570,1,0,0:0:0:0:
339,251,77733,1,8,0:0:0:0:
336,40,77896,5,0,0:0:0:0:
204,223,78059,1,8,0:0:0:0:
170,360,78222,5,0,0:0:0:0:
250,98,78385,1,8,0:0:0:0:
195,118,78467,1,0,0:0:0:0:
183,174,78548,1,8,0:0:0:0:
145,218,78630,1,0,0:0:0:0:
89,204,78711,1,8,0:0:0:0:
44,69,78874,5,0,0:0:0:0:
147,208,79037,1,8,0:0:0:0:
189,95,79200,5,0,0:0:0:0:
7,111,79363,1,8,0:0:0:0:
78,214,79527,5,0,0:0:0:0:
140,14,79690,1,8,0:0:0:0:
31,25,79853,5,0,0:0:0:0:
262,169,80016,1,8,0:0:0:0:
63,289,80179,5,0,0:0:0:0:
272,35,80342,1,8,0:0:0:0:
356,338,80505,5,0,0:0:0:0:
91,40,80668,1,8,0:0:0:0:
93,324,80831,5,0,0:0:0:0:
475,63,80994,1,8,0:0:0:0:
256,312,81157,2,0,L|256:170,1,105.000004005432,0|8,0:0|0:0,0:0:0:0:
208,228,81483,5,0,0:0:0:0:
304,156,81646,1,8,0:0:0:0:
252,272,81809,5,0,0:0:0:0:
260,112,81972,1,8,0:0:0:0:
132,232,82135,5,0,0:0:0:0:
380,152,82298,1,8,0:0:0:0:
342,362,82461,5,0,0:0:0:0:
170,22,82624,1,8,0:0:0:0:
216,316,82787,5,0,0:0:0:0:
296,68,82950,1,8,0:0:0:0:
94,140,83113,5,0,0:0:0:0:
417,243,83276,1,8,0:0:0:0:
426,106,83440,5,0,0:0:0:0:
86,278,83603,1,8,0:0:0:0:
216,68,83766,5,0,0:0:0:0:
296,316,83929,1,8,0:0:0:0:
419,298,84092,5,0,0:0:0:0:
364,66,84255,1,8,0:0:0:0:
458,140,84418,5,0,0:0:0:0:
204,200,84581,1,8,0:0:0:0:
221,299,84744,5,0,0:0:0:0:
268,98,84907,1,8,0:0:0:0:
54,242,85070,5,0,0:0:0:0:
327,177,85233,1,8,0:0:0:0:
494,204,85396,5,0,0:0:0:0:
197,134,85559,1,8,0:0:0:0:
481,125,85722,5,0,0:0:0:0:
206,190,85885,1,8,0:0:0:0:
262,295,86048,5,0,0:0:0:0:
217,103,86211,1,8,0:0:0:0:
385,223,86374,5,0,0:0:0:0:
51,144,86537,1,8,0:0:0:0:
179,342,86700,5,0,0:0:0:0:
109,46,86863,1,8,0:0:0:0:
319,141,87027,6,0,B|368:197|362:139|428:247,1,105.000004005432,0|8,0:0|0:0,0:0:0:0:
95,280,87353,1,0,0:0:0:0:
265,159,87516,5,8,0:0:0:0:
83,66,87679,1,0,0:0:0:0:
255,297,87842,5,8,0:0:0:0:
350,231,88005,1,0,0:0:0:0:
324,118,88168,1,0,0:0:0:0:
254,340,88331,5,8,0:0:0:0:
388,247,88494,1,0,0:0:0:0:
352,87,88657,1,0,0:0:0:0:
94,166,88820,6,0,B|106:228|48:215|77:316,1,105.000004005432,8|0,0:0|0:0,0:0:0:0:
418,218,89146,6,0,B|406:156|464:169|435:68,1,105.000004005432,12|0,0:0|0:0,0:0:0:0:
