osu file format v14

[General]
AudioFilename: audio.mp3
AudioLeadIn: 1748
PreviewTime: 57643
Countdown: 0
SampleSet: Soft
StackLeniency: 0.7
Mode: 0
LetterboxInBreaks: 0
WidescreenStoryboard: 0

[Editor]
DistanceSpacing: 1.2
BeatDivisor: 4
GridSize: 4
TimelineZoom: 3.899998

[Metadata]
Title:Acchu~ma Seishun!
TitleUnicode:あっちゅ~ま青春!
Artist:Nanamori-chu*Gorakubu
ArtistUnicode:七森中☆ごらく部
Creator:Pata-Mon
Version:Lily Bread's Hard
Source:ゆるゆり さん☆ハイ!
Tags:Doormat Lily Bread Karen Fycho yuruyuri yuru yuri san * hai season 3 Nanamori chu Gorakubu ED ending tv size akaza akari 赤座あかり mikami shiori 三上枝織 toshinou kyouko 歳納京子 ootsubo yuka 大坪由佳 funami yui 船見結衣 tsuda minami 津田美波 yoshikawa chinatsu 吉川ちなつ ookubo rumi 大久保瑠美
BeatmapID:969698
BeatmapSetID:451830

[Difficulty]
HPDrainRate:5.5
CircleSize:4
OverallDifficulty:6
ApproachRate:8
SliderMultiplier:1.4
SliderTickRate:1

[Events]
//Background and Video events
0,0,"BG.jpg",0,0
Video,0,"video.flv"
//Break Periods
//Storyboard Layer 0 (Background)
//Storyboard Layer 1 (Fail)
//Storyboard Layer 2 (Pass)
//Storyboard Layer 3 (Foreground)
//Storyboard Sound Samples

[TimingPoints]
252,326.086956521739,4,2,1,40,1,0
4817,-100,4,2,1,25,0,0
5469,-100,4,2,1,50,0,0
11012,-100,4,2,1,60,0,0
11665,-100,4,2,1,45,0,0
11991,-100,4,2,1,50,0,0
22425,-100,4,2,1,50,0,0
32534,-100,4,2,1,60,0,0
32860,-100,4,2,1,50,0,0
43295,-133.333333333333,4,2,1,40,0,0
48512,-100,4,2,1,50,0,0
52425,-100,4,2,1,60,0,0
54708,-100,4,2,1,50,0,0
55034,-100,4,2,2,30,0,0
56338,-100,4,2,2,60,0,0
57317,-100,4,2,2,70,0,0
57643,-90.9090909090909,4,2,1,50,0,1
67751,-90.9090909090909,4,2,1,60,0,1
68078,-90.9090909090909,4,2,1,60,0,1
78512,-100,4,2,1,50,0,0
83730,-100,4,2,1,60,0,0

[Colours]
Combo1 : 119,143,227
Combo2 : 222,61,61
Combo3 : 75,233,87
Combo4 : 251,172,85

[HitObjects]
256,192,252,5,4,0:0:0:0:
256,192,1556,1,4,0:0:0:0:
392,124,2860,5,4,0:0:0:0:
324,328,3512,1,4,0:0:0:0:
120,260,4165,1,4,0:0:0:0:
188,56,4817,2,0,L|252:56,3,35,0|0|0|0,1:2|1:2|1:2|1:2,0:0:0:0:
192,112,5143,2,0,L|140:112,3,35,8|8|8|8,1:2|1:2|1:2|1:2,0:0:0:0:
172,164,5469,6,0,L|172:244,1,70,4|0,0:0|0:0,0:0:0:0:
220,304,5795,2,0,P|253:309|304:296,1,70,8|0,0:0|0:0,0:0:0:0:
340,234,6121,2,0,L|340:164,1,70,8|0,0:0|0:0,0:0:0:0:
416,128,6447,2,0,P|397:98|366:84,1,70,8|0,0:0|0:0,0:0:0:0:
292,48,6773,6,0,L|196:48,1,70,8|0,0:0|0:0,0:0:0:0:
145,84,7099,2,0,P|114:98|96:128,1,70,8|0,0:0|0:0,0:0:0:0:
172,164,7425,2,0,P|153:193|122:207,1,70,8|0,0:0|0:0,0:0:0:0:
40,196,7751,2,0,L|12:288,2,70,8|0|4,0:0|0:0|0:0,0:0:0:0:
95,128,8241,5,0,0:0:0:0:
122,207,8404,2,0,L|144:296,1,70,8|0,0:0|0:0,0:0:0:0:
220,296,8730,2,0,P|256:292|304:300,1,70,8|0,0:0|0:0,0:0:0:0:
373,274,9056,2,0,L|390:207,1,70,8|0,0:0|0:0,0:0:0:0:
472,196,9382,6,0,L|500:288,2,70,4|0|8,0:0|0:0|0:0,0:0:0:0:
389,207,9871,2,0,P|358:193|340:164,2,70,4|0|8,0:0|0:0|0:0,0:0:0:0:
420,128,10360,2,0,L|404:36,1,70,4|0,0:0|0:0,0:0:0:0:
332,20,10686,5,4,0:0:0:0:
332,20,11665,2,0,L|264:20,3,35,0|0|0|0,1:0|1:0|1:0|1:0,0:0:0:0:
312,68,11991,6,0,L|312:160,1,70,4|0,0:0|0:0,0:0:0:0:
392,184,12317,2,0,P|360:216|308:224,1,70,0|0,1:0|0:0,0:0:0:0:
256,208,12643,2,0,P|224:221|201:248,1,70,2|0,0:0|0:0,0:0:0:0:
221,328,12969,2,0,P|253:314|276:288,1,70,0|0,1:0|0:0,0:0:0:0:
337,223,13295,5,2,0:0:0:0:
292,92,13621,1,0,1:0:0:0:
216,208,13947,2,0,L|128:244,1,70,2|8,0:0|0:0,0:0:0:0:
72,268,14273,1,8,1:2:0:0:
52,132,14599,6,0,L|24:208,1,70,2|0,0:0|0:0,0:0:0:0:
72,268,14925,2,0,P|120:296|156:296,1,70,0|0,1:0|0:0,0:0:0:0:
200,244,15251,2,0,P|236:240|300:252,1,70,2|0,0:0|0:0,0:0:0:0:
338,298,15578,2,0,P|372:290|400:268,1,70,0|0,1:0|0:0,0:0:0:0:
444,198,15904,5,2,0:0:0:0:
452,60,16230,1,0,1:0:0:0:
336,132,16556,2,0,L|236:132,1,70,2|8,0:0|0:0,0:0:0:0:
184,132,16882,1,12,0:2:0:0:
152,264,17208,6,0,P|88:236|52:160,1,140,4|0,0:0|1:0,0:0:0:0:
36,96,17697,1,0,0:0:0:0:
116,68,17860,2,0,P|136:52|200:44,1,70,2|0,0:0|0:0,0:0:0:0:
264,48,18186,2,0,P|298:50|331:39,1,70,0|0,1:0|0:0,0:0:0:0:
412,16,18512,5,2,0:0:0:0:
504,112,18838,1,0,1:0:0:0:
412,208,19165,2,0,L|412:296,1,70,2|8,0:0|0:0,0:0:0:0:
412,360,19491,1,8,1:2:0:0:
292,308,19817,6,0,P|224:292|148:316,1,140,2|0,0:0|1:0,0:0:0:0:
84,352,20306,1,0,0:0:0:0:
84,268,20469,2,0,L|84:176,1,70,2|0,0:0|0:0,0:0:0:0:
92,116,20795,2,0,P|136:128|164:164,1,70,0|0,1:0|0:0,0:0:0:0:
220,192,21121,6,0,P|256:195|296:192,1,70,4|0,0:0|0:0,0:0:0:0:
358,144,21447,2,0,P|385:122|420:116,1,70,0|0,1:0|0:0,0:0:0:0:
476,180,21773,2,0,L|520:180,3,35,0|0|0|0,1:0|1:0|1:0|1:0,0:0:0:0:
448,228,22099,2,0,L|496:228,3,35,0|0|0|0,1:0|1:0|1:0|1:0,0:0:0:0:
464,280,22425,5,4,0:0:0:0:
464,280,22588,1,4,0:0:0:0:
464,280,23730,6,0,L|384:292,1,70,4|2,0:0|0:0,0:0:0:0:
336,352,24056,2,0,L|252:344,1,70,8|2,0:1|0:0,0:0:0:0:
220,276,24382,2,0,L|124:288,1,70,0|2,0:0|0:0,0:0:0:0:
96,348,24708,2,0,L|24:320,1,70,8|2,0:1|0:0,0:0:0:0:
4,244,25034,5,0,0:0:0:0:
4,244,25197,1,2,0:0:0:0:
4,244,25360,2,0,L|48:176,1,70,8|2,0:1|0:0,0:0:0:0:
20,104,25686,2,0,P|17:72|36:32,1,70,0|2,0:0|0:0,0:0:0:0:
100,88,26012,2,0,L|192:96,1,70,8|2,0:1|0:0,0:0:0:0:
224,28,26338,6,0,P|264:26|308:44,2,70,0|2|8,0:0|0:0|0:1,0:0:0:0:
252,108,26828,1,2,0:0:0:0:
252,108,26991,2,0,L|236:200,1,70,0|2,0:0|0:0,0:0:0:0:
316,212,27317,2,0,L|328:280,1,70,8|2,0:1|0:0,0:0:0:0:
396,332,27643,5,4,0:0:0:0:
396,332,27806,1,2,0:0:0:0:
396,332,27969,2,0,L|444:260,1,70,8|2,0:1|0:0,0:0:0:0:
504,228,28295,2,0,P|472:200|432:192,1,70,0|2,0:0|0:0,0:0:0:0:
372,152,28621,2,0,L|344:52,1,70,8|2,0:1|0:0,0:0:0:0:
424,44,28947,6,0,P|463:44|520:32,2,70,0|2|8,0:0|0:0|0:1,0:0:0:0:
348,8,29436,1,2,0:0:0:0:
348,8,29599,2,0,P|296:28|280:52,1,70,0|2,0:0|0:0,0:0:0:0:
272,120,29925,2,0,L|268:192,1,70,8|2,0:1|0:0,0:0:0:0:
192,228,30251,5,0,0:0:0:0:
192,228,30415,1,2,0:0:0:0:
192,228,30578,2,0,L|152:148,1,70,8|2,0:1|0:0,0:0:0:0:
176,84,30904,2,0,L|112:44,1,70,0|2,0:0|0:0,0:0:0:0:
36,72,31230,2,0,L|28:152,1,70,8|2,0:1|0:0,0:0:0:0:
8,224,31556,5,4,0:2:0:0:
92,212,31719,1,8,0:1:0:0:
60,288,31882,1,8,0:1:0:0:
144,280,32045,1,8,0:1:0:0:
132,364,32208,2,0,P|176:356|224:300,1,105,4|0,0:2|0:0,0:0:0:0:
240,268,32534,2,0,L|300:264,3,35,4|0|0|0,1:2|0:0|0:0|0:0,0:0:0:0:
296,316,32860,5,4,0:0:0:0:
296,316,33023,1,4,0:0:0:0:
296,316,34165,6,0,L|378:301,1,70,4|2,0:0|0:0,0:0:0:0:
443,329,34491,2,0,P|450:278|423:243,1,70,8|2,0:1|0:0,0:0:0:0:
365,229,34817,2,0,P|381:198|412:183,1,70,0|2,0:0|0:0,0:0:0:0:
495,206,35143,2,0,P|502:155|475:120,1,70,8|2,0:1|0:0,0:0:0:0:
424,112,35469,5,0,0:0:0:0:
424,112,35632,1,2,0:0:0:0:
424,112,35795,2,0,P|380:104|340:104,1,70,8|2,0:1|0:0,0:0:0:0:
280,136,36121,2,0,P|245:134|210:127,1,70,0|2,0:0|0:0,0:0:0:0:
184,208,36447,2,0,P|148:184|128:148,1,70,8|2,0:1|0:0,0:0:0:0:
132,80,36773,6,0,P|111:52|81:34,2,70,0|2|8,0:0|0:0|0:1,0:0:0:0:
56,120,37262,1,2,0:0:0:0:
56,120,37425,2,0,L|55:198,1,70,0|2,0:0|0:0,0:0:0:0:
32,272,37751,2,0,P|80:264|120:240,1,70,8|2,0:1|0:0,0:0:0:0:
152,188,38078,5,4,0:0:0:0:
152,188,38241,1,2,0:0:0:0:
152,188,38404,2,0,P|187:178|239:186,1,70,8|2,0:1|0:0,0:0:0:0:
196,260,38730,2,0,P|230:261|264:251,1,70,0|2,0:0|0:0,0:0:0:0:
304,176,39056,2,0,L|324:92,1,70,8|2,0:1|0:0,0:0:0:0:
352,32,39382,6,0,P|392:60|400:96,1,70,0|2,0:0|0:0,0:0:0:0:
392,164,39708,2,0,L|396:244,1,70,8|2,0:1|0:0,0:0:0:0:
416,316,40034,2,0,P|396:352|360:360,1,70,0|2,0:0|0:0,0:0:0:0:
336,284,40360,2,0,L|252:288,1,70,8|2,0:1|0:0,0:0:0:0:
204,344,40686,5,0,0:0:0:0:
204,344,40849,1,2,0:0:0:0:
204,344,41012,2,0,L|116:332,1,70,4|2,0:2|0:0,0:0:0:0:
56,364,41338,2,0,L|32:280,1,70,0|2,0:0|0:0,0:0:0:0:
108,256,41665,2,0,L|120:180,1,70,4|2,0:0|0:0,0:0:0:0:
52,136,41991,5,4,0:0:0:0:
52,52,42154,1,8,0:1:0:0:
124,8,42317,1,8,0:1:0:0:
192,56,42480,1,8,0:1:0:0:
192,140,42643,1,4,0:2:0:0:
336,232,42969,1,4,0:0:0:0:
488,136,43295,6,0,L|464:248,1,105.000004005432,4|0,0:0|0:0,0:0:0:0:
412,300,43784,1,0,1:0:0:0:
412,300,43947,2,0,P|360:328|296:328,1,105.000004005432,0|8,1:0|0:1,0:0:0:0:
256,280,44436,1,0,0:0:0:0:
256,280,44599,6,0,P|196:264|144:272,1,105.000004005432,0|0,1:0|0:0,0:0:0:0:
80,296,45088,1,0,1:0:0:0:
80,296,45251,2,0,L|64:368,2,52.5000020027161,0|8|8,1:0|1:0|1:0,0:0:0:0:
76,140,45904,6,0,P|104:96|148:68,1,105.000004005432,4|0,1:2|0:0,0:0:0:0:
224,96,46393,1,0,1:0:0:0:
224,96,46556,2,0,P|268:123|320:122,1,105.000004005432,0|8,1:0|0:1,0:0:0:0:
384,80,47045,1,0,0:0:0:0:
384,80,47208,6,0,P|412:40|456:36,2,78.7500030040742,0|0|0,1:0|0:0|1:0,0:0:0:0:
420,152,47860,2,0,L|432:208,2,52.5000020027161,0|8|8,1:0|1:0|1:0,0:0:0:0:
276,64,48512,6,0,L|192:56,1,70,4|0,0:0|0:0,0:0:0:0:
188,140,48838,2,0,L|100:152,1,70,8|0,0:1|0:0,0:0:0:0:
44,108,49165,2,0,L|16:176,1,70,0|0,0:0|0:0,0:0:0:0:
84,220,49491,2,0,L|88:300,1,70,8|0,0:1|0:0,0:0:0:0:
152,344,49817,6,0,L|188:272,1,70,0|0,0:0|0:0,0:0:0:0:
256,240,50143,2,0,P|296:236|336:248,1,70,8|0,0:1|0:0,0:0:0:0:
332,328,50469,2,0,P|366:335|400:330,1,70,0|0,0:0|0:0,0:0:0:0:
476,292,50795,2,0,P|484:336|476:368,2,70,8|0|0,0:1|0:0|0:0,0:0:0:0:
404,248,51284,5,0,0:0:0:0:
476,208,51447,2,0,L|480:136,1,70,8|0,0:1|0:0,0:0:0:0:
452,60,51773,2,0,P|416:84|404:108,1,70,0|0,0:0|0:0,0:0:0:0:
348,172,52099,2,0,L|264:176,1,70,8|0,0:1|0:0,0:0:0:0:
259,93,52425,5,4,0:0:0:0:
179,69,52588,1,8,0:1:0:0:
117,126,52751,1,8,0:1:0:0:
136,208,52915,1,8,0:1:0:0:
217,233,53078,2,0,P|208:316|148:364,1,140,8|0,0:1|0:0,0:0:0:0:
104,304,53567,6,0,P|38:252|29:176,1,140,4|8,0:0|0:1,0:0:0:0:
32,116,54056,1,8,0:1:0:0:
117,126,54219,1,8,0:1:0:0:
156,52,54382,1,8,0:1:0:0:
156,52,55034,5,4,0:0:0:0:
332,340,55686,1,4,0:0:0:0:
472,32,56338,5,4,1:2:0:0:
468,116,56501,1,0,1:0:0:0:
393,155,56665,1,0,1:0:0:0:
322,111,56828,1,0,1:0:0:0:
325,26,56991,2,0,P|264:20|220:40,1,105,4|0,1:2|2:0,0:0:0:0:
200,72,57317,2,0,L|148:72,3,35,8|0|0|0,1:2|0:0|0:0|0:0,0:0:0:0:
184,112,57643,5,2,0:0:0:0:
244,184,57806,2,0,L|256:268,1,77.0000023498536,2|0,0:0|1:0,0:0:0:0:
312,332,58132,2,0,P|360:320|380:284,2,77.0000023498536,2|0|0,0:0|0:0|0:0,0:0:0:0:
224,356,58621,1,0,1:0:0:0:
160,288,58784,2,0,L|116:196,1,77.0000023498536,2|0,0:0|0:0,0:0:0:0:
36,216,59110,6,0,L|56:132,1,77.0000023498536,2|0,0:0|1:0,0:0:0:0:
104,64,59436,2,0,P|168:48|264:76,1,154.000004699707,2|0,0:0|0:0,0:0:0:0:
236,160,59925,2,0,L|324:148,1,77.0000023498536,0|0,1:0|0:0,0:0:0:0:
348,64,60251,5,0,0:0:0:0:
416,128,60415,2,0,L|452:208,1,77.0000023498536,2|0,0:0|1:0,0:0:0:0:
484,284,60741,1,2,0:0:0:0:
392,268,60904,2,0,L|312:288,1,77.0000023498536,0|2,0:0|0:0,0:0:0:0:
256,356,61230,1,0,1:0:0:0:
216,272,61393,2,0,L|216:184,1,77.0000023498536,2|0,0:0|0:0,0:0:0:0:
128,228,61719,6,0,L|100:156,1,77.0000023498536,2|0,0:0|1:0,0:0:0:0:
16,116,62045,2,0,P|56:76|152:84,1,154.000004699707,2|0,0:0|0:0,0:0:0:0:
216,144,62534,1,0,1:0:0:0:
260,64,62697,2,0,L|260:16,2,38.5000011749268,0|0|4,1:0|1:0|0:0,0:0:0:0:
316,136,63023,5,2,0:0:0:0:
388,80,63186,2,0,P|408:132|404:160,1,77.0000023498536,0|2,1:0|0:0,0:0:0:0:
344,220,63512,2,0,P|337:257|348:294,1,77.0000023498536,0|2,0:0|0:0,0:0:0:0:
430,257,63838,2,0,P|439:311|430:338,1,77.0000023498536,0|2,1:0|0:0,0:0:0:0:
356,384,64165,6,0,L|252:376,1,77.0000023498536,0|2,0:0|0:0,0:0:0:0:
232,296,64491,2,0,L|140:308,1,77.0000023498536,0|2,1:0|0:0,0:0:0:0:
84,364,64817,2,0,L|-16:356,2,77.0000023498536,0|2|0,0:0|0:0|1:0,0:0:0:0:
64,276,65306,1,4,0:0:0:0:
64,276,65632,6,0,L|60:168,1,77.0000023498536,2|0,0:0|1:0,0:0:0:0:
28,112,65958,1,2,0:0:0:0:
116,136,66121,2,0,L|208:148,1,77.0000023498536,0|2,0:0|0:0,0:0:0:0:
208,56,66447,2,0,L|296:48,1,77.0000023498536,0|0,1:0|0:0,0:0:0:0:
372,24,66773,6,0,L|396:120,1,77.0000023498536,4|2,0:0|0:0,0:0:0:0:
304,128,67099,2,0,L|288:216,1,77.0000023498536,4|2,1:2|0:0,0:0:0:0:
384,200,67425,2,0,L|412:288,1,77.0000023498536,4|2,1:2|0:0,0:0:0:0:
316,296,67751,2,0,L|248:296,3,38.5000011749268,8|8|8|0,1:2|1:2|1:2|0:0,0:0:0:0:
300,336,68078,5,2,0:0:0:0:
212,356,68241,2,0,P|192:320|196:272,1,77.0000023498536,2|0,0:0|1:0,0:0:0:0:
208,196,68567,2,0,L|228:96,2,77.0000023498536,2|0|2,0:0|0:0|0:0,0:0:0:0:
120,224,69056,1,0,1:0:0:0:
116,316,69219,2,0,P|72:304|48:280,1,77.0000023498536,2|0,0:0|0:0,0:0:0:0:
36,192,69545,6,0,L|36:88,1,77.0000023498536,2|0,0:0|1:0,0:0:0:0:
100,48,69871,2,0,P|172:32|264:48,1,154.000004699707,2|0,0:0|0:0,0:0:0:0:
312,112,70360,2,0,P|336:76|340:28,1,77.0000023498536,0|0,1:0|0:0,0:0:0:0:
428,12,70686,5,0,0:0:0:0:
412,104,70849,2,0,L|416:192,1,77.0000023498536,2|0,0:0|1:0,0:0:0:0:
476,248,71175,1,2,0:0:0:0:
428,328,71338,2,0,P|392:288|388:260,1,77.0000023498536,0|0,0:0|0:0,0:0:0:0:
324,200,71665,1,0,1:0:0:0:
300,288,71828,2,0,P|272:312|216:320,1,77.0000023498536,2|0,0:0|0:0,0:0:0:0:
156,268,72154,6,0,P|184:244|240:236,1,77.0000023498536,2|0,0:0|1:0,0:0:0:0:
240,144,72480,2,0,P|148:160|80:212,1,154.000004699707,2|2,0:0|0:0,0:0:0:0:
40,264,72969,1,0,1:0:0:0:
100,336,73132,2,0,L|100:388,2,38.5000011749268,0|0|4,1:0|1:0|0:2,0:0:0:0:
156,268,73458,5,2,0:0:0:0:
98,192,73621,2,0,L|94:108,1,77.0000023498536,0|2,1:0|0:0,0:0:0:0:
116,24,73947,2,0,P|160:48|184:84,1,77.0000023498536,0|2,0:0|0:0,0:0:0:0:
216,152,74273,2,0,P|256:160|300:148,1,77.0000023498536,0|2,1:0|0:0,0:0:0:0:
335,68,74599,6,0,P|361:40|396:24,1,77.0000023498536,0|2,0:0|0:0,0:0:0:0:
415,115,74925,2,0,L|412:192,1,77.0000023498536,0|2,1:0|0:0,0:0:0:0:
428,284,75251,2,0,P|472:264|500:224,2,77.0000023498536,0|2|0,0:0|0:0|1:0,0:0:0:0:
340,252,75741,6,0,L|176:260,1,154.000004699707,4|2,0:0|0:0,0:0:0:0:
124,328,76230,2,0,P|92:276|92:256,1,77.0000023498536,0|2,1:0|0:0,0:0:0:0:
136,180,76556,2,0,L|144:96,1,77.0000023498536,0|2,1:0|0:0,0:0:0:0:
192,24,76882,1,0,1:0:0:0:
240,104,77045,1,4,0:0:0:0:
240,104,77534,6,0,P|328:96|400:52,2,154.000004699707,0|0|0,1:0|1:0|1:0,0:0:0:0:
200,268,78512,6,0,L|236:348,1,70,4|2,1:2|0:0,0:0:0:0:
308,364,78838,2,0,L|320:284,1,70,0|2,1:0|0:0,0:0:0:0:
392,252,79165,2,0,L|408:348,1,70,0|2,1:0|0:0,0:0:0:0:
476,364,79491,2,0,L|488:288,1,70,0|2,1:0|0:0,0:0:0:0:
468,212,79817,6,0,L|448:132,1,70,0|2,1:0|0:0,0:0:0:0:
424,64,80143,2,0,L|348:120,1,70,0|2,1:0|0:0,0:0:0:0:
292,144,80469,2,0,L|284:64,1,70,0|2,1:0|0:0,0:0:0:0:
216,28,80795,2,0,L|144:16,2,70,0|2|4,1:0|0:0|1:2,0:0:0:0:
208,112,81284,5,2,0:0:0:0:
208,112,81447,2,0,L|200:196,1,70,0|2,1:0|0:0,0:0:0:0:
136,232,81773,2,0,L|108:136,1,70,0|2,1:0|0:0,0:0:0:0:
48,120,82099,2,0,L|32:204,1,70,0|2,1:0|0:0,0:0:0:0:
60,268,82425,6,0,L|60:344,1,70,4|2,1:2|0:0,0:0:0:0:
144,352,82751,2,0,L|188:292,1,70,0|2,1:0|0:0,0:0:0:0:
248,240,83078,2,0,L|284:324,1,70,0|2,1:0|0:0,0:0:0:0:
344,352,83404,1,4,1:2:0:0:
352,268,83567,1,2,0:0:0:0:
416,320,83730,6,0,L|496:312,1,70,4|2,1:2|0:0,0:0:0:0:
480,228,84056,2,0,L|412:208,1,70,0|2,1:0|0:0,0:0:0:0:
416,124,84382,2,0,L|496:116,1,70,0|2,1:0|0:0,0:0:0:0:
480,32,84708,2,0,L|412:12,1,70,0|2,1:0|0:0,0:0:0:0:
352,68,85034,6,0,L|296:128,1,70,0|2,1:0|0:0,0:0:0:0:
228,152,85360,2,0,L|224:60,1,70,0|2,1:0|0:0,0:0:0:0:
152,36,85686,2,0,L|112:100,1,70,0|2,1:0|0:0,0:0:0:0:
48,144,86012,2,0,L|24:60,2,70,0|2|4,1:0|0:0|1:2,0:0:0:0:
124,180,86501,5,2,0:0:0:0:
124,180,86665,2,0,L|120:264,1,70,0|2,1:0|0:0,0:0:0:0:
168,320,86991,2,0,L|224:252,1,70,0|2,1:0|0:0,0:0:0:0:
284,312,87317,2,0,L|304:232,1,70,0|2,1:0|0:0,0:0:0:0:
372,204,87643,6,0,L|456:180,2,70,4|2|0,1:2|0:0|1:0,0:0:0:0:
320,136,88132,2,0,L|324:60,2,70,4|2|0,0:0|0:0|1:0,0:0:0:0:
248,180,88621,2,0,L|176:172,1,70,4|2,1:2|0:0,0:0:0:0:
96,164,88947,5,4,1:0:0:0:
