osu file format v14

[General]
AudioFilename: audio.mp3
AudioLeadIn: 1748
PreviewTime: 57643
Countdown: 0
SampleSet: Soft
StackLeniency: 0.7
Mode: 0
LetterboxInBreaks: 0
WidescreenStoryboard: 1

[Editor]
Bookmarks: 11991,22425,32860,43295,57643,68078,78512
DistanceSpacing: 0.4
BeatDivisor: 4
GridSize: 4
TimelineZoom: 1.7

[Metadata]
Title:Acchu~ma Seishun!
TitleUnicode:あっちゅ~ま青春!
Artist:Nanamori-chu*Gorakubu
ArtistUnicode:七森中☆ごらく部
Creator:Pata-Mon
Version:Karen's Insane
Source:ゆるゆり さん☆ハイ!
Tags:Doormat Lily Bread Karen Fycho yuruyuri yuru yuri san * hai season 3 Nanamori chu Gorakubu ED ending tv size akaza akari 赤座あかり mikami shiori 三上枝織 toshinou kyouko 歳納京子 ootsubo yuka 大坪由佳 funami yui 船見結衣 tsuda minami 津田美波 yoshikawa chinatsu 吉川ちなつ ookubo rumi 大久保瑠美
BeatmapID:972658
BeatmapSetID:451830

[Difficulty]
HPDrainRate:6
CircleSize:3.8
OverallDifficulty:7
ApproachRate:9
SliderMultiplier:1.6
SliderTickRate:1

[Events]
//Background and Video events
0,0,"BG.jpg",0,0
Video,0,"video.flv"
//Break Periods
//Storyboard Layer 0 (Background)
//Storyboard Layer 1 (Fail)
//Storyboard Layer 2 (Pass)
//Storyboard Layer 3 (Foreground)
//Storyboard Sound Samples

[TimingPoints]
252,326.086956521739,4,2,1,50,1,0
252,-125,4,2,1,50,0,0
4817,-125,4,2,1,30,0,0
5469,-100,4,2,1,70,0,0
9382,-83.3333333333333,4,2,1,70,0,0
11665,-83.3333333333333,4,2,1,55,0,0
11991,-100,4,2,1,60,0,0
23730,-111.111111111111,4,2,1,60,0,0
32534,-111.111111111111,4,2,1,70,0,0
32860,-111.111111111111,4,2,1,60,0,0
43295,-125,4,2,1,50,0,0
48512,-125,4,2,1,60,0,0
52425,-125,4,2,1,70,0,0
53567,-100,4,2,1,70,0,0
54708,-83.3333333333333,4,2,1,60,0,0
55034,-125,4,2,2,40,0,0
55360,-100,4,2,2,40,0,0
55686,-125,4,2,2,40,0,0
56012,-100,4,2,2,40,0,0
56338,-100,4,2,2,70,0,0
57317,-100,4,2,2,80,0,0
57643,-86.9565217391303,4,2,1,70,0,1
66773,-80,4,2,1,70,0,1
67751,-86.9565217391304,4,2,1,70,0,0
68078,-86.9565217391304,4,2,1,70,0,1
78512,-100,4,2,1,70,0,0
87643,-83.3333333333333,4,2,1,70,0,0
88947,-76.9230769230769,4,2,1,70,0,0
89110,-76.9230769230769,4,2,1,70,0,0

[Colours]
Combo1 : 201,146,146
Combo2 : 255,201,147
Combo3 : 255,208,232
Combo4 : 255,172,172

[HitObjects]
181,169,252,5,4,0:0:0:0:
152,279,1230,1,2,0:0:0:0:
181,169,1556,5,4,0:0:0:0:
132,67,2534,1,2,0:0:0:0:
181,169,2860,5,4,0:0:0:0:
213,154,3512,1,4,0:0:0:0:
238,140,4165,6,0,L|310:132,1,64,4|0,0:0|0:0,0:0:0:0:
413,39,4491,2,0,L|349:46,1,64,2|0,0:0|0:0,0:0:0:0:
336,224,4817,2,0,L|350:272,3,32,0|0|0|0,1:2|1:2|1:2|1:2,0:0:0:0:
365,291,5143,1,8,1:2:0:0:
388,284,5224,1,8,1:2:0:0:
413,282,5306,1,8,1:2:0:0:
436,291,5387,1,8,1:2:0:0:
462,309,5469,6,0,B|431:226|487:223|451:125,1,160,4|8,0:0|0:0,0:0:0:0:
400,83,5958,1,0,0:0:0:0:
289,194,6121,2,0,L|379:186,1,80,8|0,0:0|0:0,0:0:0:0:
413,271,6447,1,8,0:0:0:0:
413,271,6610,1,0,0:0:0:0:
210,253,6773,6,0,P|190:195|224:120,1,120,8|0,0:0|0:0,0:0:0:0:
226,105,7099,1,8,0:0:0:0:
289,194,7262,1,0,0:0:0:0:
252,349,7425,2,0,L|158:339,1,80,8|0,0:0|0:0,0:0:0:0:
4,361,7751,2,0,L|83:369,1,80,8|0,0:0|0:0,0:0:0:0:
141,194,8078,6,0,P|72:205|97:270,1,160,4|8,0:0|0:0,0:0:0:0:
232,230,8567,1,0,0:0:0:0:
312,97,8730,2,0,L|319:192,1,80,8|0,0:0|0:0,0:0:0:0:
253,248,9056,1,8,0:0:0:0:
401,217,9219,1,0,0:0:0:0:
271,265,9382,6,0,L|168:266,1,95.9999970703126,4|0,0:0|0:0,0:0:0:0:
345,331,9708,1,8,0:0:0:0:
401,217,9871,2,0,L|496:216,1,95.9999970703126,4|0,0:0|0:0,0:0:0:0:
363,314,10197,1,8,0:0:0:0:
307,157,10360,2,0,P|297:102|316:57,1,95.9999970703126,4|0,0:0|0:0,0:0:0:0:
419,21,10686,5,4,0:0:0:0:
448,32,11012,1,8,0:0:0:0:
482,44,11338,1,8,0:0:0:0:
512,56,11665,5,0,1:0:0:0:
507,74,11746,1,0,1:0:0:0:
503,92,11828,1,0,1:0:0:0:
496,110,11909,1,0,1:0:0:0:
491,125,11991,6,0,P|415:91|335:131,1,160,4|0,0:0|1:0,0:0:0:0:
416,201,12480,1,0,0:0:0:0:
246,111,12643,2,0,L|241:23,1,80,2|0,0:0|0:0,0:0:0:0:
295,210,12969,2,0,L|299:289,1,80,0|0,1:0|0:0,0:0:0:0:
233,369,13295,6,0,P|187:355|163:320,1,80,2|0,0:0|0:0,0:0:0:0:
352,376,13621,2,0,P|390:367|417:338,1,80,0|0,1:0|0:0,0:0:0:0:
297,191,13947,1,2,0:0:0:0:
299,289,14110,1,8,0:0:0:0:
294,92,14273,1,8,1:2:0:0:
273,66,14599,6,0,P|221:55|177:63,1,80,2|0,0:0|0:0,0:0:0:0:
138,190,14925,2,0,P|190:201|234:193,1,80,0|0,1:0|0:0,0:0:0:0:
80,101,15251,1,2,0:0:0:0:
80,101,15415,1,0,0:0:0:0:
46,242,15578,1,0,1:0:0:0:
46,242,15741,1,0,0:0:0:0:
216,198,15904,6,0,L|208:113,1,80,2|0,0:0|0:0,0:0:0:0:
186,290,16230,2,0,L|193:369,1,80,0|0,1:0|0:0,0:0:0:0:
121,213,16556,1,2,0:0:0:0:
282,273,16719,1,8,0:0:0:0:
121,213,16882,1,12,0:2:0:0:
96,224,17208,6,0,P|69:293|119:381,1,160,4|0,0:0|1:0,0:0:0:0:
190,331,17697,1,0,0:0:0:0:
190,331,17860,2,0,P|235:324|278:335,1,80,2|0,0:0|0:0,0:0:0:0:
359,360,18186,2,0,P|398:367|437:360,1,80,0|0,1:0|0:0,0:0:0:0:
338,184,18512,6,0,P|327:226|338:280,1,80,2|0,0:0|0:0,0:0:0:0:
260,116,18838,2,0,P|271:74|260:20,1,80,0|0,1:0|0:0,0:0:0:0:
175,170,19165,1,2,0:0:0:0:
360,93,19328,1,8,0:0:0:0:
174,68,19491,1,8,1:2:0:0:
156,40,19817,6,0,L|68:30,2,80,2|0|0,0:0|0:0|1:0,0:0:0:0:
260,116,20306,1,0,0:0:0:0:
252,7,20469,1,2,0:0:0:0:
159,138,20632,1,0,0:0:0:0:
275,214,20795,2,0,L|364:205,1,80,0|0,1:0|0:0,0:0:0:0:
467,127,21121,6,0,P|474:78|458:32,1,80,4|0,0:0|0:0,0:0:0:0:
447,224,21447,2,0,P|440:273|456:319,1,80,0|0,1:0|0:0,0:0:0:0:
341,351,21773,2,0,L|296:338,3,40,0|0|0|0,1:0|1:0|1:0|1:0,0:0:0:0:
276,299,22099,2,0,L|231:286,3,40,0|0|0|0,1:0|1:0|1:0|1:0,0:0:0:0:
196,312,22425,5,4,0:0:0:0:
137,131,22588,1,4,0:0:0:0:
137,131,23730,5,4,0:0:0:0:
151,223,23893,1,2,0:0:0:0:
159,316,24056,1,8,0:1:0:0:
247,245,24219,2,0,P|248:206|232:164,1,71.9999978027344,2|0,0:0|0:0,0:0:0:0:
53,197,24545,2,0,P|52:236|68:278,1,71.9999978027344,2|8,0:0|0:1,0:0:0:0:
159,316,24871,1,2,0:0:0:0:
216,146,25034,6,0,P|256:137|296:150,1,71.9999978027344,0|2,0:0|0:0,0:0:0:0:
364,195,25360,1,8,0:1:0:0:
446,150,25523,1,2,0:0:0:0:
446,150,25605,1,0,0:0:0:0:
446,150,25686,2,0,B|450:109|450:109|437:59,1,71.9999978027344,0|2,0:0|0:0,0:0:0:0:
364,195,26012,1,8,0:1:0:0:
364,195,26175,1,2,0:0:0:0:
350,287,26338,5,0,0:0:0:0:
393,370,26501,2,0,L|472:357,1,71.9999978027344,2|8,0:0|0:1,0:0:0:0:
364,195,26828,2,0,P|308:200|277:228,1,71.9999978027344,2|0,0:0|0:0,0:0:0:0:
187,306,27154,2,0,P|243:301|274:273,1,71.9999978027344,2|8,0:0|0:1,0:0:0:0:
256,118,27480,1,2,0:0:0:0:
206,208,27643,5,4,0:0:0:0:
347,152,27806,1,2,0:0:0:0:
271,21,27969,2,0,L|190:27,1,71.9999978027344,8|2,0:1|0:0,0:0:0:0:
121,168,28295,2,0,B|52:131|50:201|-26:155,1,143.999995605469,0|8,0:0|0:1,0:0:0:0:
24,76,28784,1,2,0:0:0:0:
79,247,28947,6,0,L|81:321,1,71.9999978027344,0|2,0:0|0:0,0:0:0:0:
3,370,29273,1,8,0:1:0:0:
168,340,29436,2,0,P|213:335|257:344,1,71.9999978027344,2|0,0:0|0:0,0:0:0:0:
352,254,29762,2,0,P|307:259|263:250,1,71.9999978027344,2|8,0:0|0:1,0:0:0:0:
222,182,30088,1,2,0:0:0:0:
251,93,30251,5,0,0:0:0:0:
280,255,30415,1,2,0:0:0:0:
343,114,30578,2,0,P|346:77|334:37,1,71.9999978027344,8|2,0:1|0:0,0:0:0:0:
251,93,30904,1,0,0:0:0:0:
366,206,31067,2,0,L|446:197,1,71.9999978027344,2|8,0:0|0:1,0:0:0:0:
483,116,31393,1,2,0:0:0:0:
454,288,31556,5,4,0:2:0:0:
358,129,31719,1,8,0:1:0:0:
454,288,31882,1,8,0:1:0:0:
483,116,32045,1,8,0:1:0:0:
338,221,32208,1,4,0:2:0:0:
317,238,32453,5,0,3:0:0:0:
317,238,32534,2,0,L|325:332,1,71.9999978027344,4|0,1:2|0:0,0:0:0:0:
194,368,32860,5,4,0:0:0:0:
170,246,33023,1,4,0:0:0:0:
130,77,34165,5,4,0:0:0:0:
223,86,34328,1,2,0:0:0:0:
316,90,34491,1,8,0:1:0:0:
267,243,34654,2,0,P|260:200|275:159,1,71.9999978027344,2|0,0:0|0:0,0:0:0:0:
402,52,34980,2,0,P|409:95|394:136,1,71.9999978027344,2|8,0:0|0:1,0:0:0:0:
356,203,35306,1,2,0:0:0:0:
405,282,35469,6,0,L|507:275,1,71.9999978027344,0|2,0:0|0:0,0:0:0:0:
370,372,35795,1,8,0:1:0:0:
293,318,35958,1,2,0:0:0:0:
293,318,36040,1,0,0:0:0:0:
293,318,36121,2,0,P|289:262|304:229,1,71.9999978027344,0|2,0:0|0:0,0:0:0:0:
346,170,36447,1,8,0:1:0:0:
346,170,36610,1,2,0:0:0:0:
217,197,36773,6,0,L|129:196,1,71.9999978027344,0|2,0:0|0:0,0:0:0:0:
82,126,37099,1,8,0:1:0:0:
48,294,37262,2,0,L|142:281,1,71.9999978027344,2|0,0:0|0:0,0:0:0:0:
249,362,37588,2,0,L|166:358,1,71.9999978027344,2|8,0:0|0:1,0:0:0:0:
145,196,37915,1,2,0:0:0:0:
264,266,38078,6,0,P|302:262|343:242,1,71.9999978027344,4|2,0:0|0:0,0:0:0:0:
370,163,38404,1,8,0:1:0:0:
453,204,38567,2,0,L|455:294,1,71.9999978027344,2|0,0:0|0:0,0:0:0:0:
419,362,38893,1,2,0:0:0:0:
334,320,39056,2,0,L|332:248,1,71.9999978027344,8|2,0:1|0:0,0:0:0:0:
278,108,39382,5,0,0:0:0:0:
278,108,39545,1,2,0:0:0:0:
258,199,39708,1,8,0:1:0:0:
258,199,39871,1,2,0:0:0:0:
346,167,40034,1,0,0:0:0:0:
174,159,40197,2,0,P|169:207|185:256,1,71.9999978027344,2|8,0:0|0:1,0:0:0:0:
241,294,40523,1,2,0:0:0:0:
84,256,40686,6,0,L|9:254,1,71.9999978027344,0|2,0:0|0:0,0:0:0:0:
94,364,41012,1,4,0:2:0:0:
173,229,41175,1,2,0:0:0:0:
173,229,41338,1,0,0:0:0:0:
106,162,41501,2,0,L|98:85,2,71.9999978027344,2|4|2,0:0|0:0|0:0,0:0:0:0:
54,273,41991,5,4,0:0:0:0:
219,233,42154,1,8,0:1:0:0:
54,273,42317,1,8,0:1:0:0:
119,189,42480,1,8,0:1:0:0:
124,357,42643,1,4,0:2:0:0:
149,373,42969,2,0,L|267:365,1,107.999996704102,4|0,0:0|0:0,0:0:0:0:
285,335,43295,5,4,0:0:0:0:
358,283,43458,1,0,0:0:0:0:
446,298,43621,1,0,0:0:0:0:
509,361,43784,1,0,1:0:0:0:
478,205,43947,2,0,B|450:139|498:138|466:61,1,128,0|8,1:0|0:1,0:0:0:0:
412,13,44436,1,0,0:0:0:0:
321,109,44599,6,0,L|238:115,1,64,0|0,1:0|0:0,0:0:0:0:
256,203,44925,2,0,L|319:198,1,64,0|0,0:0|1:0,0:0:0:0:
476,121,45251,1,0,1:0:0:0:
413,219,45415,1,8,1:0:0:0:
455,95,45578,1,8,1:0:0:0:
433,69,45904,6,0,P|429:31|438:-8,1,64,4|0,1:2|0:0,0:0:0:0:
501,188,46230,2,0,P|505:226|496:265,1,64,0|0,0:0|1:0,0:0:0:0:
418,339,46556,2,0,L|276:336,1,128,0|8,1:0|0:1,0:0:0:0:
130,369,47045,1,0,0:0:0:0:
201,315,47208,6,0,P|192:264|220:205,2,96,0|0|0,1:0|0:0|1:0,0:0:0:0:
290,336,47860,1,0,1:0:0:0:
130,369,48023,1,8,1:0:0:0:
195,291,48186,1,8,1:0:0:0:
192,261,48512,6,0,L|182:175,1,64,4|0,0:0|0:0,0:0:0:0:
109,344,48838,2,0,L|99:258,1,64,8|0,0:1|0:0,0:0:0:0:
40,132,49165,1,0,0:0:0:0:
40,132,49328,1,0,0:0:0:0:
17,268,49491,1,8,0:1:0:0:
17,268,49654,1,0,0:0:0:0:
125,192,49817,6,0,B|172:181|213:197|213:197|263:196,1,128,0|8,0:0|0:1,0:0:0:0:
308,127,50306,1,0,0:0:0:0:
178,135,50469,2,0,P|158:191|185:266,1,128,0|8,0:0|0:1,0:0:0:0:
252,301,50958,1,0,0:0:0:0:
252,301,51121,5,0,0:0:0:0:
188,364,51284,2,0,L|111:364,2,64,0|8|0,0:0|0:1|0:0,0:0:0:0:
341,326,51773,2,0,P|345:281|331:243,1,64,0|0,0:0|0:0,0:0:0:0:
441,314,52099,2,0,P|437:359|451:397,1,64,8|0,0:1|0:0,0:0:0:0:
511,237,52425,5,4,0:0:0:0:
505,134,52588,1,8,0:1:0:0:
493,32,52751,1,8,0:1:0:0:
353,106,52915,1,8,0:1:0:0:
512,46,53078,1,8,0:1:0:0:
512,46,53404,1,0,0:0:0:0:
353,106,53567,6,0,B|311:111|284:109|246:97|246:97|224:135|284:142,1,160,4|8,0:0|0:1,0:0:0:0:
276,262,54056,1,8,0:1:0:0:
244,98,54219,1,8,0:1:0:0:
377,212,54382,1,8,0:1:0:0:
377,212,54708,6,0,P|422:245|369:294,1,143.999995605469,0|0,0:0|0:0,0:0:0:0:
298,247,55034,6,0,L|178:251,1,96,4|0,0:0|0:0,0:0:0:0:
171,213,55360,6,0,L|247:180,1,80,2|0,0:0|0:0,0:0:0:0:
278,350,55686,6,0,L|158:354,1,96,4|0,0:0|0:0,0:0:0:0:
151,316,56012,6,0,L|227:283,1,80,2|0,0:0|0:0,0:0:0:0:
307,209,56338,5,4,1:2:0:0:
322,98,56501,1,0,1:0:0:0:
230,32,56665,1,0,1:0:0:0:
146,107,56828,1,0,1:0:0:0:
189,210,56991,1,4,1:2:0:0:
218,231,57235,5,0,3:0:0:0:
218,231,57317,2,0,L|317:225,1,80,10|0,1:2|0:0,0:0:0:0:
417,96,57643,6,0,B|443:61|443:61|446:210,1,184.000003509522,4|0,0:0|1:0,0:0:0:0:
381,290,58132,1,2,0:0:0:0:
381,290,58213,1,2,0:0:0:0:
381,290,58295,2,0,P|382:348|410:382,1,92.0000017547608,0|0,0:0|0:0,0:0:0:0:
486,305,58621,1,0,1:0:0:0:
421,188,58784,6,0,L|315:196,1,92.0000017547608,2|0,0:0|0:0,0:0:0:0:
180,117,59110,1,2,0:0:0:0:
314,97,59273,1,0,1:0:0:0:
236,203,59436,1,2,0:0:0:0:
235,226,59518,1,2,0:0:0:0:
235,248,59599,1,0,0:0:0:0:
286,345,59762,1,0,0:0:0:0:
158,319,59925,2,0,B|111:310|111:310|64:325,1,92.0000017547608,0|0,1:0|0:0,0:0:0:0:
4,234,60251,5,0,0:0:0:0:
122,159,60415,1,2,0:0:0:0:
78,291,60578,1,0,1:0:0:0:
26,131,60741,1,2,0:0:0:0:
24,108,60822,1,0,0:0:0:0:
22,84,60904,1,0,0:0:0:0:
122,159,61067,1,2,0:0:0:0:
188,70,61230,2,0,P|233:61|291:80,1,92.0000017547608,0|2,1:0|0:0,0:0:0:0:
366,136,61556,5,0,0:0:0:0:
376,26,61719,1,2,0:0:0:0:
266,176,61882,2,0,P|260:229|273:273,1,92.0000017547608,0|2,1:0|0:0,0:0:0:0:
269,265,62126,1,2,0:0:0:0:
269,265,62208,1,0,0:0:0:0:
333,346,62371,1,0,0:0:0:0:
468,214,62534,2,0,L|373:212,1,92.0000017547608,0|0,1:0|1:0,0:0:0:0:
352,196,62779,1,0,1:0:0:0:
332,183,62860,6,0,P|367:243|309:363,1,184.000003509522,4|0,0:0|1:0,0:0:0:0:
170,272,63349,1,2,0:0:0:0:
164,249,63431,1,2,0:0:0:0:
156,227,63512,1,0,0:0:0:0:
269,265,63675,1,2,0:0:0:0:
266,107,63838,1,0,1:0:0:0:
269,265,64001,1,2,0:0:0:0:
110,190,64165,6,0,P|162:179|212:191,1,92.0000017547608,0|2,0:0|0:0,0:0:0:0:
370,253,64491,2,0,P|415:259|459:248,1,92.0000017547608,0|2,1:0|0:0,0:0:0:0:
476,233,64735,1,2,0:0:0:0:
491,215,64817,1,0,0:0:0:0:
427,78,64980,1,2,0:0:0:0:
337,141,65143,1,0,1:0:0:0:
505,196,65306,6,0,L|511:306,1,92.0000017547608,4|0,0:0|0:0,0:0:0:0:
357,300,65632,1,2,0:0:0:0:
357,300,65795,1,0,1:0:0:0:
440,367,65958,1,2,0:0:0:0:
462,370,66040,1,2,0:0:0:0:
484,374,66121,1,0,0:0:0:0:
427,216,66284,1,2,0:0:0:0:
440,367,66447,1,0,1:0:0:0:
510,287,66610,1,0,0:0:0:0:
345,321,66773,6,0,P|288:324|229:308,1,100,4|2,0:0|0:0,0:0:0:0:
104,156,67099,2,0,P|154:147|224:168,1,100,4|2,1:2|0:0,0:0:0:0:
155,345,67425,2,0,L|149:226,1,100,4|2,1:2|0:0,0:0:0:0:
268,85,67751,1,8,1:2:0:0:
295,91,67833,1,8,1:2:0:0:
322,92,67915,1,8,1:2:0:0:
348,86,67996,1,0,1:2:0:0:
372,73,68078,6,0,P|442:67|409:152,1,184.000003509522,4|0,0:0|1:0,0:0:0:0:
372,232,68567,1,2,0:0:0:0:
374,254,68648,1,2,0:0:0:0:
375,277,68730,1,0,0:0:0:0:
429,361,68893,1,2,0:0:0:0:
429,361,69056,1,0,1:0:0:0:
276,277,69219,6,0,B|227:269|227:269|161:280,1,92.0000017547608,2|0,0:0|0:0,0:0:0:0:
43,361,69545,2,0,B|92:369|92:369|158:358,1,92.0000017547608,2|0,0:0|1:0,0:0:0:0:
87,219,69871,1,2,0:0:0:0:
89,241,69953,1,2,0:0:0:0:
90,263,70034,1,0,0:0:0:0:
167,356,70197,1,0,0:0:0:0:
273,208,70360,2,0,P|227:195|167:213,1,92.0000017547608,0|0,1:0|0:0,0:0:0:0:
272,318,70686,6,0,B|359:273|368:352|470:309,1,184.000003509522,0|0,0:0|1:0,0:0:0:0:
411,212,71175,1,2,0:0:0:0:
411,212,71257,1,2,0:0:0:0:
411,212,71338,2,0,P|400:157|414:115,1,92.0000017547608,0|0,0:0|0:0,0:0:0:0:
511,166,71665,1,0,1:0:0:0:
434,23,71828,6,0,L|320:30,1,92.0000017547608,2|0,0:0|0:0,0:0:0:0:
201,103,72154,1,2,0:0:0:0:
348,125,72317,1,0,1:0:0:0:
245,5,72480,1,2,0:0:0:0:
245,5,72561,1,2,0:0:0:0:
245,5,72643,1,0,0:0:0:0:
269,189,72806,1,2,0:0:0:0:
100,142,72969,2,0,P|94:90|109:43,1,92.0000017547608,0|0,1:0|1:0,0:0:0:0:
119,34,73213,1,0,1:0:0:0:
134,16,73295,5,4,0:2:0:0:
7,38,73458,1,2,0:0:0:0:
201,103,73621,2,0,L|204:201,1,92.0000017547608,0|2,1:0|0:0,0:0:0:0:
203,194,73866,1,2,0:0:0:0:
203,194,73947,1,0,0:0:0:0:
147,283,74110,1,2,0:0:0:0:
263,323,74273,1,0,1:0:0:0:
263,323,74436,1,2,0:0:0:0:
147,283,74599,6,0,P|93:278|49:294,1,92.0000017547608,0|2,0:0|0:0,0:0:0:0:
235,215,74925,2,0,P|289:220|333:204,1,92.0000017547608,0|2,1:0|0:0,0:0:0:0:
324,208,75170,1,2,0:0:0:0:
324,208,75251,1,0,0:0:0:0:
367,106,75415,1,2,0:0:0:0:
319,6,75578,1,0,1:0:0:0:
220,112,75741,6,0,B|173:96|137:94|106:114|106:114|71:76|124:67,1,184.000003509522,4|2,0:0|0:0,0:0:0:0:
160,199,76230,1,0,1:0:0:0:
16,124,76393,1,2,0:0:0:0:
12,101,76474,1,2,0:0:0:0:
9,77,76556,1,0,1:0:0:0:
56,224,76719,1,2,0:0:0:0:
56,224,76882,1,0,1:0:0:0:
141,87,77045,1,4,0:0:0:0:
167,59,77371,5,2,0:0:0:0:
167,59,77534,2,0,L|280:52,1,92.0000017547608,0|2,1:0|0:0,0:0:0:0:
344,123,77860,1,0,1:0:0:0:
260,195,78023,1,0,1:0:0:0:
264,222,78105,1,0,1:0:0:0:
267,249,78186,1,0,1:0:0:0:
270,276,78268,1,0,1:0:0:0:
272,303,78349,1,0,1:0:0:0:
344,365,78512,6,0,B|410:376|446:347|446:347|511:354,2,160,4|0|0,1:2|1:0|1:0,0:0:0:0:
272,303,79328,1,2,0:0:0:0:
327,224,79491,2,0,L|413:209,1,80,0|2,1:0|0:0,0:0:0:0:
466,136,79817,6,0,P|437:194|497:286,1,160,0|0,1:0|1:0,0:0:0:0:
414,349,80306,1,2,0:0:0:0:
316,252,80469,2,0,L|307:161,1,80,0|2,1:0|0:0,0:0:0:0:
347,84,80795,1,0,1:0:0:0:
347,84,80958,1,2,0:0:0:0:
224,35,81121,6,0,B|173:28|173:28|111:44|111:44|39:41,2,160,4|0|0,1:2|1:0|1:0,0:0:0:0:
226,178,81936,1,2,0:0:0:0:
302,97,82099,1,0,1:0:0:0:
302,97,82262,1,2,0:0:0:0:
148,114,82425,6,0,P|125:178|180:269,2,160,4|0|0,1:2|1:0|1:0,0:0:0:0:
226,178,83241,1,2,0:0:0:0:
91,198,83404,2,0,L|2:198,1,80,4|2,1:2|0:0,0:0:0:0:
0,346,83730,6,0,P|53:310|148:352,2,160,4|0|0,1:2|1:0|1:0,0:0:0:0:
146,368,84545,1,2,0:0:0:0:
234,260,84708,2,0,L|244:356,1,80,0|2,1:0|0:0,0:0:0:0:
131,266,85034,6,0,L|114:84,1,160,0|0,1:0|1:0,0:0:0:0:
179,34,85523,1,2,0:0:0:0:
254,92,85686,2,0,P|294:98|349:88,1,80,0|2,1:0|0:0,0:0:0:0:
467,16,86012,2,0,P|427:10|372:20,1,80,0|2,1:0|0:0,0:0:0:0:
421,141,86338,6,0,B|449:219|396:223|430:301,2,160,4|0|0,1:2|1:0|1:0,0:0:0:0:
334,182,87154,1,2,0:0:0:0:
470,224,87317,1,0,1:0:0:0:
470,224,87480,1,2,0:0:0:0:
338,280,87643,6,0,P|287:291|229:280,1,95.9999970703126,4|2,1:2|0:0,0:0:0:0:
163,232,87969,1,0,1:0:0:0:
13,149,88132,2,0,P|64:138|122:149,1,95.9999970703126,4|2,0:0|0:0,0:0:0:0:
163,232,88458,1,0,1:0:0:0:
225,108,88621,2,0,L|216:-4,1,95.9999970703126,4|2,1:2|0:0,0:0:0:0:
330,163,88947,6,0,L|321:42,1,103.999995239258,4|0,1:0|0:0,0:0:0:0:
