osu file format v14

[General]
AudioFilename: audio.mp3
AudioLeadIn: 1748
PreviewTime: 57643
Countdown: 0
SampleSet: Normal
StackLeniency: 0.7
Mode: 0
LetterboxInBreaks: 0
WidescreenStoryboard: 0

[Editor]
Bookmarks: 11991,22425,32860,43295,57643,68078,78512
DistanceSpacing: 1.5
BeatDivisor: 2
GridSize: 4
TimelineZoom: 1.7

[Metadata]
Title:Acchu~ma Seishun!
TitleUnicode:あっちゅ~ま青春!
Artist:Nanamori-chu*Gorakubu
ArtistUnicode:七森中☆ごらく部
Creator:Pata-Mon
Version:Insane
Source:ゆるゆり さん☆ハイ!
Tags:Doormat Lily Bread Karen Fycho yuruyuri yuru yuri san * hai season 3 Nanamori chu Gorakubu ED ending tv size akaza akari 赤座あかり mikami shiori 三上枝織 toshinou kyouko 歳納京子 ootsubo yuka 大坪由佳 funami yui 船見結衣 tsuda minami 津田美波 yoshikawa chinatsu 吉川ちなつ ookubo rumi 大久保瑠美
BeatmapID:969651
BeatmapSetID:451830

[Difficulty]
HPDrainRate:6
CircleSize:4
OverallDifficulty:8.3
ApproachRate:9
SliderMultiplier:1.6
SliderTickRate:1

[Events]
//Background and Video events
0,0,"BG.jpg",0,0
Video,0,"video.flv"
//Break Periods
//Storyboard Layer 0 (Background)
//Storyboard Layer 1 (Fail)
//Storyboard Layer 2 (Pass)
//Storyboard Layer 3 (Foreground)
//Storyboard Sound Samples

[TimingPoints]
252,326.086956521739,4,1,0,50,1,0
252,-125,4,1,0,50,0,0
4165,-125,4,2,0,50,0,0
5469,-83.3333333333333,4,2,0,50,0,0
11665,-100,4,2,0,50,0,0
43213,-100,4,2,0,5,0,0
43295,-125,4,2,0,50,0,0
48512,-100,4,2,0,50,0,0
53811,-100,4,2,0,5,0,0
53893,-100,4,2,0,50,0,0
54953,-100,4,2,0,5,0,0
55034,-100,4,2,0,50,0,0
55279,-100,4,2,0,5,0,0
55360,-100,4,2,0,50,0,0
55931,-100,4,2,0,5,0,0
56012,-100,4,2,0,50,0,0
57643,-83.3333333333333,4,2,0,50,0,1
78512,-83.3333333333333,4,2,0,50,0,0
89273,-83.3333333333333,4,2,0,5,0,0

[Colours]
Combo1 : 119,143,227
Combo2 : 222,61,61
Combo3 : 75,233,87
Combo4 : 251,172,85

[HitObjects]
332,52,252,5,4,0:0:0:0:
332,52,1556,5,4,0:0:0:0:
332,52,2860,5,4,0:0:0:0:
345,71,3512,1,4,0:0:0:0:
358,90,4165,6,0,L|380:216,1,128,4|0,1:0|0:0,0:0:0:0:
128,156,4817,2,0,L|133:124,3,32,0|0|0|0,1:0|1:0|1:0|1:0,0:3:0:0:
27,178,5143,2,0,L|33:147,1,32,8|0,1:3|1:3,1:3:0:0:
89,236,5306,2,0,L|83:267,1,32,4|0,1:3|1:3,1:3:0:0:
34,147,5469,5,0,1:3:0:0:
47,166,5795,1,0,1:3:0:0:
265,109,6121,2,0,P|287:68|298:21,1,95.9999970703126,0|4,1:3|0:3,0:3:0:0:
190,198,6447,2,0,P|166:239|155:286,1,95.9999970703126,0|4,1:3|0:3,0:3:0:0:
47,166,6773,5,0,1:3:0:0:
60,185,7099,1,0,1:3:0:0:
265,110,7425,2,0,P|223:86|176:75,1,95.9999970703126,0|4,1:3|0:3,0:3:0:0:
353,185,7751,2,0,P|394:208|441:219,1,95.9999970703126,0|4,1:3|0:3,0:3:0:0:
305,22,8078,5,0,1:3:0:0:
292,41,8404,1,0,1:3:0:0:
495,202,8730,2,0,P|492:154|475:109,1,95.9999970703126,0|4,1:3|0:3,0:3:0:0:
410,317,9056,1,0,1:3:0:0:
353,185,9219,1,4,0:3:0:0:
278,374,9382,5,2,1:0:0:0:
221,242,9545,1,4,0:3:0:0:
135,357,9708,1,4,0:3:0:0:
295,231,9871,5,2,1:0:0:0:
152,214,10034,1,4,0:3:0:0:
238,99,10197,1,4,0:3:0:0:
37,128,10360,5,2,1:0:0:0:
123,13,10523,1,4,0:3:0:0:
20,271,10686,5,2,1:0:0:0:
20,271,11665,2,0,L|60:269,3,40,0|0|0|0,1:0|1:0|1:0|1:0,0:0:0:0:
19,270,11991,6,0,P|27:191|58:118,1,160,4|0,0:3|1:3,0:3:0:0:
156,63,12480,1,0,0:3:0:0:
156,174,12643,2,0,P|195:168|229:147,1,80,4|4,0:3|0:3,0:3:0:0:
390,50,12969,2,0,P|351:57|317:78,1,80,0|0,1:3|0:3,0:3:0:0:
494,144,13295,5,4,0:3:0:0:
229,147,13621,1,0,1:3:0:0:
451,294,13947,1,4,0:3:0:0:
339,294,14110,1,4,0:3:0:0:
395,197,14273,1,0,1:3:0:0:
406,208,14599,6,0,P|445:200|479:180,1,80,4|0,0:3|0:3,0:3:0:0:
294,208,14925,2,0,P|254:215|220:235,1,80,0|0,1:3|0:3,0:3:0:0:
184,342,15251,1,4,0:3:0:0:
294,319,15414,1,4,0:3:0:0:
220,235,15578,2,0,P|181:229|142:237,1,80,0|0,1:3|0:3,0:3:0:0:
294,319,15904,5,4,0:3:0:0:
363,62,16230,1,0,1:3:0:0:
106,131,16556,1,4,0:3:0:0:
136,23,16719,1,4,0:3:0:0:
214,103,16882,1,0,1:3:0:0:
217,119,17208,6,0,P|198:195|133:239,1,160,4|0,0:3|1:3,0:3:0:0:
106,131,17697,1,0,0:3:0:0:
263,17,17860,1,4,0:3:0:0:
152,29,18023,1,4,0:3:0:0:
217,119,18186,2,0,P|255:128|295:124,1,80,0|0,1:3|0:3,0:3:0:0:
372,43,18512,5,4,0:3:0:0:
388,308,18838,1,0,1:3:0:0:
482,59,19165,1,4,0:3:0:0:
413,147,19328,1,4,0:3:0:0:
372,43,19491,1,0,1:3:0:0:
357,50,19817,6,0,P|317:53|277:50,2,80,4|0|0,0:3|0:3|1:3,0:3:0:0:
413,147,20306,1,0,0:3:0:0:
302,159,20469,2,0,P|262:160|224:148,1,80,4|4,0:3|0:3,0:3:0:0:
47,82,20795,2,0,P|87:81|125:94,1,80,0|0,1:3|0:3,0:3:0:0:
71,193,21121,5,4,0:3:0:0:
224,149,21284,1,4,0:3:0:0:
62,206,21447,1,0,1:3:0:0:
212,260,21610,1,4,0:3:0:0:
53,219,21773,2,0,L|66:256,3,40,0|0|0|0,1:3|1:3|1:3|1:3,1:3:0:0:
139,278,22099,2,0,L|125:315,3,40,8|8|8|8,0:3|0:3|0:3|0:3,1:3:0:0:
53,337,22425,5,4,1:0:0:0:
292,335,22588,1,4,1:0:0:0:
292,335,23730,5,4,0:1:0:0:
333,231,23893,2,0,P|353:198|385:173,1,80,0|0,0:0|1:0,0:0:0:0:
438,272,24219,1,0,0:0:0:0:
291,334,24382,2,0,P|258:314|233:282,2,80,0|0|0,0:0|0:0|1:0,0:0:0:0:
333,231,24871,1,0,0:0:0:0:
281,131,25034,6,0,P|256:99|222:78,1,80
112,95,25360,1,0,1:0:0:0:
181,183,25523,1,0,0:0:0:0:
222,78,25686,2,0,P|209:41|184:10,1,80
181,183,26012,1,0,1:0:0:0:
292,167,26175,1,0,0:0:0:0:
112,95,26338,5,0,0:0:0:0:
179,183,26501,2,0,P|138:249|63:272,1,160
69,161,26991,2,0,P|84:124|112:95,1,80
222,78,27317,2,0,P|256:99|280:131,1,80,0|0,1:0|0:0,0:0:0:0:
376,307,27643,5,4,0:1:0:0:
473,139,27806,2,0,P|486:176|485:216,1,80,0|0,0:0|1:0,0:0:0:0:
376,195,28132,1,0,0:0:0:0:
378,79,28295,2,0,P|405:49|440:31,1,80
279,132,28621,2,0,P|252:161|217:178,1,80,0|0,1:0|0:0,0:0:0:0:
185,71,28947,6,0,P|247:24|325:29,1,160,0|0,0:0|1:0,0:0:0:0:
279,132,29436,2,0,P|252:161|217:178,1,80
44,254,29762,2,0,P|72:225|108:208,1,80,0|0,0:0|1:0,0:0:0:0:
139,316,30088,1,0,0:0:0:0:
216,178,30251,6,0,P|198:142|170:114,2,80,0|0|0,0:0|0:0|1:0,0:0:0:0:
247,287,30741,1,0,0:0:0:0:
325,207,30904,1,0,0:0:0:0:
355,315,31067,1,0,0:0:0:0:
246,287,31230,2,0,P|243:326|254:364,1,80,0|0,1:0|0:0,0:0:0:0:
295,99,31556,5,4,1:0:0:0:
145,222,31719,1,4,1:0:0:0:
339,210,31882,1,4,1:0:0:0:
175,106,32045,1,4,1:0:0:0:
246,287,32208,2,0,P|185:336|107:337,1,160,4|4,1:0|1:0,0:0:0:0:
94,348,32860,5,4,1:0:0:0:
8,123,33023,1,4,1:0:0:0:
8,123,34165,5,4,0:1:0:0:
115,155,34328,1,0,0:0:0:0:
34,232,34491,1,0,1:0:0:0:
89,45,34654,2,0,P|166:55|219:113,1,160
202,225,35143,1,0,1:0:0:0:
115,155,35306,1,0,0:0:0:0:
306,183,35469,6,0,P|325:148|331:109,2,80,0|0|0,0:0|0:0|1:0,0:0:0:0:
202,225,35958,1,0,0:0:0:0:
306,183,36121,2,0,P|345:189|379:210,1,80
302,291,36447,1,0,1:0:0:0:
202,225,36610,1,0,0:0:0:0:
306,183,36773,5,0,0:0:0:0:
219,113,36936,2,0,P|142:129|94:191,1,160
202,225,37425,2,0,P|241:223|278:209,1,80
121,302,37751,1,0,1:0:0:0:
229,334,37915,1,0,0:0:0:0:
95,193,38078,5,4,0:1:0:0:
202,225,38241,2,0,P|206:186|196:147,1,80,0|0,0:0|1:0,0:0:0:0:
106,81,38567,1,0,0:0:0:0:
196,147,38730,2,0,P|235:144|271:127,2,80,0|0|0,0:0|0:0|1:0,0:0:0:0:
106,81,39219,1,0,0:0:0:0:
95,193,39382,6,0,P|117:225|150:248,1,80
262,237,39708,1,0,1:0:0:0:
196,147,39871,2,0,P|271:125|342:158,1,160
370,266,40360,1,0,1:0:0:0:
450,188,40523,1,0,0:0:0:0:
262,237,40686,6,0,P|258:276|269:315,2,80,0|0|0,0:0|0:0|1:0,0:0:0:0:
342,159,41175,1,0,0:0:0:0:
422,81,41338,2,0,P|425:41|414:2,1,80
314,52,41665,1,0,1:0:0:0:
342,159,41828,1,0,0:0:0:0:
206,23,41991,5,4,1:0:0:0:
262,237,42154,1,4,1:0:0:0:
99,51,42317,1,4,1:0:0:0:
155,265,42480,1,4,1:0:0:0:
313,110,42643,1,4,1:0:0:0:
325,99,42969,2,0,P|349:151|325:204,1,120,8|0,0:3|0:0,0:0:0:0:
314,197,43295,6,0,P|250:203|193:230,1,128,4|0,0:3|0:3,0:3:0:0:
103,302,43784,1,4,0:3:0:0:
210,343,43947,2,0,P|240:334|267:317,1,64,4|0,0:3|0:3,0:3:0:0:
102,301,44273,2,0,P|86:274|78:243,1,64,0|0,1:3|0:3,0:3:0:0:
194,95,44599,6,0,P|257:86|320:94,1,128,4|0,0:3|0:3,0:3:0:0:
407,170,45088,1,4,0:3:0:0:
293,247,45251,1,4,0:3:0:0:
432,65,45415,1,0,1:3:0:0:
194,95,45578,1,0,1:3:0:0:
207,103,45904,6,0,P|204:166|185:227,1,128,4|0,0:3|0:3,0:3:0:0:
109,315,46393,1,4,0:3:0:0:
257,291,46556,2,0,P|275:266|285:235,1,64,4|0,0:3|0:3,0:3:0:0:
121,178,46882,2,0,P|90:178|58:186,1,64,0|0,1:3|0:3,0:3:0:0:
207,102,47208,6,0,P|199:55|178:12,2,96,4|0|4,0:3|0:3|0:3,0:3:0:0:
191,229,47860,1,4,0:3:0:0:
323,66,48023,1,0,1:3:0:0:
297,315,48186,1,0,1:3:0:0:
305,329,48512,6,0,P|226:332|146:325,1,160,4|0,0:3|1:3,0:3:0:0:
37,303,49001,1,0,0:3:0:0:
211,213,49165,1,4,0:3:0:0:
46,107,49328,1,4,0:3:0:0:
220,17,49491,1,0,1:3:0:0:
159,112,49654,1,0,0:3:0:0:
333,22,49817,6,0,P|376:88|399:165,1,160,4|0,0:3|1:3,0:3:0:0:
412,276,50306,1,0,0:3:0:0:
221,242,50469,1,4,0:3:0:0:
355,381,50632,1,4,0:3:0:0:
329,189,50795,1,0,1:3:0:0:
238,361,50958,1,0,0:3:0:0:
133,196,51121,6,0,P|120:233|114:273,1,80,4|0,0:3|0:3,0:3:0:0:
254,87,51447,2,0,P|267:49|273:9,1,80,0|0,1:3|0:3,0:3:0:0:
133,196,51773,1,4,0:3:0:0:
310,175,51936,1,4,0:3:0:0:
139,66,52099,2,0,P|103:50|64:42,1,80,0|0,1:3|0:3,0:3:0:0:
340,42,52425,5,4,1:0:0:0:
133,196,52588,1,4,1:0:0:0:
378,167,52751,1,4,1:0:0:0:
139,66,52915,1,4,1:0:0:0:
265,281,53078,1,4,1:0:0:0:
259,294,53404,1,0,0:0:0:0:
142,315,53567,6,0,P|199:297|259:294,1,120,4|0,1:0|0:0,1:0:0:0:
339,296,53893,1,4,1:0:0:0:
96,184,54056,1,4,1:0:0:0:
361,144,54219,1,4,1:0:0:0:
118,32,54382,1,4,1:0:0:0:
129,44,54708,2,0,P|187:54|246:43,1,120,8|0,0:3|0:0,0:0:0:0:
321,16,55034,6,0,P|320:75|279:117,1,120,4|0,0:3|0:0,0:0:0:0:
329,180,55360,2,2,P|364:198|403:203,1,80,0|0,0:0|0:0,0:1:0:0:
246,43,55686,2,0,P|205:85|204:143,1,120,4|0,0:3|0:0,0:0:0:0:
154,207,56012,2,2,P|119:225|80:230,1,80,0|0,0:0|0:0,0:1:0:0:
381,304,56338,5,0,1:0:0:0:
173,287,56501,1,0,1:0:0:0:
362,173,56665,1,0,1:0:0:0:
135,127,56828,1,0,1:0:0:0:
381,42,56991,2,2,P|436:62|477:105,1,120,2|0,1:1|1:1,0:1:0:0:
422,164,57317,2,2,P|414:203|392:236,1,80,6|2,1:1|0:1,0:1:0:0:
281,362,57643,5,4,0:3:0:0:
179,273,57806,2,0,P|154:314|146:361,1,95.9999970703126,0|0,0:3|1:3,0:3:0:0:
306,230,58132,1,0,0:3:0:0:
281,362,58295,2,0,P|328:361|373:345,1,95.9999970703126,4|0,0:3|0:3,0:3:0:0:
179,273,58621,1,0,1:3:0:0:
305,229,58784,6,0,P|341:199|368:159,1,95.9999970703126,4|0,0:3|0:3,0:3:0:0:
365,26,59110,1,4,0:3:0:0:
483,91,59273,1,0,1:3:0:0:
368,159,59436,2,0,P|279:129|232:48,1,191.999994140625,4|4,0:3|0:3,0:3:0:0:
56,28,59925,2,0,P|36:71|29:118,1,95.9999970703126,0|0,1:3|0:3,0:3:0:0:
29,253,60251,5,4,0:3:0:0:
146,185,60415,1,0,0:3:0:0:
29,253,60578,2,0,P|35:300|56:343,1,95.9999970703126,0|0,1:3|0:3,0:3:0:0:
146,185,60904,2,0,P|139:137|118:94,1,95.9999970703126,4|0,0:3|0:3,0:3:0:0:
29,253,61230,1,0,1:3:0:0:
161,278,61393,6,0,P|208:271|252:252,1,95.9999970703126,4|0,0:3|0:3,0:3:0:0:
361,174,61719,1,4,0:3:0:0:
379,307,61882,1,0,1:3:0:0:
493,155,62045,2,0,P|449:73|361:39,1,191.999994140625,4|4,0:3|0:3,0:3:0:0:
177,46,62534,1,0,1:3:0:0:
278,162,62697,1,4,0:3:0:0:
278,162,62779,1,0,1:3:0:0:
278,162,62860,6,0,P|273:209|258:255,1,95.9999970703126,4|0,0:3|0:3,0:3:0:0:
157,139,63186,2,0,P|161:91|177:46,1,95.9999970703126,0|0,1:3|0:3,0:3:0:0:
278,162,63512,2,0,P|325:160|368:140,1,95.9999970703126,4|0,0:3|0:3,0:3:0:0:
177,46,63838,2,0,P|129:47|86:67,1,95.9999970703126,0|0,1:3|0:3,0:3:0:0:
298,44,64165,5,4,0:3:0:0:
157,164,64328,1,0,0:3:0:0:
369,141,64491,1,0,1:3:0:0:
228,261,64654,1,0,0:3:0:0:
435,283,64817,2,0,P|389:298|342:298,1,95.9999970703126,4|0,0:3|0:3,0:3:0:0:
484,174,65143,1,0,1:3:0:0:
472,358,65306,6,0,P|381:383|287:369,1,191.999994140625,4|4,0:3|0:3,0:3:0:0:
162,319,65795,1,0,1:3:0:0:
267,236,65958,1,0,0:3:0:0:
267,236,66040,1,0,0:3:0:0:
267,236,66121,2,0,P|254:191|226:152,1,95.9999970703126,4|4,0:3|0:3,0:3:0:0:
53,37,66447,2,0,P|67:83|95:122,1,95.9999970703126,0|0,1:3|0:3,0:3:0:0:
305,109,66773,5,4,1:0:0:0:
210,298,66936,1,4,1:0:0:0:
400,157,67099,5,4,1:0:0:0:
305,346,67262,1,4,1:0:0:0:
210,61,67425,5,4,1:0:0:0:
352,252,67588,1,4,1:0:0:0:
115,250,67751,2,0,L|72:228,3,47.9999985351563,4|0|0|0,1:0|1:0|1:0|1:0,1:0:0:0:
0,266,68078,5,4,0:3:0:0:
65,147,68241,2,0,P|101:117|146:99,1,95.9999970703126,0|0,0:3|1:3,0:3:0:0:
362,148,68567,2,0,P|325:117|281:99,2,95.9999970703126,0|4|0,0:3|0:3|0:3,0:3:0:0:
427,266,69056,1,0,1:3:0:0:
293,263,69219,6,0,P|248:245|212:214,1,95.9999970703126,4|0,0:3|0:3,0:3:0:0:
146,100,69545,1,4,0:3:0:0:
97,283,69708,1,0,1:3:0:0:
29,166,69871,1,4,0:3:0:0:
29,166,69953,1,0,0:3:0:0:
29,166,70034,2,0,P|12:121|13:73,1,95.9999970703126,4|0,0:3|0:3,0:3:0:0:
163,166,70360,2,0,P|179:121|178:73,1,95.9999970703126,0|0,1:3|0:3,0:3:0:0:
97,283,70686,5,4,0:3:0:0:
223,237,70849,2,0,P|199:196|163:166,1,95.9999970703126,0|0,0:3|1:3,0:3:0:0:
29,166,71175,1,0,0:3:0:0:
97,283,71338,2,0,P|120:324|157:354,1,95.9999970703126,4|0,0:3|0:3,0:3:0:0:
292,354,71665,1,0,1:3:0:0:
224,238,71828,6,0,P|247:196|284:166,1,95.9999970703126,4|0,0:3|0:3,0:3:0:0:
411,120,72154,2,0,P|387:79|350:49,1,95.9999970703126,4|0,0:3|1:3,0:3:0:0:
386,253,72480,1,4,0:3:0:0:
386,253,72561,1,0,0:3:0:0:
386,253,72643,2,0,P|433:253|478:237,1,95.9999970703126,4|0,0:3|0:3,0:3:0:0:
284,166,72969,1,0,1:3:0:0:
182,253,73132,1,4,0:3:0:0:
182,253,73213,1,0,1:3:0:0:
181,253,73295,6,0,P|134:252|89:236,1,95.9999970703126,4|0,0:3|0:3,0:3:0:0:
49,42,73621,1,0,1:3:0:0:
158,121,73784,1,0,0:3:0:0:
35,176,73947,1,4,0:3:0:0:
49,42,74110,1,0,0:3:0:0:
158,120,74273,2,0,P|205:115|251:100,1,95.9999970703126,0|0,1:3|0:3,0:3:0:0:
352,12,74599,6,0,P|377:53|385:100,1,95.9999970703126,4|0,0:3|0:3,0:3:0:0:
251,101,74925,2,0,P|226:141|218:188,1,95.9999970703126,0|0,1:3|0:3,0:3:0:0:
353,321,75251,1,4,0:3:0:0:
218,321,75415,1,0,0:3:0:0:
353,187,75578,1,0,1:3:0:0:
128,169,75741,6,0,P|144:262|217:320,1,191.999994140625,4|4,0:3|0:3,0:3:0:0:
261,194,76230,1,0,1:3:0:0:
128,169,76393,1,0,0:3:0:0:
128,169,76474,1,0,0:3:0:0:
127,169,76556,2,0,P|80:175|36:194,1,95.9999970703126,4|4,0:3|0:3,0:3:0:0:
261,194,76882,1,0,1:3:0:0:
170,47,77045,6,0,P|261:20|352:47,1,191.999994140625,4|0,0:3|0:3,0:3:0:0:
195,260,77534,1,0,1:3:0:0:
365,136,77697,1,4,0:3:0:0:
155,136,77860,1,0,1:3:0:0:
325,260,78023,1,0,1:3:0:0:
325,260,78105,1,0,1:3:0:0:
324,260,78186,2,0,P|292:295|253:322,1,95.9999970703126,4|0,1:0|0:3,0:3:0:0:
365,136,78512,6,0,P|409:119|457:113,1,95.9999970703126,0|0,1:0|0:0,0:0:0:0:
251,207,78838,2,0,P|203:201|158:183,1,95.9999970703126,0|0,1:0|0:0,0:0:0:0:
365,136,79165,1,0,1:0:0:0:
418,349,79328,1,4,0:3:0:0:
469,224,79491,1,0,1:0:0:0:
284,340,79654,1,4,0:3:0:0:
365,136,79817,6,0,P|319:123|272:121,1,95.9999970703126,0|0,1:0|0:0,0:0:0:0:
46,135,80143,2,0,P|92:148|139:150,1,95.9999970703126,0|0,1:0|0:0,0:0:0:0:
7,27,80469,1,0,1:0:0:0:
7,243,80632,1,4,0:3:0:0:
179,43,80795,1,0,1:0:0:0:
179,259,80958,1,4,0:3:0:0:
271,63,81121,6,0,P|226:48|179:43,1,95.9999970703126,0|0,1:0|0:0,0:0:0:0:
335,180,81447,2,0,P|381:196|428:201,1,95.9999970703126,0|0,1:0|0:0,0:0:0:0:
271,63,81773,1,0,1:0:0:0:
244,279,81936,1,4,0:3:0:0:
335,180,82099,1,0,1:0:0:0:
122,224,82262,1,4,0:3:0:0:
271,63,82425,6,0,P|256:108|231:149,1,95.9999970703126,0|0,1:0|0:0,0:0:0:0:
122,224,82751,2,0,P|136:269|161:310,1,95.9999970703126,0|0,1:0|0:0,0:0:0:0:
335,180,83078,1,0,1:0:0:0:
138,91,83241,1,4,0:3:0:0:
271,261,83404,1,0,1:0:0:0:
57,291,83567,1,4,0:3:0:0:
230,149,83730,6,0,P|251:105|258:58,1,95.9999970703126,0|0,1:0|0:0,0:0:0:0:
342,224,84056,2,0,P|362:267|369:314,1,95.9999970703126,0|0,1:0|0:0,0:0:0:0:
409,95,84382,1,0,1:0:0:0:
233,224,84545,1,4,0:3:0:0:
274,95,84708,1,0,1:0:0:0:
451,224,84871,1,4,0:3:0:0:
474,6,85034,6,0,P|427:7|380:18,1,95.9999970703126,0|0,1:0|0:0,0:0:0:0:
179,108,85360,2,0,P|227:105|274:95,1,95.9999970703126,0|0,1:0|0:0,0:0:0:0:
77,27,85686,1,0,1:0:0:0:
196,197,85849,1,4,0:3:0:0:
75,156,86012,1,0,1:0:0:0:
274,95,86175,1,0,1:0:0:0:
76,27,86338,6,0,P|37:53|12:94,1,95.9999970703126,0|0,1:0|0:0,0:0:0:0:
209,162,86665,2,0,P|248:135|274:95,1,95.9999970703126,0|0,1:0|0:0,0:0:0:0:
77,27,86991,1,0,1:0:0:0:
287,14,87154,1,4,0:3:0:0:
209,162,87317,1,0,1:0:0:0:
418,149,87480,1,4,0:3:0:0:
182,241,87643,5,6,1:0:0:0:
291,147,87806,1,4,0:3:0:0:
156,99,87969,1,4,0:3:0:0:
317,289,88132,5,6,1:0:0:0:
291,147,88295,1,4,0:3:0:0:
182,241,88458,1,4,0:3:0:0:
426,195,88621,5,6,1:0:0:0:
291,147,88784,1,4,0:3:0:0:
452,337,88947,5,6,1:0:0:0:
