osu file format v14

[General]
AudioFilename: audio.mp3
AudioLeadIn: 1748
PreviewTime: 57643
Countdown: 0
SampleSet: Soft
StackLeniency: 0.7
Mode: 0
LetterboxInBreaks: 0
WidescreenStoryboard: 0

[Editor]
DistanceSpacing: 1
BeatDivisor: 4
GridSize: 4
TimelineZoom: 1.8

[Metadata]
Title:Acchu~ma Seishun!
TitleUnicode:あっちゅ~ま青春!
Artist:Nanamori-chu*Gorakubu
ArtistUnicode:七森中☆ごらく部
Creator:Pata-Mon
Version:Doormat's Easy
Source:ゆるゆり さん☆ハイ!
Tags:Doormat Lily Bread Karen Fycho yuruyuri yuru yuri san * hai season 3 Nanamori chu Gorakubu ED ending tv size akaza akari 赤座あかり mikami shiori 三上枝織 toshinou kyouko 歳納京子 ootsubo yuka 大坪由佳 funami yui 船見結衣 tsuda minami 津田美波 yoshikawa chinatsu 吉川ちなつ ookubo rumi 大久保瑠美
BeatmapID:969284
BeatmapSetID:451830

[Difficulty]
HPDrainRate:2
CircleSize:3
OverallDifficulty:2
ApproachRate:3
SliderMultiplier:0.9
SliderTickRate:1

[Events]
//Background and Video events
0,0,"BG.jpg",0,0
Video,0,"video.flv"
//Break Periods
//Storyboard Layer 0 (Background)
//Storyboard Layer 1 (Fail)
//Storyboard Layer 2 (Pass)
//Storyboard Layer 3 (Foreground)
//Storyboard Sound Samples

[TimingPoints]
252,326.086956521739,4,2,1,50,1,0
5469,-100,4,2,1,70,0,0
11665,-100,4,2,1,55,0,0
11991,-100,4,2,1,60,0,0
32534,-100,4,2,1,70,0,0
32860,-100,4,2,1,60,0,0
43295,-100,4,2,1,50,0,0
48512,-100,4,2,1,60,0,0
52425,-100,4,2,1,70,0,0
55034,-100,4,2,2,40,0,0
56338,-100,4,2,2,70,0,0
57317,-100,4,2,2,80,0,0
57643,-100,4,2,1,70,0,1
67751,-100,4,2,1,70,0,0
68078,-100,4,2,1,70,0,1
78512,-100,4,2,1,70,0,0

[Colours]
Combo1 : 119,143,227
Combo2 : 222,61,61
Combo3 : 75,233,87
Combo4 : 251,172,85

[HitObjects]
88,300,252,6,0,P|148:209|187:311,1,270,4|2,0:0|0:0,0:0:0:0:
261,363,1556,2,0,L|357:367,1,90,4|2,0:0|0:0,0:0:0:0:
377,279,2208,2,0,L|281:275,1,90,0|2,0:0|0:0,0:0:0:0:
313,191,2860,6,0,B|449:197|449:197|493:179,1,180,4|4,0:0|0:0,0:0:0:0:
408,20,4165,2,0,B|272:14|272:14|228:32,1,180,4|0,0:0|1:0,0:0:0:0:
272,112,5143,1,0,1:2:0:0:
272,200,5469,6,0,B|271:271|271:271|263:303,1,90,4|8,0:0|0:0,0:0:0:0:
188,248,6121,2,0,B|189:177|189:177|197:145,1,90,8|8,0:0|0:0,0:0:0:0:
272,112,6773,2,0,P|316:103|360:110,1,90,8|8,0:0|0:0,0:0:0:0:
436,168,7425,2,0,L|427:266,1,90,8|8,0:0|0:0,0:0:0:0:
384,336,8078,6,0,P|428:347|472:334,2,90,4|8|8,0:0|0:0|0:0,0:0:0:0:
304,292,9056,1,8,0:0:0:0:
224,335,9382,2,0,P|159:350|102:318,2,135,4|4|4,0:0|0:0|0:0,0:0:0:0:
172,260,10686,6,0,B|113:208|50:243|50:243|36:184|63:144|107:130,1,270,4|0,0:0|1:0,0:0:0:0:
192,156,11991,6,0,P|236:168|280:155,1,90,4|0,0:0|1:0,0:0:0:0:
340,92,12643,2,0,P|383:81|426:93,1,90,2|0,0:0|1:0,0:0:0:0:
472,172,13295,2,0,L|464:280,2,90,2|0|2,0:0|1:0|0:0,0:0:0:0:
512,92,14273,1,8,1:2:0:0:
462,17,14599,6,0,L|360:24,1,90,2|0,0:0|1:0,0:0:0:0:
308,88,15251,2,0,L|206:95,1,90,2|0,0:0|1:0,0:0:0:0:
152,156,15904,2,0,P|161:199|152:243,1,90,2|0,0:0|1:0,0:0:0:0:
60,248,16556,2,0,P|51:205|60:161,1,90,2|12,0:0|0:2,0:0:0:0:
92,76,17208,6,0,L|199:67,1,90,4|0,0:0|1:0,0:0:0:0:
256,120,17860,2,0,L|363:111,1,90,2|0,0:0|1:0,0:0:0:0:
416,56,18512,1,2,0:0:0:0:
472,126,18838,1,0,1:0:0:0:
401,182,19165,2,0,P|400:244|420:284,1,90,2|8,0:0|1:2,0:0:0:0:
424,360,19817,6,0,P|465:343|492:308,2,90,2|0|2,0:0|1:0|0:0,0:0:0:0:
336,376,20795,1,0,1:0:0:0:
252,344,21121,2,0,L|260:248,1,90,4|0,0:0|1:0,0:0:0:0:
168,244,21773,2,0,L|160:340,1,90,0|0,1:0|1:1,0:0:0:0:
76,300,22425,6,0,L|82:234,1,45,4|4,0:0|0:0,0:0:0:0:
328,51,23730,2,0,P|371:43|415:51,1,90,4|8,0:0|0:1,0:0:0:0:
416,140,24382,2,0,P|372:148|328:140,1,90,0|8,0:0|0:1,0:0:0:0:
248,96,25034,6,0,L|156:108,1,90,0|8,0:0|0:1,0:0:0:0:
168,196,25686,2,0,L|260:184,1,90,0|8,0:0|0:1,0:0:0:0:
336,232,26338,1,0,0:0:0:0:
288,311,26665,2,0,P|245:325|204:311,2,90,8|0|8,0:1|0:0|0:1,0:0:0:0:
336,232,27643,6,0,L|324:132,1,90,4|8,0:0|0:1,0:0:0:0:
240,116,28295,2,0,L|229:205,1,90,0|8,0:0|0:1,0:0:0:0:
152,248,28947,2,0,P|107:254|63:245,1,90,0|8,0:0|0:1,0:0:0:0:
64,156,29599,2,0,P|108:149|152:158,1,90,0|8,0:0|0:1,0:0:0:0:
229,205,30251,6,0,B|293:225|293:185|364:205,2,135,0|2|8,0:0|0:0|0:1,0:0:0:0:
152,158,31556,1,4,0:2:0:0:
74,205,31882,2,0,P|61:164|76:112,2,90,8|4|4,0:1|0:2|1:2,0:0:0:0:
152,248,32860,6,0,L|161:292,1,45,4|4,0:0|0:0,0:0:0:0:
468,224,34165,1,4,0:0:0:0:
396,280,34491,2,0,P|386:323|395:366,2,90,8|0|8,0:1|0:0|0:1,0:0:0:0:
328,224,35469,6,0,L|224:236,1,90,0|8,0:0|0:1,0:0:0:0:
224,144,36121,2,0,L|328:132,1,90,0|8,0:0|0:1,0:0:0:0:
396,168,36773,1,0,0:0:0:0:
464,112,37099,2,0,P|468:64|452:20,1,90,8|0,0:1|0:0,0:0:0:0:
368,8,37751,1,8,0:1:0:0:
304,68,38078,6,0,P|256:76|208:64,1,90,4|8,0:0|0:1,0:0:0:0:
135,23,38730,2,0,P|91:27|51:47,1,90,0|8,0:0|0:1,0:0:0:0:
12,128,39382,2,0,L|32:236,1,90,0|8,0:0|0:1,0:0:0:0:
112,252,40034,2,0,L|128:163,1,90,0|8,0:0|0:1,0:0:0:0:
212,192,40686,6,0,L|228:281,2,90,0|4|0,0:0|0:2|0:0,0:0:0:0:
192,104,41665,1,4,0:0:0:0:
236,28,41991,2,0,P|268:60|280:108,1,90,4|8,0:0|0:1,0:0:0:0:
332,172,42643,2,0,P|374:184|418:173,1,90,4|4,0:2|0:0,0:0:0:0:
422,85,43295,6,0,P|495:131|489:226,1,180,4|0,0:0|1:0,0:0:0:0:
335,298,44599,2,0,P|262:252|263:166,1,180,0|0,1:0|1:0,0:0:0:0:
320,92,45578,1,8,1:0:0:0:
259,24,45904,6,0,P|169:32|79:30,1,180,4|0,1:2|1:0,0:0:0:0:
172,184,47208,2,0,P|261:175|351:177,1,180,0|0,1:0|1:0,0:0:0:0:
424,228,48186,1,8,1:0:0:0:
348,272,48512,6,0,L|337:361,1,90,4|8,0:0|0:1,0:0:0:0:
248,376,49165,2,0,L|237:286,1,90,2|8,0:0|0:1,0:0:0:0:
184,216,49817,2,0,P|141:227|97:222,1,90,2|8,0:0|0:1,0:0:0:0:
93,132,50469,2,0,P|136:120|180:125,1,90,2|8,0:0|0:1,0:0:0:0:
261,168,51121,6,0,P|305:173|348:162,1,90,2|8,0:0|0:1,0:0:0:0:
345,71,51773,2,0,P|300:65|257:77,1,90,2|8,0:0|0:1,0:0:0:0:
180,125,52425,5,4,0:0:0:0:
95,85,52751,2,0,P|87:133|100:174,1,90,8|8,0:1|0:1,0:0:0:0:
136,300,53567,6,0,B|228:292|228:292|268:312,1,135,4|8,0:0|0:1,0:0:0:0:
344,360,54382,1,8,0:1:0:0:
412,192,55034,6,0,L|420:88,1,90,4|2,0:0|0:0,0:0:0:0:
332,116,55686,2,0,L|324:220,1,90,4|2,0:0|0:0,0:0:0:0:
267,275,56338,2,0,P|223:276|183:295,2,90,4|0|4,1:2|1:0|1:2,0:0:0:0:
356,288,57317,1,10,1:2:0:0:
411,217,57643,6,0,B|416:176|416:176|396:128|396:128|348:144|300:124,1,180,4|0,0:0|0:0,0:0:0:0:
252,4,58784,2,0,L|152:4,1,90,2|2,0:0|0:0,0:0:0:0:
83,47,59436,2,0,P|55:106|75:170,1,135,2|0,0:0|1:0,0:0:0:0:
164,164,60251,6,0,P|126:241|34:249,1,180,0|0,0:0|0:0,0:0:0:0:
112,368,61393,2,0,L|216:368,1,90,2|2,0:0|0:0,0:0:0:0:
252,292,62045,2,0,P|288:241|345:266,1,135,2|0,0:0|1:0,0:0:0:0:
376,352,62860,5,4,0:0:0:0:
452,303,63186,2,0,L|434:215,2,90,0|0|0,1:0|0:0|1:0,0:0:0:0:
376,352,64165,2,0,P|328:368|244:268,1,180,0|0,0:0|0:0,0:0:0:0:
196,160,65306,6,0,P|130:148|72:180,1,135,4|0,0:0|1:0,0:0:0:0:
12,244,66121,2,0,L|24:348,1,90,0|0,0:0|1:0,0:0:0:0:
112,352,66773,2,0,L|100:248,2,90,4|4|4,0:0|1:2|1:2,0:0:0:0:
284,300,68078,6,0,P|375:329|458:300,1,180,4|0,0:0|0:0,0:0:0:0:
412,176,69219,2,0,P|369:188|328:168,1,90,2|2,0:0|0:0,0:0:0:0:
252,124,69871,2,0,P|208:108|120:128,1,135,2|0,0:0|1:0,0:0:0:0:
40,95,70686,6,0,P|49:181|128:215,1,180,0|0,0:0|0:0,0:0:0:0:
256,244,71828,2,0,L|352:232,1,90,2|2,0:0|0:0,0:0:0:0:
380,316,72480,2,0,L|226:335,1,135,2|0,0:0|1:0,0:0:0:0:
172,280,73295,6,0,B|172:234|172:234|158:192,1,90,4|0,0:2|1:0,0:0:0:0:
72,212,73947,2,0,B|71:257|71:257|85:299,1,90,0|0,0:0|1:0,0:0:0:0:
151,359,74599,2,0,P|234:336|250:252,1,180,0|0,0:0|0:0,0:0:0:0:
264,120,75741,6,0,P|327:99|390:118,1,135,4|0,0:0|1:0,0:0:0:0:
452,184,76556,1,0,1:0:0:0:
400,308,77045,2,0,L|265:296,1,135,4|0,0:0|1:0,0:0:0:0:
204,232,77860,1,0,1:0:0:0:
140,296,78186,1,0,1:0:0:0:
78,231,78512,6,0,P|72:186|81:142,1,90,4|0,1:2|1:0,0:0:0:0:
120,60,79165,2,0,L|224:76,1,90,0|0,1:0|1:0,0:0:0:0:
276,132,79817,2,0,P|281:176|272:220,1,90,0|0,1:0|1:0,0:0:0:0:
340,280,80469,2,0,L|428:266,1,90,0|0,1:0|1:0,0:0:0:0:
444,356,81121,6,0,L|355:369,2,90,4|0|0,1:2|1:0|1:0,0:0:0:0:
512,300,82099,1,0,1:0:0:0:
448,236,82425,2,0,P|440:200|452:132,1,90,4|0,1:2|1:0,0:0:0:0:
379,88,83078,2,0,P|335:96|291:90,1,90,0|4,1:0|1:2,0:0:0:0:
208,56,83730,6,0,L|192:150,1,90,4|0,1:2|1:0,0:0:0:0:
104,164,84382,2,0,L|89:76,1,90,0|0,1:0|1:0,0:0:0:0:
0,92,85034,2,0,L|15:180,1,90,0|0,1:0|1:0,0:0:0:0:
76,248,85686,2,0,L|91:336,1,90,0|0,1:0|1:0,0:0:0:0:
180,324,86338,6,0,L|195:235,2,90,4|0|0,1:2|1:0|1:0,0:0:0:0:
260,364,87317,1,0,1:0:0:0:
320,296,87643,2,0,B|388:280|388:280|451:294,2,135,4|4|4,1:2|0:0|1:2,0:0:0:0:
260,364,88947,5,4,1:0:0:0:
