osu file format v14

[General]
AudioFilename: audio.mp3
AudioLeadIn: 0
PreviewTime: -1
Countdown: 1
SampleSet: Soft
StackLeniency: 0.7
Mode: 0
LetterboxInBreaks: 0
WidescreenStoryboard: 0

[Editor]
DistanceSpacing: 1
BeatDivisor: 4
GridSize: 4
TimelineZoom: 1

[Metadata]
Title:Acchu~ma Seishun!
TitleUnicode:あっちゅ~ま青春!
Artist:Nanamori-chu*Gorakubu
ArtistUnicode:七森中☆ごらく部
Creator:Lami
Version:x
Source:ゆるゆり さん☆ハイ!
Tags:
BeatmapID:1945348
BeatmapSetID:931679

[Difficulty]
HPDrainRate:6
CircleSize:4
OverallDifficulty:9
ApproachRate:9.2
SliderMultiplier:1.8
SliderTickRate:1

[Events]
//Background and Video events
0,0,"BG.jpg",0,0
//Break Periods
//Storyboard Layer 0 (Background)
//Storyboard Layer 1 (Fail)
//Storyboard Layer 2 (Pass)
//Storyboard Layer 3 (Foreground)
//Storyboard Sound Samples

[TimingPoints]
252,326.086956521739,4,2,1,50,1,0
252,-117.647058823529,4,2,1,50,0,0
4817,-100,4,2,1,50,0,0
22425,-108.695652173913,4,2,1,60,0,0
32453,-100,4,2,1,40,0,0
32860,-108.695652173913,4,2,1,60,0,0
42969,-100,4,2,1,60,0,0
43295,-125,4,2,1,50,0,0
48512,-111.111111111111,4,2,1,60,0,0
52425,-100,4,2,1,70,0,0
54708,-100,4,2,1,60,0,0
55034,-111.111111111111,4,2,2,40,0,0
56338,-100,4,2,2,70,0,0
57235,-100,4,2,2,50,0,0
57317,-100,4,2,2,80,0,0
57643,-100,4,2,1,70,0,1
67751,-100,4,2,1,70,0,0
68078,-100,4,2,1,70,0,1
78512,-100,4,2,1,70,0,0

[HitObjects]
59,183,252,6,0,B|101:170|139:121|139:121|116:250|207:303,1,306.000005836487
480,106,1556,6,0,B|381:88|363:211|363:211|306:172|246:187,1,306.000005836487
131,356,2860,6,0,P|208:340|289:329,1,153.000002918243
435,203,3512,2,0,P|357:187|277:176,1,153.000002918243
147,33,4165,1,0,0:0:0:0:
147,33,4817,6,0,L|157:88,3,45
254,114,5143,2,0,L|244:169,3,45
179,250,5469,5,0,0:0:0:0:
344,188,5632,1,0,0:0:0:0:
154,261,5795,2,0,P|109:246|63:243,1,90
231,78,6121,1,0,0:0:0:0:
279,279,6284,1,0,0:0:0:0:
441,150,6447,1,0,0:0:0:0:
366,343,6610,1,0,0:0:0:0:
334,122,6773,6,0,L|317:29,1,90
169,166,7099,2,0,P|214:184|257:186,1,90
425,52,7425,1,0,0:0:0:0:
228,87,7588,1,0,0:0:0:0:
441,150,7751,1,0,0:0:0:0:
314,3,7915,1,0,0:0:0:0:
257,185,8078,5,0,0:0:0:0:
132,66,8241,1,0,0:0:0:0:
66,272,8404,2,0,P|58:318|55:375,1,90
357,275,8730,1,0,0:0:0:0:
166,212,8893,1,0,0:0:0:0:
349,117,9056,1,0,0:0:0:0:
242,313,9219,1,0,0:0:0:0:
227,53,9382,5,0,0:0:0:0:
357,275,9545,1,0,0:0:0:0:
452,82,9708,1,0,0:0:0:0:
178,210,9871,5,0,0:0:0:0:
451,275,10034,1,0,0:0:0:0:
356,67,10197,1,0,0:0:0:0:
368,329,10360,5,0,0:0:0:0:
261,80,10523,1,0,0:0:0:0:
124,362,10686,1,0,0:0:0:0:
124,362,11665,6,0,L|202:342,1,45
247,266,11828,2,0,L|325:286,1,45
363,358,11991,6,0,P|392:318|399:273,1,90
265,84,12317,2,0,P|236:124|229:169,1,90
399,278,12643,1,0,0:0:0:0:
228,163,12806,1,0,0:0:0:0:
410,102,12969,1,0,0:0:0:0:
290,277,13132,1,0,0:0:0:0:
147,110,13295,6,0,L|45:97,1,90
200,288,13621,2,0,L|302:275,1,90
119,128,13947,2,0,L|17:115,1,90
228,306,14273,2,0,L|330:293,1,90
382,85,14599,5,0,0:0:0:0:
200,189,14762,1,0,0:0:0:0:
417,259,14925,1,0,0:0:0:0:
349,103,15088,1,0,0:0:0:0:
317,294,15251,5,0,0:0:0:0:
457,176,15415,1,0,0:0:0:0:
232,87,15578,1,0,0:0:0:0:
306,260,15741,1,0,0:0:0:0:
349,103,15904,6,0,L|375:7,1,90
204,193,16230,2,0,P|206:234|227:279,1,90
430,344,16556,1,0,0:0:0:0:
377,216,16719,1,0,0:0:0:0:
271,368,16882,2,0,P|226:362|180:358,1,90
52,149,17208,6,0,P|138:134|203:192,1,180
271,368,17697,1,0,0:0:0:0:
111,235,17860,1,0,0:0:0:0:
295,165,18023,1,0,0:0:0:0:
169,327,18186,1,0,0:0:0:0:
276,192,18349,1,0,0:0:0:0:
360,364,18512,6,0,P|400:344|446:335,1,90
168,218,18838,2,0,P|127:198|82:189,1,90
371,333,19165,2,0,P|411:313|457:304,1,90
156,187,19491,2,0,P|115:167|71:158,1,90
327,113,19817,5,0,0:0:0:0:
244,277,19980,1,0,0:0:0:0:
168,78,20143,1,0,0:0:0:0:
324,210,20306,2,0,L|417:188,1,90
247,10,20632,1,0,0:0:0:0:
149,179,20795,2,0,P|134:222|137:269,1,90
327,113,21121,6,0,L|239:92,1,90
61,200,21447,2,0,L|148:179,1,90
377,213,21773,6,0,L|333:202,1,45
203,259,21936,2,0,L|246:248,1,45
377,305,22099,2,0,L|333:294,1,45
203,351,22262,2,0,L|246:340,1,45
240,130,22425,5,0,0:0:0:0:
330,384,22588,1,0,0:0:0:0:
327,377,23730,5,0,0:0:0:0:
303,233,23893,1,0,0:0:0:0:
415,324,24056,1,0,0:0:0:0:
303,233,24219,2,0,P|233:218|166:282,1,165.599994440918
82,125,24708,2,0,P|120:115|163:105,1,82.7999972204591
379,176,25034,5,0,0:0:0:0:
267,20,25197,2,0,P|258:58|249:104,1,82.7999972204591
186,269,25523,1,0,0:0:0:0:
186,269,25605,1,0,0:0:0:0:
186,269,25686,2,0,P|168:231|169:190,1,82.7999972204591
249,101,26012,2,0,P|266:138|265:180,1,82.7999972204591
330,312,26338,5,0,0:0:0:0:
212,370,26501,2,0,P|174:360|132:350,1,82.7999972204591
30,231,26828,2,0,B|120:214|103:278|186:268,1,165.599994440918
256,136,27317,2,0,P|266:174|276:217,1,82.7999972204591
117,145,27643,5,0,0:0:0:0:
261,305,27806,2,0,P|301:304|340:283,1,82.7999972204591
256,136,28132,1,0,0:0:0:0:
185,268,28295,2,0,P|175:306|165:348,1,82.7999972204591
51,193,28621,2,0,P|55:229|60:279,1,82.7999972204591
186,113,28947,5,0,0:0:0:0:
51,193,29110,1,0,0:0:0:0:
108,64,29273,1,0,0:0:0:0:
235,188,29436,2,0,P|311:168|399:154,1,165.599994440918
285,44,29925,2,0,P|247:35|202:27,1,82.7999972204591
200,200,30251,5,0,0:0:0:0:
375,76,30415,2,0,P|394:112|397:154,1,82.7999972204591
240,286,30741,1,0,0:0:0:0:
312,138,30904,1,0,0:0:0:0:
400,246,31067,1,0,0:0:0:0:
227,112,31230,1,0,0:0:0:0:
209,298,31393,1,0,0:0:0:0:
397,153,31556,5,0,0:0:0:0:
161,209,31719,1,0,0:0:0:0:
375,331,31882,1,0,0:0:0:0:
296,59,32045,1,0,0:0:0:0:
99,301,32208,1,0,0:0:0:0:
99,301,32453,5,0,0:0:0:0:
99,301,32534,2,0,L|73:208,1,90
287,92,32860,5,0,0:0:0:0:
188,337,33023,1,0,0:0:0:0:
188,337,34165,5,0,0:0:0:0:
292,217,34328,1,0,0:0:0:0:
342,369,34491,1,0,0:0:0:0:
207,250,34654,2,0,P|131:230|43:216,1,165.599994440918
187,82,35143,2,0,P|221:63|269:58,1,82.7999972204591
292,217,35469,5,0,0:0:0:0:
104,135,35632,2,0,P|96:98|86:51,1,82.7999972204591
216,176,35958,1,0,0:0:0:0:
216,176,36040,1,0,0:0:0:0:
216,176,36121,2,0,P|214:217|197:254,1,82.7999972204591
110,318,36447,2,0,P|94:280|92:239,1,82.7999972204591
187,76,36773,5,0,0:0:0:0:
307,166,36936,2,0,P|345:157|388:147,1,82.7999972204591
346,326,37262,2,0,P|263:322|195:276,1,165.599994440918
110,159,37751,2,0,P|101:198|90:239,1,82.7999972204591
292,226,38078,5,0,0:0:0:0:
114,338,38241,2,0,P|74:327|33:317,1,82.7999972204591
110,159,38567,1,0,0:0:0:0:
196,277,38730,2,0,P|206:316|216:357,1,82.7999972204591
313,179,39056,2,0,P|302:219|292:259,1,82.7999972204591
219,45,39382,5,0,0:0:0:0:
363,100,39545,1,0,0:0:0:0:
198,188,39708,1,0,0:0:0:0:
390,241,39871,2,0,P|410:163|363:100,1,165.599994440918
237,14,40360,2,0,P|247:54|256:95,1,82.7999972204591
255,263,40686,5,0,0:0:0:0:
362,99,40849,2,0,P|404:87|446:83,1,82.7999972204591
418,300,41175,1,0,0:0:0:0:
313,179,41338,1,0,0:0:0:0:
215,343,41501,1,0,0:0:0:0:
409,209,41665,1,0,0:0:0:0:
187,123,41828,1,0,0:0:0:0:
334,360,41991,5,0,0:0:0:0:
385,113,42154,1,0,0:0:0:0:
123,192,42317,1,0,0:0:0:0:
418,300,42480,1,0,0:0:0:0:
126,378,42643,1,0,0:0:0:0:
126,378,42969,6,0,B|104:290,1,90
123,192,43295,6,0,P|87:193|53:205,1,72
105,291,43621,2,0,P|74:310|51:337,1,72
186,384,43947,2,0,P|198:313|216:243,1,144
280,145,44436,1,0,0:0:0:0:
306,293,44599,6,0,P|340:284|375:276,1,72
447,182,44925,2,0,P|412:173|377:165,1,72
184,121,45251,1,0,0:0:0:0:
216,243,45415,1,0,0:0:0:0:
332,49,45578,1,0,0:0:0:0:
332,49,45904,6,0,P|314:80|306:115,1,72
277,210,46230,2,0,P|295:240|321:265,1,72
445,175,46556,2,0,P|409:175|374:185,1,72
372,373,46882,1,0,0:0:0:0:
426,283,47045,1,0,0:0:0:0:
274,356,47208,6,0,L|146:334,2,108
199,232,47860,1,0,0:0:0:0:
167,337,48023,1,0,0:0:0:0:
75,152,48186,2,0,P|84:187|92:222,1,72
274,356,48512,5,0,0:0:0:0:
379,301,48675,1,0,0:0:0:0:
199,232,48838,1,0,0:0:0:0:
271,319,49001,1,0,0:0:0:0:
328,147,49165,5,0,0:0:0:0:
379,301,49328,1,0,0:0:0:0:
238,107,49491,1,0,0:0:0:0:
199,232,49654,1,0,0:0:0:0:
320,57,49817,6,0,P|393:40|466:112,1,161.999995056153
288,233,50306,1,0,0:0:0:0:
238,107,50469,2,0,L|225:27,1,80.9999975280763
52,151,50795,2,0,P|86:171|126:177,1,80.9999975280763
238,107,51121,5,0,0:0:0:0:
199,232,51284,1,0,0:0:0:0:
354,126,51447,2,0,P|396:115|438:105,1,80.9999975280763
362,289,51773,2,0,P|322:283|287:263,1,80.9999975280763
469,231,52099,2,0,P|479:273|483:319,1,80.9999975280763
232,374,52425,5,0,0:0:0:0:
353,191,52588,1,0,0:0:0:0:
141,310,52751,1,0,0:0:0:0:
398,363,52915,1,0,0:0:0:0:
365,90,53078,1,0,0:0:0:0:
365,90,53404,5,0,0:0:0:0:
232,374,53567,1,0,0:0:0:0:
232,374,53893,5,0,0:0:0:0:
132,122,54056,1,0,0:0:0:0:
345,310,54219,1,0,0:0:0:0:
372,5,54382,1,0,0:0:0:0:
372,5,54708,6,0,L|272:24,1,90
72,58,55034,5,0,0:0:0:0:
72,58,55360,2,0,P|130:68|197:94,1,121.499996292114
282,152,55686,5,0,0:0:0:0:
282,152,56012,2,0,P|223:162|157:188,1,121.499996292114
72,246,56338,5,0,0:0:0:0:
354,291,56501,1,0,0:0:0:0:
105,100,56665,1,0,0:0:0:0:
205,367,56828,1,0,0:0:0:0:
425,129,56991,1,0,0:0:0:0:
425,129,57235,5,0,0:0:0:0:
425,129,57317,2,0,L|440:245,1,90
299,371,57643,5,0,0:0:0:0:
247,220,57806,2,0,P|206:199|150:196,1,90
11,341,58132,2,0,B|109:359|91:289|182:300,1,180
348,112,58621,1,0,0:0:0:0:
378,232,58784,6,0,P|386:280|391:342,1,90
247,220,59110,2,0,P|251:175|258:130,1,90
35,76,59436,2,0,P|116:93|193:22,1,180
436,111,59925,2,0,P|391:103|346:99,1,90
157,184,60251,5,0,0:0:0:0:
279,42,60415,1,0,0:0:0:0:
340,219,60578,1,0,0:0:0:0:
279,42,60741,1,0,0:0:0:0:
249,181,60904,2,0,L|225:288,1,90
77,326,61230,1,0,0:0:0:0:
92,146,61393,6,0,P|178:129|249:181,1,180
309,333,61882,1,0,0:0:0:0:
408,202,62045,2,0,B|440:106|368:115|391:26,1,180
191,24,62534,1,0,0:0:0:0:
249,181,62697,5,0,0:0:0:0:
249,181,62779,1,0,0:0:0:0:
249,181,62860,2,0,L|338:162,1,90
155,117,63186,2,0,L|66:98,1,90
110,303,63512,1,0,0:0:0:0:
249,181,63675,1,0,0:0:0:0:
66,98,63838,1,0,0:0:0:0:
165,220,64001,1,0,0:0:0:0:
221,19,64165,5,0,0:0:0:0:
249,181,64328,1,0,0:0:0:0:
310,54,64491,1,0,0:0:0:0:
146,80,64654,1,0,0:0:0:0:
380,141,64817,1,0,0:0:0:0:
194,263,64980,1,0,0:0:0:0:
228,67,65143,1,0,0:0:0:0:
448,247,65306,1,0,0:0:0:0:
448,247,65632,6,0,L|359:228,1,90
199,196,65958,1,0,0:0:0:0:
268,349,66121,2,0,P|312:344|352:323,1,90
317,79,66447,2,0,P|296:118|291:163,1,90
352,323,66773,5,0,0:0:0:0:
216,87,66936,1,0,0:0:0:0:
180,344,67099,5,0,0:0:0:0:
317,79,67262,1,0,0:0:0:0:
427,362,67425,5,0,0:0:0:0:
216,87,67588,1,0,0:0:0:0:
90,370,67751,2,0,L|27:383,2,45
199,196,68078,5,0,0:0:0:0:
268,349,68241,2,0,P|275:304|279:259,1,90
193,95,68567,2,0,P|107:79|40:134,1,180
136,277,69056,5,0,0:0:0:0:
268,349,69219,2,0,P|312:344|352:323,1,90
412,162,69545,2,0,P|371:141|315:138,1,90
76,155,69871,2,0,B|164:144|146:214|244:196,1,180
352,323,70360,2,0,P|340:279|345:235,1,90
389,62,70686,5,0,0:0:0:0:
244,196,70849,2,0,P|198:198|152:175,1,90
44,101,71175,1,0,0:0:0:0:
202,18,71338,2,0,P|209:63|213:108,1,90
94,249,71665,1,0,0:0:0:0:
302,120,71828,6,0,P|375:111|442:194,1,180
378,333,72317,1,0,0:0:0:0:
244,196,72480,2,0,B|155:185|173:255|75:237,1,180
152,67,72969,1,0,0:0:0:0:
75,237,73132,5,0,0:0:0:0:
75,237,73213,1,0,0:0:0:0:
75,237,73295,2,0,P|79:281|85:326,1,90
244,196,73621,1,0,0:0:0:0:
106,148,73784,1,0,0:0:0:0:
296,88,73947,1,0,0:0:0:0:
262,281,74110,1,0,0:0:0:0:
152,67,74273,1,0,0:0:0:0:
370,146,74436,1,0,0:0:0:0:
190,342,74599,6,0,P|172:301|174:256,1,90
354,60,74925,2,0,P|371:100|369:145,1,90
262,281,75251,1,0,0:0:0:0:
447,194,75415,1,0,0:0:0:0:
279,369,75578,1,0,0:0:0:0:
162,107,75741,1,0,0:0:0:0:
162,107,76067,5,0,0:0:0:0:
344,198,76230,1,0,0:0:0:0:
121,284,76393,5,0,0:0:0:0:
288,107,76556,1,0,0:0:0:0:
68,68,76719,5,0,0:0:0:0:
254,257,76882,1,0,0:0:0:0:
304,7,77045,2,0,B|402:-11|384:59|475:48,1,180
436,268,77534,5,0,0:0:0:0:
335,100,77697,1,0,0:0:0:0:
259,303,77860,1,0,0:0:0:0:
230,79,78023,2,0,L|223:25,2,45
343,255,78349,1,0,0:0:0:0:
155,162,78512,6,0,P|112:149|56:144,1,90
335,100,78838,2,0,P|377:87|434:82,1,90
230,79,79165,5,0,0:0:0:0:
259,303,79328,1,0,0:0:0:0:
335,100,79491,5,0,0:0:0:0:
155,162,79654,1,0,0:0:0:0:
332,201,79817,5,0,0:0:0:0:
306,5,79980,1,0,0:0:0:0:
173,266,80143,5,0,0:0:0:0:
230,79,80306,1,0,0:0:0:0:
388,325,80469,5,0,0:0:0:0:
155,162,80632,1,0,0:0:0:0:
456,77,80795,1,0,0:0:0:0:
456,77,81121,5,0,0:0:0:0:
415,281,81284,1,0,0:0:0:0:
316,97,81447,2,0,P|274:80|229:78,1,90
137,268,81773,5,0,0:0:0:0:
350,188,81936,1,0,0:0:0:0:
135,74,82099,5,0,0:0:0:0:
236,291,82262,1,0,0:0:0:0:
401,61,82425,5,0,0:0:0:0:
137,268,82588,1,0,0:0:0:0:
406,297,82751,5,0,0:0:0:0:
105,173,82915,1,0,0:0:0:0:
316,97,83078,5,0,0:0:0:0:
234,309,83241,1,0,0:0:0:0:
183,35,83404,5,0,0:0:0:0:
325,338,83567,1,0,0:0:0:0:
407,105,83730,6,0,L|417:14,1,90
189,205,84056,2,0,L|199:296,1,90
271,123,84382,5,0,0:0:0:0:
91,181,84545,1,0,0:0:0:0:
301,283,84708,5,0,0:0:0:0:
175,113,84871,1,0,0:0:0:0:
170,329,85034,5,0,0:0:0:0:
271,123,85197,1,0,0:0:0:0:
393,364,85360,5,0,0:0:0:0:
349,169,85523,1,0,0:0:0:0:
126,267,85686,5,0,0:0:0:0:
233,42,85849,1,0,0:0:0:0:
426,243,86012,1,0,0:0:0:0:
426,243,86338,5,0,0:0:0:0:
344,50,86501,1,0,0:0:0:0:
142,180,86665,2,0,L|36:164,1,90
198,39,86991,5,0,0:0:0:0:
235,263,87154,1,0,0:0:0:0:
380,66,87317,5,0,0:0:0:0:
142,180,87480,1,0,0:0:0:0:
426,296,87643,5,0,0:0:0:0:
211,123,87806,1,0,0:0:0:0:
167,353,87969,1,0,0:0:0:0:
295,82,88132,5,0,0:0:0:0:
79,291,88295,1,0,0:0:0:0:
343,353,88458,1,0,0:0:0:0:
86,97,88621,5,0,0:0:0:0:
255,353,88784,1,0,0:0:0:0:
379,41,88947,1,0,0:0:0:0:
