osu file format v14

[General]
AudioFilename: OPMV.mp3
AudioLeadIn: 0
PreviewTime: 50557
Countdown: 0
SampleSet: Normal
StackLeniency: 0.7
Mode: 0
LetterboxInBreaks: 1
WidescreenStoryboard: 1

[Editor]
DistanceSpacing: 1.8
BeatDivisor: 4
GridSize: 4
TimelineZoom: 1.3

[Metadata]
Title:chochocho!Yuruyuri*kapuricho
TitleUnicode:ちょちょちょ!ゆるゆり☆かぷりっちょ!!!
Artist:Nanamori-chu*Goraku-bu
ArtistUnicode:七森中☆ごらく部
Creator:-soramaru-
Version:YuruYuri!
Source:ゆるゆり さん☆ハイ!
Tags:Yuruyuri San * hai ! ゆるゆり さん☆ハイ! 七森中☆ごらく部 anime
BeatmapID:797255
BeatmapSetID:363051

[Difficulty]
HPDrainRate:7
CircleSize:4
OverallDifficulty:8
ApproachRate:9
SliderMultiplier:1.4
SliderTickRate:1

[Events]
//Background and Video events
0,0,"yuruyuri!!.jpg",0,0
//Break Periods
//Storyboard Layer 0 (Background)
//Storyboard Layer 1 (Fail)
//Storyboard Layer 2 (Pass)
//Storyboard Layer 3 (Foreground)
//Storyboard Sound Samples

[TimingPoints]
31,315.789473684211,4,1,0,100,1,0
2557,-100,4,1,2,70,0,0
4452,-100,4,1,2,70,0,0
14399,-100,4,1,2,85,0,0
18978,-100,4,1,2,85,0,0
22768,-100,4,1,2,60,0,0
30347,-66.6666666666667,4,1,2,78,0,0
32241,-100,4,1,2,85,0,0
32873,-100,4,1,2,76,0,0
34452,-100,4,1,2,70,0,0
40452,-66.6666666666667,4,1,2,78,0,0
42110,-100,4,1,2,78,0,0
42978,-133.333333333333,4,1,2,68,0,0
47873,-100,4,1,2,74,0,0
49926,-100,4,1,2,71,0,0
50873,-100,4,1,2,75,0,0
51189,-100,4,1,2,67,0,0
51505,-100,4,3,2,70,0,0
51820,-100,4,1,2,70,0,0
52136,-100,4,1,2,80,0,0
52452,-100,4,1,2,84,0,0
52768,-100,4,1,0,87,0,0
53083,-100,4,1,0,75,0,1
55136,-100,4,1,0,65,0,1
55452,-100,4,1,0,80,0,1
56873,-100,4,1,0,74,0,1
57189,-100,4,1,0,76,0,1
57505,-100,4,1,0,79,0,1
57820,-100,4,1,0,80,0,1
58926,-100,4,1,0,83,0,1
60189,-100,4,1,0,80,0,1
60663,-100,4,1,0,67,0,1
60978,-100,4,1,0,74,0,1
61373,-100,4,1,0,82,0,1
64768,-100,4,1,0,80,0,1
65084,-100,4,1,0,83,0,1
65399,-100,4,1,0,87,0,1
65715,-100,4,1,0,90,0,1
66189,-100,4,1,0,85,0,1
70768,-100,4,1,2,65,0,1
71399,-100,4,1,2,73,0,1
72031,-100,4,1,2,90,0,1
72662,-100,4,1,2,90,0,0
73136,-100,4,1,2,84,0,0
82136,-100,4,1,0,60,0,0
82768,-100,4,1,0,70,0,0
83478,-100,4,1,2,80,0,0

[HitObjects]
256,192,663,12,0,2242,2:0:0:0:
208,120,2557,5,0,0:0:0:0:
208,120,2662,1,0,0:0:0:0:
208,120,2767,1,0,0:0:0:0:
208,120,2872,1,0,0:0:0:0:
352,160,3188,5,0,0:0:0:0:
352,160,3294,1,0,0:0:0:0:
352,160,3399,1,0,0:0:0:0:
352,160,3504,1,0,0:0:0:0:
216,248,3820,5,0,0:0:0:0:
216,248,3925,1,0,0:0:0:0:
216,248,4030,1,0,0:0:0:0:
216,248,4136,1,0,0:0:0:0:
120,152,4452,2,0,P|144:87|203:51,1,140,0|0,0:0|0:0,2:0:0:0:
360,72,5083,5,0,0:0:0:0:
360,72,5188,1,0,0:0:0:0:
360,72,5294,1,0,0:0:0:0:
360,72,5399,1,0,0:0:0:0:
264,192,5715,5,0,0:0:0:0:
264,192,5820,1,0,0:0:0:0:
264,192,5925,1,0,0:0:0:0:
264,192,6030,1,0,0:0:0:0:
120,128,6346,5,0,0:0:0:0:
128,256,6583,2,0,P|144:296|224:304,1,93.3333333333333
264,240,6978,2,0,P|328:240|360:288,2,105
176,288,7609,5,0,0:0:0:0:
176,288,7715,1,0,0:0:0:0:
176,288,7820,1,0,0:0:0:0:
176,288,7925,2,0,P|248:256|320:192,1,140
336,184,8346,1,0,0:0:0:0:
336,184,8451,1,0,0:0:0:0:
336,184,8557,2,0,P|312:184|200:120,1,140
184,88,8978,5,0,0:0:0:0:
184,88,9083,1,0,0:0:0:0:
184,88,9188,1,0,0:0:0:0:
384,80,9504,2,0,P|424:128|408:224,1,140
344,328,10136,5,0,0:0:0:0:
344,328,10241,1,0,0:0:0:0:
344,328,10346,1,0,0:0:0:0:
344,328,10451,1,0,0:0:0:0:
304,160,10767,5,0,0:0:0:0:
304,160,10872,1,0,0:0:0:0:
304,160,10978,1,0,0:0:0:0:
304,160,11083,1,0,0:0:0:0:
112,208,11399,5,0,0:0:0:0:
216,320,11636,2,0,P|304:312|336:280,1,105
424,136,12030,1,0,0:0:0:0:
264,64,12504,5,4,2:0:0:0:
192,184,12662,1,0,2:0:0:0:
352,96,12820,1,0,2:0:0:0:
192,76,12978,2,0,L|248:156,1,70,0|0,1:0|2:0,2:0:0:0:
320,248,13294,1,0,2:0:0:0:
320,248,13451,1,0,2:0:0:0:
432,176,13610,2,0,L|360:160,1,70,0|0,1:0|2:0,2:0:0:0:
224,136,13925,5,0,2:0:0:0:
80,120,14083,2,0,L|128:208,1,70,0|0,2:0|1:0,2:0:0:0:
208,296,14399,1,0,2:0:0:0:
88,320,14557,2,0,L|112:232,1,70,0|0,2:0|2:0,2:0:0:0:
152,96,14872,1,0,1:0:0:0:
256,40,15031,6,0,P|296:64|336:88,1,70,4|0,2:0|2:0,2:0:0:0:
432,160,15346,1,0,2:0:0:0:
272,160,15504,1,0,1:0:0:0:
380,52,15662,1,0,2:0:0:0:
380,52,15820,2,0,L|376:124,1,70,0|0,2:0|2:0,2:0:0:0:
336,244,16136,2,0,L|332:164,1,70,0|0,1:0|2:0,2:0:0:0:
320,64,16451,5,0,0:0:0:0:
304,48,16530,1,0,0:0:0:0:
280,40,16609,1,0,0:0:0:0:
256,40,16688,1,0,0:0:0:0:
240,48,16767,1,0,0:0:0:0:
120,144,16925,2,0,P|120:200|168:272,1,140,0|0,0:0|0:0,2:0:0:0:
352,296,17557,5,4,2:0:0:0:
456,200,17715,1,0,2:0:0:0:
344,120,17872,1,0,2:0:0:0:
224,192,18031,2,0,L|296:224,1,70,0|0,1:0|2:0,2:0:0:0:
424,268,18346,1,0,2:0:0:0:
420,132,18504,1,0,2:0:0:0:
420,132,18583,1,0,2:0:0:0:
419,131,18662,2,0,L|332:176,1,70,0|0,1:0|2:0,2:0:0:0:
200,224,18978,5,2,2:0:0:0:
312,112,19136,1,0,2:0:0:0:
312,112,19215,1,0,2:0:0:0:
312,112,19294,1,0,1:0:0:0:
368,248,19451,1,0,2:0:0:0:
216,176,19609,1,2,2:0:0:0:
224,184,19688,1,0,2:0:0:0:
224,184,19767,1,0,2:0:0:0:
180,56,19925,1,0,1:0:0:0:
264,40,20083,6,0,P|328:48|392:88,1,140,4|0,2:0|0:0,0:0:0:0:
424,216,20557,2,0,L|360:248,1,70
160,312,20873,2,0,L|224:248,1,70
352,96,21189,2,0,L|320:184,1,70
280,304,21504,1,0,0:0:0:0:
144,152,21662,1,0,0:0:0:0:
288,64,21978,2,0,L|320:160,1,70,0|0,0:0|2:0,0:0:0:0:
368,320,22294,1,0,0:0:0:0:
424,232,22609,1,0,2:0:0:0:
424,232,22688,1,0,2:0:0:0:
424,232,22768,6,0,P|392:192|360:168,1,70,4|0,2:0|2:0,2:0:0:0:
224,104,23083,2,0,P|248:144|280:160,1,70,0|0,2:0|2:0,2:0:0:0:
392,104,23399,1,0,2:0:0:0:
288,40,23557,1,0,2:0:0:0:
320,188,23715,1,0,3:0:0:0:
352,48,23872,1,0,2:0:0:0:
256,64,24031,6,0,L|304:120,1,70,0|0,2:0|2:0,2:0:0:0:
208,168,24347,2,0,L|304:200,1,70,0|0,3:0|2:0,2:0:0:0:
232,288,24662,2,0,L|320:256,1,70,0|0,2:0|2:0,2:0:0:0:
380,228,24978,1,0,3:0:0:0:
423,149,25136,1,0,2:0:0:0:
392,64,25294,6,0,L|312:112,1,70,2|0,2:0|2:0,2:0:0:0:
192,80,25610,2,0,L|272:112,1,70,0|0,3:0|2:0,2:0:0:0:
348,168,25926,2,0,L|284:224,1,70,2|0,2:0|2:0,2:0:0:0:
252,240,26162,2,0,P|204:208|164:152,1,105,2|0,2:0|2:0,2:0:0:0:
240,32,26557,6,0,P|272:64|296:112,1,70,2|0,2:0|2:0,2:0:0:0:
120,88,26873,2,0,P|152:40|184:24,1,70,0|0,3:0|2:0,2:0:0:0:
236,152,27189,2,0,L|328:140,1,70,2|0,2:0|2:0,2:0:0:0:
420,212,27505,2,0,L|340:260,1,70,2|0,2:0|2:0,2:0:0:0:
336,260,27741,1,0,2:0:0:0:
312,264,27820,6,0,P|264:256|224:240,1,70,4|0,2:0|2:0,2:0:0:0:
144,144,28136,1,0,3:0:0:0:
144,144,28294,1,0,2:0:0:0:
224,32,28452,2,0,P|256:48|280:72,1,70,0|0,2:0|2:0,2:0:0:0:
328,192,28767,1,0,3:0:0:0:
328,192,28925,1,0,2:0:0:0:
248,264,29083,6,0,L|192:200,1,70,0|0,2:0|2:0,2:0:0:0:
192,184,29320,1,0,2:0:0:0:
192,152,29399,2,0,P|232:112|272:112,1,70,0|0,3:0|2:0,2:0:0:0:
424,120,29715,2,0,L|472:208,2,70,0|0|0,3:0|3:0|3:0,3:0:0:0:
312,40,30188,1,0,3:0:0:0:
192,48,30346,5,0,0:0:0:0:
192,48,30504,1,0,0:0:0:0:
104,128,30663,2,0,L|216:176,1,105.000004005432,4|0,2:0|2:0,0:0:0:0:
360,216,30978,1,0,0:0:0:0:
360,216,31136,1,0,0:0:0:0:
408,88,31294,2,0,P|352:72|288:96,1,105.000004005432,4|0,3:0|2:0,0:0:0:0:
168,184,31609,5,0,0:0:0:0:
168,184,31767,1,0,0:0:0:0:
232,272,31926,2,0,P|288:208|288:176,1,105.000004005432,4|0,2:0|1:0,0:0:0:0:
272,80,32241,1,4,2:0:0:0:
272,80,32320,1,0,2:0:0:0:
272,80,32399,1,0,1:0:0:0:
272,80,32478,1,0,2:0:0:0:
272,80,32557,2,0,P|208:104|184:128,1,70,0|0,1:0|2:0,2:0:0:0:
96,176,32873,6,0,P|96:216|112:248,1,70,2|0,2:0|2:0,2:0:0:0:
256,320,33189,2,0,P|248:264|216:240,1,70,0|0,1:0|2:0,2:0:0:0:
120,216,33505,2,0,L|152:144,1,70,2|0,2:0|2:0,2:0:0:0:
248,48,33820,2,0,L|304:104,1,70,0|0,1:0|2:0,2:0:0:0:
400,208,34136,5,0,2:0:0:0:
400,208,34215,1,0,2:0:0:0:
400,208,34294,1,0,2:0:0:0:
400,208,34372,1,0,2:0:0:0:
400,208,34452,2,0,P|384:248|352:280,1,70,0|0,1:0|2:0,2:0:0:0:
240,320,34767,1,0,3:0:0:0:
104,248,34925,1,0,3:0:0:0:
176,360,35083,1,0,1:0:0:0:
152,200,35241,1,0,2:0:0:0:
192,112,35399,6,0,L|280:160,1,70,0|0,2:0|2:0,2:0:0:0:
272,264,35715,2,0,L|344:208,1,70,0|0,1:0|2:0,2:0:0:0:
424,120,36031,2,0,P|384:96|352:96,1,70,2|0,2:0|2:0,2:0:0:0:
264,144,36268,2,0,P|280:200|336:240,1,105,2|0,2:0|2:0,2:0:0:0:
456,240,36663,6,0,L|408:160,1,70,2|0,2:0|2:0,2:0:0:0:
336,56,36978,1,0,1:0:0:0:
336,56,37136,1,0,2:0:0:0:
192,96,37294,2,0,P|216:144|248:176,1,70,2|0,2:0|2:0,2:0:0:0:
248,176,37530,1,0,2:0:0:0:
272,188,37610,2,0,P|328:188|360:172,1,70,0|0,1:0|2:0,2:0:0:0:
448,104,37926,6,0,P|400:80|368:72,1,70,4|0,2:0|2:0,2:0:0:0:
256,40,38241,1,0,1:0:0:0:
144,48,38399,1,0,2:0:0:0:
80,128,38557,2,0,P|136:152|176:152,1,70,0|0,2:0|2:0,2:0:0:0:
264,160,38872,1,0,1:0:0:0:
376,160,39030,1,0,2:0:0:0:
376,56,39189,6,0,L|304:104,1,70,0|0,2:0|2:0,2:0:0:0:
248,32,39505,2,0,L|216:104,1,70,0|0,1:0|2:0,2:0:0:0:
128,64,39820,2,0,L|136:144,1,70,0|0,2:0|2:0,2:0:0:0:
32,128,40136,2,0,L|72:192,1,70,0|0,1:0|2:0,2:0:0:0:
160,280,40451,5,0,0:0:0:0:
160,280,40609,1,0,0:0:0:0:
132,176,40768,2,0,L|252:120,1,105.000004005432,4|0,2:0|2:0,0:0:0:0:
360,88,41083,1,0,0:0:0:0:
360,88,41241,1,0,0:0:0:0:
448,184,41399,2,0,P|416:240|376:280,1,105.000004005432,4|0,3:0|2:0,0:0:0:0:
280,328,41715,5,4,2:0:0:0:
280,328,41794,1,0,2:0:0:0:
280,328,41872,1,0,1:0:0:0:
280,328,41951,1,0,2:0:0:0:
280,328,42030,1,0,1:0:0:0:
144,256,42189,2,0,P|168:224|256:176,1,140,4|0,2:0|1:0,1:0:0:0:
384,168,42662,1,0,1:0:0:0:
208,64,42978,5,4,2:0:0:0:
96,128,43294,1,0,2:0:0:0:
224,168,43609,1,8,2:0:0:0:
344,96,43925,1,0,2:0:0:0:
440,160,44241,2,0,P|424:216|392:272,1,105.000004005432,0|0,2:0|2:0,2:0:0:0:
256,320,44872,1,8,2:0:0:0:
136,224,45188,1,0,2:0:0:0:
136,224,45346,1,0,2:0:0:0:
136,224,45504,5,4,2:0:0:0:
208,96,45820,1,0,2:0:0:0:
336,200,46136,1,8,2:0:0:0:
172,244,46451,1,0,2:0:0:0:
172,244,46609,1,0,2:0:0:0:
172,244,46767,1,0,2:0:0:0:
112,96,47083,2,0,P|152:80|224:88,1,105.000004005432,0|0,2:0|3:0,2:0:0:0:
312,120,47557,1,0,3:0:0:0:
312,120,47636,1,0,3:0:0:0:
312,120,47715,1,0,0:0:0:0:
256,240,48031,6,4,P|176:272|152:272,2,105,4|4|4,2:0|2:0|2:0,2:0:0:0:
376,112,48663,2,4,P|336:64|272:48,1,105,4|4,2:0|2:0,2:0:0:0:
112,64,49136,2,4,L|176:144,1,70,4|4,2:0|2:0,2:0:0:0:
276,272,49610,5,2,2:0:0:0:
424,208,49768,1,0,2:0:0:0:
300,108,49925,1,0,1:0:0:0:
164,192,50083,1,0,1:0:0:0:
164,192,50162,1,0,1:0:0:0:
164,192,50241,1,8,2:0:0:0:
96,272,50399,6,0,P|144:296|248:304,1,140,4|0,2:0|0:0,0:0:0:0:
380,284,50873,1,2,2:0:0:0:
380,284,51031,1,8,3:0:0:0:
444,124,51189,1,2,2:0:0:0:
448,128,51347,1,8,3:0:0:0:
272,204,51505,1,2,2:0:0:0:
272,204,51663,1,2,2:0:0:0:
152,176,51820,5,8,3:0:0:0:
164,144,51899,1,8,3:0:0:0:
184,116,51978,1,8,3:0:0:0:
208,92,52057,1,8,3:0:0:0:
240,76,52136,1,8,3:0:0:0:
276,72,52215,1,8,3:0:0:0:
312,80,52294,1,8,3:0:0:0:
340,96,52372,1,8,3:0:0:0:
364,120,52451,5,0,1:0:0:0:
384,148,52530,1,0,1:0:0:0:
396,180,52609,1,0,1:0:0:0:
404,216,52688,1,0,1:0:0:0:
404,252,52767,1,0,1:0:0:0:
392,284,52846,1,0,1:0:0:0:
368,312,52925,1,0,1:0:0:0:
336,324,53004,1,0,1:0:0:0:
300,324,53083,6,0,P|228:304|184:240,1,140,4|0,2:0|0:0,0:0:0:0:
168,128,53557,1,0,0:0:0:0:
276,196,53715,1,0,1:0:0:0:
280,84,53872,1,0,0:0:0:0:
280,84,53951,1,0,0:0:0:0:
280,84,54031,2,0,L|352:60,1,70
472,56,54347,5,4,2:0:0:0:
468,184,54505,1,0,1:0:0:0:
476,60,54662,1,0,1:0:0:0:
468,184,54820,1,0,1:0:0:0:
372,236,54978,2,0,L|300:268,1,70,4|8,2:0|2:0,0:0:0:0:
296,132,55294,2,0,L|248:204,1,70,12|0,2:0|0:0,0:0:0:0:
180,284,55610,6,0,P|127:255|95:177,1,140,4|0,2:0|0:0,0:0:0:0:
120,64,56084,1,0,0:0:0:0:
200,164,56241,1,0,3:0:0:0:
296,104,56399,1,0,1:0:0:0:
296,104,56478,1,0,0:0:0:0:
296,104,56557,2,0,P|336:160|344:192,1,70
376,288,56873,5,4,2:0:0:0:
248,136,57031,1,0,0:0:0:0:
184,304,57189,1,4,2:0:0:0:
344,192,57347,1,0,0:0:0:0:
144,192,57505,1,4,2:0:0:0:
320,336,57663,1,8,2:0:0:0:
328,96,57820,1,12,2:0:0:0:
152,256,57978,1,0,1:0:0:0:
72,288,58136,6,0,P|56:232|48:192,1,70,4|0,2:0|1:0,0:0:0:0:
56,192,58373,1,0,0:0:0:0:
56,192,58452,1,0,0:0:0:0:
112,48,58610,2,0,L|192:80,1,70,0|0,1:0|2:0,2:0:0:0:
384,144,58926,1,4,2:0:0:0:
384,144,59084,1,4,2:0:0:0:
352,272,59399,6,0,P|320:224|280:208,1,70
288,208,59636,1,0,0:0:0:0:
288,208,59715,1,0,0:0:0:0:
112,192,59873,2,0,P|72:152|72:120,1,70,0|0,0:0|2:0,0:0:0:0:
120,40,60189,1,4,2:0:0:0:
256,96,60347,1,4,2:0:0:0:
200,240,60663,6,0,L|200:160,1,70
312,48,60978,2,0,L|384:96,1,70,4|0,2:0|0:0,0:0:0:0:
464,184,61294,1,0,0:0:0:0:
436,292,61452,1,0,0:0:0:0:
332,336,61609,2,0,L|260:272,1,70,4|0,2:0|0:0,0:0:0:0:
200,200,61925,5,0,3:0:0:0:
204,172,62004,1,0,3:0:0:0:
212,144,62083,1,0,3:0:0:0:
228,120,62162,1,0,0:0:0:0:
252,104,62241,2,0,L|300:88,3,35,0|0|0|0,1:0|0:0|0:0|0:0,0:0:0:0:
312,88,62557,1,4,2:0:0:0:
344,96,62636,1,0,1:0:0:0:
376,112,62715,1,0,0:0:0:0:
400,136,62794,1,0,0:0:0:0:
416,168,62873,2,0,P|408:208|384:240,1,70,4|0,2:0|0:0,0:0:0:0:
264,288,63189,6,0,L|216:216,1,70,4|0,1:1|0:0,0:0:0:0:
160,96,63504,1,0,0:0:0:0:
160,96,63662,1,0,0:0:0:0:
288,40,63820,2,0,L|328:104,1,70
336,128,64057,1,0,0:0:0:0:
336,128,64136,1,0,0:0:0:0:
328,232,64294,1,0,0:0:0:0:
208,240,64452,6,0,L|240:176,1,70,4|0,2:0|1:0,2:0:0:0:
208,32,64768,2,0,L|160:96,1,70,4|0,2:0|1:0,2:0:0:0:
80,208,65084,1,4,2:0:0:0:
256,128,65241,1,8,2:0:0:0:
80,208,65399,1,12,2:0:0:0:
256,128,65557,1,0,0:0:0:0:
344,40,65715,6,0,P|360:88|368:176,1,140,4|0,2:0|0:0,0:0:0:0:
296,296,66189,1,0,0:0:0:0:
152,320,66347,1,0,1:0:0:0:
88,216,66505,1,0,0:0:0:0:
88,216,66584,1,0,0:0:0:0:
88,216,66663,2,0,P|104:176|136:136,1,70
248,72,66978,5,4,2:0:0:0:
168,248,67136,1,0,0:0:0:0:
120,104,67294,1,4,2:0:0:0:
280,240,67451,1,0,0:0:0:0:
344,120,67610,2,0,L|288:64,1,70,4|8,2:0|2:0,0:0:0:0:
120,56,67926,2,0,L|168:136,1,70,12|0,2:0|0:0,0:0:0:0:
240,224,68241,5,0,0:0:0:0:
240,224,68399,1,0,0:0:0:0:
392,216,68557,2,0,P|384:176|352:128,1,70,4|0,2:0|0:0,0:0:0:0:
296,56,68873,1,0,0:0:0:0:
128,160,69031,1,0,0:0:0:0:
304,104,69189,1,4,2:0:0:0:
304,104,69347,1,0,0:0:0:0:
168,64,69505,6,0,L|168:152,1,70
180,256,69820,1,0,0:0:0:0:
288,312,69978,1,4,2:0:0:0:
344,204,70136,2,0,P|348:164|336:112,1,70,0|0,1:0|0:0,0:0:0:0:
232,48,70452,2,0,P|208:76|180:132,1,70,4|0,2:0|0:0,0:0:0:0:
136,240,70768,6,8,L|184:264,3,35,8|0|8|8,3:0|3:0|3:0|3:0,3:0:0:0:
240,176,71084,2,8,L|296:168,3,35,8|0|0|0,3:0|3:0|1:0|1:0,3:0:0:0:
356,260,71399,2,0,L|396:228,3,35,0|0|0|0,1:0|1:0|1:0|1:0,1:0:0:0:
432,152,71715,2,0,L|420:96,3,35,0|0|0|0,1:0|1:0|1:0|1:0,1:0:0:0:
416,96,72030,5,4,2:0:0:0:
400,80,72109,1,0,2:0:0:0:
376,72,72188,1,0,2:0:0:0:
352,80,72267,1,0,2:0:0:0:
336,96,72347,2,2,P|312:136|304:176,1,70,4|2,2:0|2:0,2:0:0:0:
288,304,72662,1,4,2:0:0:0:
200,212,72820,1,0,2:0:0:0:
200,212,72899,1,0,2:0:0:0:
200,212,72978,1,0,0:0:0:0:
160,92,73136,5,4,2:0:0:0:
256,36,73294,1,0,2:0:0:0:
352,80,73452,1,0,2:0:0:0:
352,80,73610,2,0,L|344:168,1,70,0|0,1:0|2:0,2:0:0:0:
320,260,73926,1,0,2:0:0:0:
196,244,74083,1,0,2:0:0:0:
196,244,74162,1,0,2:0:0:0:
196,244,74241,2,0,L|196:168,1,70,0|0,1:0|2:0,2:0:0:0:
244,56,74557,5,0,2:0:0:0:
280,176,74715,2,0,L|372:184,1,70,0|0,2:0|1:0,2:0:0:0:
476,200,75031,1,0,2:0:0:0:
448,76,75189,2,0,L|348:96,1,70,0|0,2:0|2:0,2:0:0:0:
256,112,75504,1,0,0:0:0:0:
152,44,75662,6,0,P|112:68|96:108,1,70,4|0,2:0|2:0,2:0:0:0:
32,196,75978,1,0,2:0:0:0:
120,288,76136,1,0,1:0:0:0:
168,172,76294,1,0,2:0:0:0:
292,160,76452,2,0,L|260:232,1,70,0|0,2:0|2:0,2:0:0:0:
332,332,76768,2,0,L|364:260,1,70,0|0,1:0|2:0,2:0:0:0:
380,172,77083,5,0,0:0:0:0:
380,150,77162,1,0,0:0:0:0:
380,132,77241,1,0,0:0:0:0:
380,116,77320,1,0,0:0:0:0:
380,101,77399,1,0,0:0:0:0:
272,36,77557,2,0,P|225:52|180:132,1,140,0|0,0:0|0:0,2:0:0:0:
304,152,78031,1,0,0:0:0:0:
296,276,78189,5,4,2:0:0:0:
228,172,78346,1,0,2:0:0:0:
168,284,78505,1,0,2:0:0:0:
168,284,78663,2,0,L|164:188,1,70,0|0,1:0|2:0,2:0:0:0:
188,72,78978,2,0,L|260:112,1,70,0|0,2:0|2:0,2:0:0:0:
332,220,79294,2,0,L|240:232,1,70,0|0,1:0|2:0,2:0:0:0:
112,236,79610,5,2,2:0:0:0:
148,108,79768,1,0,2:0:0:0:
148,108,79847,1,0,2:0:0:0:
148,108,79926,1,0,1:0:0:0:
180,240,80083,1,2,2:0:0:0:
268,128,80241,1,0,2:0:0:0:
268,128,80320,1,0,2:0:0:0:
268,128,80399,1,2,2:0:0:0:
176,40,80557,1,0,1:0:0:0:
176,40,80715,6,0,P|120:96|120:160,1,140,4|0,2:0|2:0,0:0:0:0:
208,232,81189,1,0,0:0:0:0:
208,232,81347,1,0,2:0:0:0:
336,240,81505,2,0,L|424:192,1,70,0|0,2:0|2:0,2:0:0:0:
392,56,81820,2,0,L|312:104,1,70,0|0,1:0|2:0,2:0:0:0:
208,136,82136,6,8,L|176:72,2,46.6666666666667,8|8|8,3:0|3:0|3:0,3:0:0:0:
152,244,82452,2,8,L|200:316,2,46.6666666666667,8|8|8,3:0|3:0|3:0,3:0:0:0:
128,200,82768,1,0,0:0:0:0:
120,152,82873,1,0,0:0:0:0:
136,104,82978,1,0,0:0:0:0:
160,64,83084,2,0,P|224:80|288:128,1,140,0|0,0:0|1:0,0:0:0:0:
304,152,83505,6,0,P|316:184|308:224,2,46.6666666666667
176,48,84031,5,0,0:0:0:0:
176,48,84137,1,0,0:0:0:0:
176,48,84242,1,0,0:0:0:0:
176,48,84347,1,0,0:0:0:0:
376,176,84663,5,0,0:0:0:0:
376,176,84768,1,0,0:0:0:0:
376,176,84873,1,0,0:0:0:0:
376,176,84978,1,0,0:0:0:0:
248,64,85294,2,0,P|216:128|152:168,1,140,0|0,0:0|0:0,2:0:0:0:
56,48,85926,5,0,0:0:0:0:
56,48,86031,1,0,0:0:0:0:
56,48,86136,1,0,0:0:0:0:
56,48,86241,1,0,0:0:0:0:
168,200,86557,5,0,0:0:0:0:
168,200,86663,1,0,0:0:0:0:
168,200,86768,1,0,0:0:0:0:
168,200,86873,1,0,0:0:0:0:
320,272,87189,5,0,1:0:0:0:
400,160,87426,2,0,P|376:104|328:56,1,105
144,80,87820,2,0,L|200:176,1,105,0|0,1:0|0:0,0:0:0:0:
336,304,88294,1,0,0:0:0:0:
