osu file format v14

[General]
AudioFilename: OPMV.mp3
AudioLeadIn: 0
PreviewTime: 50557
Countdown: 0
SampleSet: Normal
StackLeniency: 0.7
Mode: 0
LetterboxInBreaks: 1
WidescreenStoryboard: 0

[Editor]
DistanceSpacing: 0.9
BeatDivisor: 4
GridSize: 8
TimelineZoom: 1.2

[Metadata]
Title:chochocho!Yuruyuri*kapuricho
TitleUnicode:ちょちょちょ!ゆるゆり☆かぷりっちょ!!!
Artist:Nanamori-chu*Goraku-bu
ArtistUnicode:七森中☆ごらく部
Creator:-soramaru-
Version:Insane
Source:ゆるゆり さん☆ハイ!
Tags:Yuruyuri San * hai ! ゆるゆり さん☆ハイ! 七森中☆ごらく部 anime
BeatmapID:797253
BeatmapSetID:363051

[Difficulty]
HPDrainRate:6
CircleSize:4
OverallDifficulty:7
ApproachRate:9
SliderMultiplier:1.4
SliderTickRate:1

[Events]
//Background and Video events
0,0,"yuruyuri!!.jpg",0,0
//Break Periods
//Storyboard Layer 0 (Background)
//Storyboard Layer 1 (Fail)
//Storyboard Layer 2 (Pass)
//Storyboard Layer 3 (Foreground)
//Storyboard Sound Samples

[TimingPoints]
31,315.789473684211,4,1,0,100,1,0
2557,-100,4,1,2,60,0,0
4452,-100,4,1,2,60,0,0
14399,-100,4,1,2,75,0,0
18347,-100,4,1,2,69,0,0
18426,-100,4,1,2,62,0,0
18505,-100,4,1,2,65,0,0
18978,-100,4,1,2,75,0,0
22768,-100,4,1,2,67,0,0
30347,-66.6666666666667,4,1,2,60,0,0
32241,-100,4,1,2,75,0,0
32873,-100,4,1,2,66,0,0
34452,-100,4,1,2,60,0,0
40452,-66.6666666666667,4,1,2,68,0,0
42110,-100,4,1,2,68,0,0
42978,-133.333333333333,4,1,2,49,0,0
47873,-100,4,1,2,64,0,0
49926,-100,4,1,2,61,0,0
50873,-100,4,1,2,65,0,0
51189,-100,4,1,2,67,0,0
51505,-100,4,3,2,66,0,0
51820,-100,4,1,2,66,0,0
52136,-100,4,1,2,70,0,0
52452,-100,4,1,2,74,0,0
52768,-100,4,1,0,77,0,0
53083,-100,4,1,0,70,0,1
55452,-100,4,1,0,70,0,1
56241,-100,4,1,0,60,0,1
56873,-100,4,1,0,64,0,1
57189,-100,4,1,0,66,0,1
57505,-100,4,1,0,69,0,1
57820,-100,4,1,0,70,0,1
58926,-100,4,1,0,73,0,1
60189,-100,4,1,0,70,0,1
60663,-100,4,1,0,57,0,1
60978,-100,4,1,0,64,0,1
61373,-100,4,1,0,72,0,1
62083,-100,4,1,0,52,0,1
62241,-100,4,1,0,72,0,1
64768,-100,4,1,0,70,0,1
65084,-100,4,1,0,73,0,1
65399,-100,4,1,0,77,0,1
65715,-100,4,1,0,80,0,1
66189,-100,4,1,0,75,0,1
68241,-100,4,1,2,75,0,1
70768,-100,4,1,0,75,0,1
71399,-100,4,1,0,63,0,1
72031,-100,4,1,0,80,0,1
72662,-100,4,1,0,80,0,0
73136,-100,4,1,0,60,0,0
82136,-100,4,1,0,60,0,0
82768,-100,4,1,0,70,0,0
83478,-100,4,1,2,80,0,0

[HitObjects]
256,192,663,12,0,2241,2:0:0:0:
192,120,2557,6,0,L|128:96,3,46.6666666666667
376,88,3189,2,0,L|440:88,3,46.6666666666667
184,160,3820,2,0,L|120:176,2,46.6666666666667
256,136,4136,2,0,P|304:96|336:16,2,140
144,112,5084,6,0,L|64:72,2,46.6666666666667
208,152,5400,2,0,P|264:200|304:272,1,140
304,264,5820,1,0,0:0:0:0:
304,264,5925,1,0,0:0:0:0:
400,296,6031,2,0,P|392:248|344:168,1,140
248,80,6583,2,0,L|168:160,1,105
96,256,6978,2,0,P|96:320|144:352,2,105
136,192,7610,6,0,L|112:120,2,46.6666666666667
168,280,7926,2,0,P|240:248|312:184,1,140
328,136,8347,2,0,P|304:120|248:104,1,46.6666666666667
200,80,8557,2,0,P|176:80|64:128,1,140
48,200,8978,2,0,L|104:240,1,46.6666666666667
168,232,9189,2,0,P|208:216|272:144,2,140
112,288,10136,6,0,L|56:280,2,46.6666666666667
200,296,10452,2,0,P|256:280|344:240,1,140
330,247,10872,1,0,0:0:0:0:
330,247,10978,1,0,0:0:0:0:
296,160,11084,2,0,P|224:176|168:232,1,140
200,320,11636,2,0,P|272:328|320:288,1,105
408,200,12031,1,0,0:0:0:0:
368,80,12504,6,0,P|320:80|232:128,1,140,4|0,2:0|1:0,1:0:0:0:
176,200,12978,2,2,L|256:240,1,70,2|2,2:0|2:0,2:0:0:0:
360,272,13294,1,2,2:0:0:0:
360,272,13452,1,0,1:0:0:0:
376,176,13609,2,2,L|296:136,1,70,0|2,1:0|2:0,2:0:0:0:
232,104,13926,5,0,1:0:0:0:
128,96,14083,2,0,P|128:144|160:184,1,70,0|0,1:0|1:0,2:0:0:0:
208,248,14399,1,0,1:0:0:0:
264,176,14557,2,0,P|248:120|224:96,2,70,0|0|0,1:0|1:0|1:0,1:0:0:0:
208,248,15031,6,0,P|240:296|344:312,1,140,4|0,2:0|0:0,0:0:0:0:
432,296,15505,2,2,L|400:208,1,70,2|2,2:0|2:0,2:0:0:0:
360,136,15820,1,0,0:0:0:0:
304,80,15978,1,2,2:0:0:0:
232,56,16136,1,0,0:0:0:0:
160,64,16294,1,2,2:0:0:0:
96,96,16452,2,0,P|128:160|208:208,1,140
168,304,16926,2,0,P|256:264|296:208,1,140
288,64,17557,6,0,P|248:64|144:104,1,140,4|0,2:0|0:0,0:0:0:0:
96,168,18031,1,2,2:0:0:0:
96,168,18189,1,2,2:0:0:0:
192,232,18347,2,0,L|240:160,1,70,2|0,2:0|1:0,1:0:0:0:
312,64,18663,2,0,L|344:144,1,70,0|0,1:0|3:0,3:0:0:0:
368,224,18978,1,0,1:0:0:0:
280,216,19136,6,0,P|248:192|240:152,2,70,2|0|0,2:0|1:0|1:0,3:0:0:0:
392,224,19610,1,0,1:0:0:0:
392,224,19689,1,0,1:0:0:0:
392,224,19768,1,0,1:0:0:0:
416,120,19925,1,0,0:0:0:0:
344,56,20084,2,0,P|288:64|216:120,1,140,4|0,2:0|0:0,0:0:0:0:
168,224,20557,2,2,L|248:208,1,70,2|0,2:0|1:0,2:0:0:0:
336,160,20873,1,2,2:0:0:0:
336,160,21031,1,0,1:0:0:0:
224,88,21188,2,2,L|200:176,1,70,0|0,1:0|1:0,2:0:0:0:
208,288,21505,5,0,0:0:0:0:
208,288,21663,1,0,0:0:0:0:
312,264,21978,2,0,P|264:208|200:184,1,140,0|0,0:0|0:0,2:0:0:0:
64,216,22768,6,0,L|136:176,1,70,6|0,2:0|2:0,2:0:0:0:
136,64,23084,2,0,L|216:96,1,70,0|0,2:0|2:0,2:0:0:0:
200,89,23320,1,0,2:0:0:0:
200,89,23399,1,0,2:0:0:0:
272,176,23557,1,0,2:0:0:0:
256,272,23715,2,0,L|184:224,1,70,0|0,2:0|2:0,2:0:0:0:
120,152,24031,6,0,L|208:128,1,70,0|0,2:0|2:0,2:0:0:0:
312,96,24347,1,0,2:0:0:0:
400,144,24505,1,0,2:0:0:0:
368,240,24663,2,0,L|288:272,1,70,0|0,2:0|2:0,2:0:0:0:
152,240,24978,2,0,L|240:208,1,70,0|0,2:0|2:0,2:0:0:0:
304,184,25294,5,2,2:0:0:0:
304,184,25452,1,0,2:0:0:0:
400,128,25610,1,2,2:0:0:0:
400,128,25768,1,0,2:0:0:0:
312,56,25926,2,0,P|248:56|216:72,1,70,0|0,2:0|2:0,2:0:0:0:
176,112,26163,2,0,L|288:184,1,105,2|0,2:0|2:0,2:0:0:0:
359,247,26557,6,0,P|351:303|327:319,1,70,2|0,2:0|2:0,2:0:0:0:
336,312,26794,1,2,2:0:0:0:
328,312,26873,1,0,2:0:0:0:
240,288,27031,1,0,2:0:0:0:
144,232,27189,2,0,P|160:176|192:152,1,70,2|0,2:0|2:0,2:0:0:0:
304,128,27505,2,0,P|288:184|256:208,1,70,2|0,2:0|2:0,2:0:0:0:
184,168,27820,5,4,2:0:0:0:
264,88,27978,1,0,2:0:0:0:
264,88,28057,1,0,2:0:0:0:
264,88,28136,1,0,2:0:0:0:
384,72,28294,1,0,2:0:0:0:
368,160,28452,2,0,L|320:216,1,70,0|0,2:0|2:0,2:0:0:0:
384,264,28768,2,0,L|312:296,1,70,0|0,2:0|2:0,2:0:0:0:
240,304,29084,6,0,L|208:224,1,70,0|0,2:0|2:0,2:0:0:0:
216,224,29320,1,0,2:0:0:0:
216,224,29399,1,0,2:0:0:0:
208,104,29557,1,0,2:0:0:0:
104,144,29715,2,0,L|160:208,1,70,0|0,2:0|1:0,2:0:0:0:
80,296,30031,2,0,L|168:288,1,70,0|0,1:0|1:0,2:0:0:0:
272,272,30346,5,0,0:0:0:0:
272,272,30504,1,0,0:0:0:0:
368,240,30663,2,0,P|336:192|264:144,1,105.000004005432,4|0,2:0|2:0,0:0:0:0:
168,104,30978,1,0,0:0:0:0:
168,104,31136,1,0,0:0:0:0:
112,248,31294,2,0,P|176:256|248:232,1,105.000004005432,4|0,3:0|2:0,2:0:0:0:
312,168,31609,5,0,0:0:0:0:
312,168,31767,1,0,0:0:0:0:
432,88,31926,2,0,P|368:72|320:72,1,105.000004005432
208,120,32241,2,0,P|216:168|240:200,1,70
248,200,32478,1,0,0:0:0:0:
280,208,32558,2,0,P|328:184|344:144,1,70
368,56,32873,6,0,P|312:56|272:64,1,70,4|0,2:0|2:0,3:0:0:0:
224,144,33189,2,2,P|296:160|320:152,1,70,0|0,1:0|2:0,2:0:0:0:
408,128,33504,1,0,2:0:0:0:
408,128,33662,1,0,2:0:0:0:
464,208,33821,2,2,L|392:240,1,70,0|0,1:0|2:0,2:0:0:0:
264,288,34136,5,0,2:0:0:0:
336,184,34294,1,0,2:0:0:0:
384,320,34452,2,0,P|336:304|288:288,1,70,0|0,1:0|2:0,1:0:0:0:
317,297,34689,1,0,2:0:0:0:
317,297,34767,1,0,2:0:0:0:
208,256,34926,2,0,L|256:184,1,70,0|0,2:0|1:0,2:0:0:0:
320,96,35241,1,0,2:0:0:0:
224,64,35399,5,0,2:0:0:0:
264,112,35557,1,0,2:0:0:0:
288,168,35715,1,0,1:0:0:0:
296,232,35872,1,0,2:0:0:0:
272,288,36031,2,0,P|224:296|184:272,1,70,2|0,2:0|2:0,2:0:0:0:
144,240,36268,2,0,L|192:144,1,105,2|0,2:0|3:0,2:0:0:0:
272,72,36662,5,2,2:0:0:0:
336,144,36821,2,0,P|328:200|272:272,1,140,2|0,2:0|2:0,2:0:0:0:
144,248,37294,2,0,L|192:168,1,70,2|0,2:0|2:0,2:0:0:0:
312,64,37610,2,0,L|264:136,1,70,2|0,2:0|2:0,2:0:0:0:
256,144,37846,1,0,3:0:0:0:
232,168,37926,6,0,P|184:192|144:192,1,70,4|0,2:0|2:0,2:0:0:0:
40,144,38242,2,0,P|96:104|120:96,1,70,0|0,1:0|2:0,2:0:0:0:
192,88,38557,1,2,2:0:0:0:
192,192,38715,1,0,2:0:0:0:
96,192,38872,1,0,1:0:0:0:
96,88,39030,1,0,2:0:0:0:
184,40,39189,6,0,L|240:104,1,70,2|0,2:0|2:0,2:0:0:0:
288,200,39505,2,0,L|192:192,1,70,0|0,1:0|2:0,2:0:0:0:
112,176,39820,1,2,2:0:0:0:
72,72,39978,1,0,3:0:0:0:
72,72,40057,1,0,1:0:0:0:
72,72,40136,1,0,1:0:0:0:
184,112,40294,1,0,1:0:0:0:
280,168,40451,5,0,0:0:0:0:
280,168,40609,1,0,0:0:0:0:
368,240,40768,2,0,P|336:288|272:320,1,105.000004005432,4|0,2:0|2:0,0:0:0:0:
128,336,41083,1,0,0:0:0:0:
128,336,41241,1,0,0:0:0:0:
120,168,41400,2,0,P|208:240|216:264,1,105.000004005432,4|0,3:0|2:0,0:0:0:0:
264,304,41715,5,0,0:0:0:0:
344,352,41872,1,0,0:0:0:0:
416,288,42030,1,0,0:0:0:0:
336,272,42189,2,0,P|319:221|256:147,1,140,0|0,0:0|1:0,0:0:0:0:
168,104,42662,1,0,1:0:0:0:
112,232,42979,6,0,P|176:248|232:248,1,105.000004005432,4|0,2:0|2:0,2:0:0:0:
336,240,43609,1,8,2:0:0:0:
328,144,43926,2,0,P|256:160|224:192,1,105.000004005432,2|0,2:0|2:0,2:0:0:0:
216,288,44557,2,0,P|288:288|320:256,1,105.000004005432,0|8,2:0|2:0,2:0:0:0:
336,128,45188,1,0,2:0:0:0:
336,128,45347,1,0,2:0:0:0:
336,128,45505,6,0,P|285:133|234:173,1,105.000004005432,4|0,2:0|2:0,2:0:0:0:
208,296,46136,1,8,2:0:0:0:
344,216,46452,2,0,P|288:192|232:200,1,105.000004005432,2|0,2:0|2:0,2:0:0:0:
144,224,46926,2,0,L|192:280,2,52.5000020027161,0|0|0,2:0|2:0|2:0,2:0:0:0:
112,144,47400,2,0,P|144:88|192:64,1,105.000004005432,2|0,2:0|2:0,2:0:0:0:
320,80,48030,5,4,2:0:0:0:
424,144,48268,2,4,L|336:248,1,105,4|4,2:0|2:0,2:0:0:0:
272,304,48663,1,4,2:0:0:0:
152,240,48900,2,4,L|192:144,1,105,4|4,2:0|2:0,2:0:0:0:
304,48,49294,5,4,2:0:0:0:
352,160,49610,2,0,L|272:176,1,70,2|0,2:0|2:0,2:0:0:0:
152,184,49925,1,8,2:0:0:0:
48,128,50083,1,0,1:0:0:0:
48,128,50162,1,0,1:0:0:0:
48,128,50241,1,0,1:0:0:0:
168,56,50400,6,2,P|256:96|288:152,1,140,2|0,2:0|2:0,2:0:0:0:
320,232,50872,1,0,3:0:0:0:
320,232,51030,1,0,3:0:0:0:
200,288,51189,2,0,L|128:248,1,70,0|0,3:0|3:0,3:0:0:0:
80,120,51505,2,0,L|160:160,1,70,0|0,3:0|3:0,3:0:0:0:
232,184,51821,6,8,L|288:200,3,35,8|8|8|8,3:0|3:0|3:0|3:0,3:0:0:0:
368,192,52137,2,8,L|416:160,3,35,8|8|8|8,3:0|3:0|3:0|3:0,3:0:0:0:
456,88,52452,2,0,L|424:56,3,35,0|0|0|0,1:0|1:0|1:0|1:0,1:0:0:0:
408,48,52767,1,0,0:0:0:0:
384,40,52846,1,0,0:0:0:0:
360,40,52926,1,0,0:0:0:0:
336,48,53004,1,0,0:0:0:0:
312,64,53084,2,0,P|256:120|208:200,1,140,4|0,2:0|1:0,0:0:0:0:
200,248,53557,5,0,2:0:0:0:
280,288,53716,2,0,L|360:232,1,70
408,144,54031,2,0,L|312:168,1,70
240,184,54346,1,0,0:0:0:0:
128,184,54504,1,0,3:0:0:0:
128,176,54583,1,0,0:0:0:0:
128,168,54663,2,0,P|152:112|184:88,1,70
248,48,54978,2,0,L|328:88,1,70,2|0,2:0|0:0,0:0:0:0:
416,200,55294,2,0,L|328:232,1,70,2|0,2:0|0:0,0:0:0:0:
240,248,55610,6,0,P|168:208|128:136,1,140,4|0,2:0|0:0,0:0:0:0:
112,64,56083,2,0,L|192:56,1,70,0|4,1:0|2:0,0:0:0:0:
288,88,56399,1,0,1:0:0:0:
288,88,56478,1,0,3:0:0:0:
288,88,56558,2,0,L|240:176,1,70,0|0,1:0|0:0,0:0:0:0:
208,240,56873,6,0,L|280:240,1,70,4|0,2:0|1:0,2:0:0:0:
400,144,57189,2,0,L|312:144,1,70,4|0,2:0|1:0,2:0:0:0:
184,192,57505,2,0,L|264:240,1,70,4|8,2:0|2:0,2:0:0:0:
400,200,57821,2,0,L|328:152,1,70,12|0,2:0|1:0,2:0:0:0:
240,88,58137,6,0,P|200:72|160:72,1,70,4|0,2:0|0:0,0:0:0:0:
160,72,58372,1,0,0:0:0:0:
152,80,58451,1,0,0:0:0:0:
80,176,58609,1,0,0:0:0:0:
232,312,58926,2,4,L|296:240,1,70,4|4,2:0|2:0,2:0:0:0:
344,72,59399,6,0,L|392:144,1,70,0|0,0:0|1:0,0:0:0:0:
392,144,59636,1,0,1:0:0:0:
400,160,59715,1,0,0:0:0:0:
432,264,59872,1,0,0:0:0:0:
208,320,60189,2,0,L|168:248,1,70,4|4,2:0|2:0,0:0:0:0:
128,80,60663,6,0,P|176:64|224:64,1,70
288,168,60979,2,0,P|240:184|192:184,1,70,4|0,2:0|0:0,0:0:0:0:
88,152,61294,1,0,0:0:0:0:
224,80,61451,1,0,0:0:0:0:
152,216,61609,1,4,2:0:0:0:
88,80,61768,2,0,P|128:64|176:80,1,70,4|0,2:0|0:0,0:0:0:0:
320,128,62084,6,0,L|248:168,1,70,10|0,2:0|0:0,0:0:0:0:
296,256,62399,1,0,1:0:0:0:
296,256,62478,1,0,3:0:0:0:
296,256,62557,1,4,2:0:0:0:
336,344,62715,1,0,0:0:0:0:
336,344,62794,1,0,3:0:0:0:
336,344,62873,2,0,P|400:312|448:240,1,140,4|4,2:0|2:0,0:0:0:0:
432,144,63346,5,0,1:0:0:0:
352,56,63505,2,0,P|288:48|256:64,1,70,4|0,1:0|1:0,1:0:0:0:
176,128,63820,1,2,2:0:0:0:
176,128,63978,1,0,1:0:0:0:
176,240,64137,2,0,L|248:240,1,70,0|0,1:0|1:0,2:0:0:0:
384,192,64452,6,4,L|312:144,1,70,4|0,2:0|1:0,2:0:0:0:
192,56,64768,2,4,L|240:128,1,70,4|0,2:0|1:0,2:0:0:0:
288,200,65083,1,4,2:0:0:0:
352,280,65241,1,8,2:0:0:0:
352,280,65320,1,0,2:0:0:0:
352,280,65399,2,0,L|432:264,1,70,12|0,2:0|1:0,2:0:0:0:
480,184,65716,6,0,P|434:138|333:111,1,140,4|0,2:0|0:0,0:0:0:0:
240,104,66188,1,0,0:0:0:0:
120,144,66347,2,0,L|184:192,1,70,4|0,2:0|1:0,2:0:0:0:
88,256,66663,2,0,L|184:256,1,70
280,256,66979,6,0,L|312:192,1,70,4|0,2:0|2:0,2:0:0:0:
336,80,67295,2,0,L|256:72,1,70,4|0,2:0|2:0,2:0:0:0:
128,152,67610,2,0,L|216:200,1,70,4|8,2:0|2:0,2:0:0:0:
408,216,67926,2,0,L|336:160,1,70,12|0,2:0|0:0,0:0:0:0:
248,96,68241,5,0,0:0:0:0:
176,240,68399,1,0,0:0:0:0:
336,224,68557,1,4,3:0:0:0:
192,80,68872,5,0,0:0:0:0:
368,160,69030,1,0,0:0:0:0:
144,168,69188,1,4,3:0:0:0:
352,48,69504,5,0,0:0:0:0:
208,144,69662,1,0,0:0:0:0:
296,256,69820,1,4,3:0:0:0:
376,224,69978,2,0,P|312:160|264:144,1,140,4|0,2:0|0:0,0:0:0:0:
184,232,70452,2,0,L|256:280,1,70,0|0,1:0|0:0,0:0:0:0:
400,288,70768,6,0,P|384:224|368:200,1,70,4|0,2:0|1:0,1:0:0:0:
264,112,71084,2,0,P|256:152|272:192,1,70,8|0,3:0|1:0,1:0:0:0:
432,176,71399,2,0,P|400:144|352:144,1,70,4|0,2:0|1:0,1:0:0:0:
272,264,71715,2,0,P|304:280|360:280,1,70,0|0,1:0|1:0,1:0:0:0:
464,216,72031,1,2,2:0:0:0:
336,112,72189,1,2,2:0:0:0:
224,256,72347,1,2,2:0:0:0:
408,176,72504,1,2,2:0:0:0:
216,128,72662,1,6,2:0:0:0:
64,176,73136,6,0,P|64:224|112:312,1,140,4|0,2:0|1:0,1:0:0:0:
208,344,73609,2,2,L|248:264,1,70,2|2,2:0|2:0,2:0:0:0:
280,192,73926,1,2,2:0:0:0:
280,192,74083,1,0,1:0:0:0:
200,144,74242,2,2,L|160:224,1,70,0|2,1:0|2:0,2:0:0:0:
136,288,74557,5,0,1:0:0:0:
80,208,74716,2,0,P|80:160|112:120,1,70,0|0,1:0|1:0,2:0:0:0:
160,72,75031,1,0,1:0:0:0:
240,136,75189,2,0,P|224:192|200:216,2,70
280,48,75663,6,0,P|328:80|344:184,1,140,4|0,2:0|0:0,0:0:0:0:
336,256,76137,2,2,L|304:168,1,70,2|2,2:0|2:0,2:0:0:0:
272,112,76452,1,0,0:0:0:0:
216,80,76610,1,2,2:0:0:0:
152,72,76768,1,0,0:0:0:0:
88,80,76926,1,2,2:0:0:0:
40,120,77084,2,0,P|72:184|152:232,1,140
168,320,77558,2,0,P|256:280|296:224,1,140
288,64,78189,6,0,P|248:64|144:104,1,140,4|0,2:0|0:0,0:0:0:0:
96,168,78663,1,2,2:0:0:0:
96,168,78821,1,2,2:0:0:0:
192,232,78978,2,0,L|240:160,1,70,2|0,2:0|1:0,1:0:0:0:
312,64,79294,2,0,L|344:144,1,70,0|0,1:0|3:0,3:0:0:0:
368,224,79610,1,0,1:0:0:0:
432,208,79768,6,0,P|464:184|472:144,2,70,2|0|0,2:0|1:0|1:0,3:0:0:0:
344,224,80241,1,0,1:0:0:0:
344,224,80320,1,0,1:0:0:0:
344,224,80399,1,0,1:0:0:0:
256,160,80557,1,0,0:0:0:0:
368,96,80715,6,0,P|360:152|304:224,1,140,4|0,2:0|0:0,0:0:0:0:
216,248,81189,2,2,L|200:168,1,70,2|0,2:0|1:0,2:0:0:0:
208,48,81505,1,0,0:0:0:0:
208,48,81663,1,0,0:0:0:0:
352,48,81820,2,0,L|304:112,1,70
184,184,82136,6,0,L|120:192,2,46.6666666666667,0|0|8,1:0|1:0|3:0,1:0:0:0:
256,136,82452,2,0,L|320:128,2,46.6666666666667,0|0|8,1:0|1:0|3:0,1:0:0:0:
176,200,82768,2,0,L|184:264,2,46.6666666666667,0|0|8,1:0|1:0|3:0,1:0:0:0:
208,120,83084,2,0,L|200:56,2,46.6666666666667,0|0|8,1:0|1:0|3:0,1:0:0:0:
224,184,83399,5,0,0:0:0:0:
224,184,83505,1,0,0:0:0:0:
224,184,83610,1,0,0:0:0:0:
224,184,83715,1,0,0:0:0:0:
376,160,84031,1,0,0:0:0:0:
376,160,84136,1,0,0:0:0:0:
376,160,84241,1,0,0:0:0:0:
376,160,84347,1,0,0:0:0:0:
240,80,84663,5,0,0:0:0:0:
240,80,84767,1,0,0:0:0:0:
240,80,84874,1,0,0:0:0:0:
240,80,84979,1,0,0:0:0:0:
112,128,85294,2,0,P|136:168|232:200,1,140,0|0,0:0|0:0,2:0:0:0:
392,144,85926,5,0,0:0:0:0:
392,144,86032,1,0,0:0:0:0:
392,144,86137,1,0,0:0:0:0:
392,144,86242,1,0,0:0:0:0:
248,80,86557,1,0,0:0:0:0:
248,80,86663,1,0,0:0:0:0:
248,80,86768,1,0,0:0:0:0:
248,80,86873,1,0,0:0:0:0:
128,128,87189,6,0,P|80:136|32:104,2,105
168,224,87820,2,0,P|232:240|288:208,2,105
