osu file format v14

[General]
AudioFilename: audio.mp3
AudioLeadIn: 0
PreviewTime: 99330
Countdown: 0
SampleSet: None
StackLeniency: 0.6
Mode: 0
LetterboxInBreaks: 0
WidescreenStoryboard: 1

[Editor]
Bookmarks: 1475,20142,25580,40125,54670,83761,91034,100125,131034,145580,174670,181943,191034,221943,236489,252852,285580,300203,303800,308600
DistanceSpacing: 1.1
BeatDivisor: 4
GridSize: 4
TimelineZoom: 0.9

[Metadata]
Title:Kimi ga Kureta Shiny Story
TitleUnicode:きみがくれたシャイニーストーリー
Artist:Nanamori-chu*Goraku-bu
ArtistUnicode:七森中☆ごらく部
Creator:vekt0r
Version:hs
Source:ゆるゆり さん☆ハイ!
Tags:yuru yuri san hai! yuruyuri san*hai! season three 3 acchu-ma seishun single akaza akari mikami shiori toshinou kyouko toshino kyoko ootsubo yuka funami yui tsuda minami yoshikawa chinatsu ookubo rumi
BeatmapID:1540716
BeatmapSetID:697810

[Difficulty]
HPDrainRate:6
CircleSize:4
OverallDifficulty:7.5
ApproachRate:8
SliderMultiplier:1.4
SliderTickRate:1

[Events]
//Background and Video events
0,0,"yuru yuri bg.jpg",0,0
//Break Periods
2,20342,24830
//Storyboard Layer 0 (Background)
//Storyboard Layer 1 (Fail)
//Storyboard Layer 2 (Pass)
//Storyboard Layer 3 (Foreground)
//Storyboard Sound Samples

[TimingPoints]
-1191,666.666666666667,4,2,2,18,1,0
6642,-100,4,2,2,5,0,0
6809,-100,4,2,2,18,0,0
24671,454.545454545455,4,2,2,30,1,0
25580,454.545454545455,4,2,2,40,1,0
32852,-100,4,2,1,40,0,0
39670,-100,4,2,1,60,0,0
40011,-100,4,2,1,5,0,0
40125,-100,4,2,1,50,0,0
54670,-100,4,2,1,35,0,0
69216,-100,4,2,1,40,0,0
83761,-100,4,2,1,50,0,0
84330,-100,4,2,1,5,0,0
84443,-100,4,2,1,50,0,0
86148,-100,4,2,1,5,0,0
86261,-100,4,2,1,50,0,0
86943,-100,4,2,1,60,0,0
87398,-100,4,2,1,50,0,0
87966,-100,4,2,1,5,0,0
88080,-100,4,2,1,50,0,0
89784,-100,4,2,1,5,0,0
89898,-100,4,2,1,50,0,0
98307,-100,4,2,1,70,0,0
100125,-100,4,2,1,60,0,1
103193,-100,4,2,1,5,0,1
103307,-100,4,2,1,60,0,1
110466,-100,4,2,1,5,0,1
110580,-100,4,2,1,60,0,1
114443,-100,4,2,1,60,0,0
114670,-100,4,2,1,60,0,1
117739,-100,4,2,1,5,0,1
117852,-100,4,2,1,60,0,1
125011,-100,4,2,1,5,0,1
125125,-100,4,2,1,60,0,1
128648,-100,4,2,1,5,0,1
128761,-100,4,2,1,60,0,1
129216,-100,4,2,1,60,0,0
131034,-100,4,2,1,50,0,1
132852,-100,4,2,1,50,0,0
145580,-100,4,2,1,30,0,0
152511,-100,4,2,1,5,0,0
152625,-100,4,2,1,30,0,0
152852,-100,4,2,1,35,0,0
160125,-100,4,2,1,40,0,0
174670,-100,4,2,1,50,0,0
175239,-100,4,2,1,5,0,0
175352,-100,4,2,1,50,0,0
177057,-100,4,2,1,5,0,0
177170,-100,4,2,1,50,0,0
177852,-100,4,2,1,60,0,0
178307,-100,4,2,1,50,0,0
178875,-100,4,2,1,5,0,0
178989,-100,4,2,1,50,0,0
180693,-100,4,2,1,5,0,0
180807,-100,4,2,1,50,0,0
189216,-100,4,2,1,70,0,0
191034,-100,4,2,1,60,0,1
194102,-100,4,2,1,5,0,1
194216,-100,4,2,1,60,0,1
201375,-100,4,2,1,5,0,1
201489,-100,4,2,1,60,0,1
205352,-100,4,2,1,60,0,0
205580,-100,4,2,1,60,0,1
208648,-100,4,2,1,5,0,1
208761,-100,4,2,1,60,0,1
215920,-100,4,2,1,5,0,1
216034,-100,4,2,1,60,0,1
219557,-100,4,2,1,5,0,1
219670,-100,4,2,1,60,0,1
220125,-100,4,2,1,60,0,0
221943,-100,4,2,1,50,0,1
223761,-100,4,2,1,50,0,0
226830,-100,4,2,1,5,0,0
226943,-100,4,2,1,50,0,0
247284,-100,4,2,1,5,0,0
247398,-100,4,2,1,50,0,0
252852,-100,4,2,2,40,0,0
260125,-100,4,2,1,40,0,0
265580,-100,4,2,2,50,0,0
265693,-100,4,2,2,30,0,0
266034,-100,4,2,2,50,0,0
266148,-100,4,2,2,40,0,0
266489,-100,4,2,2,60,0,0
266943,-100,4,2,2,70,0,0
267398,-100,4,2,2,80,0,0
269216,-100,4,2,1,60,0,1
272284,-100,4,2,1,5,0,1
272398,-100,4,2,1,60,0,1
279557,-100,4,2,1,5,0,1
279670,-100,4,2,1,60,0,1
283761,-100,4,2,1,70,0,0
284670,-100,4,2,1,80,0,0
285580,-100,4,2,1,90,0,1
286034,-100,4,2,1,50,0,1
287398,-100,4,2,1,50,0,0
299670,512.820512820513,4,2,1,50,1,0
299926,555.555555555556,4,2,1,50,1,0
300203,566.037735849057,4,2,1,50,1,0
300486,594.059405940594,4,2,2,50,1,0
300783,714.285714285714,4,2,2,50,1,0
301140,750,4,2,2,50,1,0
301515,833.333333333333,4,2,2,50,1,0
301931,882.352941176471,4,2,2,40,1,0
302372,1428.57142857143,4,2,2,40,1,0
303800,1200,4,2,2,35,1,0
308600,-100,4,2,2,5,0,0

[HitObjects]
256,192,1475,5,2,0:0:0:0:
256,192,2809,1,2,0:0:0:0:
256,192,4142,5,2,0:0:0:0:
256,192,5475,1,2,0:0:0:0:
256,192,6809,5,2,0:0:0:0:
256,192,8142,1,2,0:0:0:0:
256,192,9475,5,2,0:0:0:0:
256,192,10809,1,2,0:0:0:0:
256,192,11475,1,2,0:0:0:0:
256,192,12142,5,2,0:0:0:0:
256,192,13475,1,2,0:0:0:0:
256,192,14809,5,2,0:0:0:0:
256,192,16142,1,2,0:0:0:0:
256,192,17475,5,2,0:0:0:0:
256,192,18475,1,2,0:0:0:0:
256,192,19475,1,2,0:0:0:0:
256,192,20142,5,2,0:0:0:0:
256,192,25580,5,2,0:0:0:0:
256,192,26489,1,2,0:0:0:0:
256,192,27398,5,2,0:0:0:0:
256,192,28307,1,2,0:0:0:0:
256,192,29216,5,2,0:0:0:0:
256,192,30125,1,2,0:0:0:0:
256,192,31034,5,2,0:0:0:0:
256,192,31943,1,2,0:0:0:0:
256,192,32852,5,4,0:0:0:0:
256,192,33307,1,4,0:0:0:0:
256,192,33761,1,4,0:0:0:0:
256,192,34216,1,4,0:0:0:0:
256,192,34670,5,4,0:0:0:0:
256,192,35125,1,4,0:0:0:0:
256,192,35580,1,4,0:0:0:0:
256,192,36034,1,4,0:0:0:0:
256,192,36489,5,4,0:0:0:0:
256,192,36943,1,4,0:0:0:0:
256,192,37398,1,4,0:0:0:0:
256,192,37852,1,4,0:0:0:0:
256,192,38307,5,4,0:0:0:0:
256,192,38761,1,4,0:0:0:0:
256,192,39216,1,4,0:0:0:0:
256,192,39670,1,12,0:1:0:0:
256,192,40125,5,6,0:1:0:0:
256,192,40580,1,12,0:0:0:0:
256,192,41034,1,6,0:0:0:0:
256,192,41489,1,12,0:0:0:0:
256,192,41943,5,6,0:0:0:0:
256,192,42398,1,12,0:0:0:0:
256,192,42852,1,6,0:0:0:0:
256,192,43307,1,12,0:0:0:0:
256,192,43761,5,6,0:0:0:0:
256,192,44216,1,12,0:0:0:0:
256,192,44670,1,6,0:0:0:0:
256,192,45125,1,12,0:0:0:0:
256,192,45580,5,6,0:0:0:0:
256,192,46034,1,12,0:0:0:0:
256,192,46489,1,6,0:0:0:0:
256,192,46943,1,14,0:0:0:0:
256,192,47170,1,4,0:0:0:0:
256,192,47398,5,6,0:0:0:0:
256,192,47852,1,12,0:0:0:0:
256,192,48307,1,6,0:0:0:0:
256,192,48761,1,12,0:0:0:0:
256,192,49216,5,6,0:0:0:0:
256,192,49670,1,12,0:0:0:0:
256,192,50125,1,6,0:0:0:0:
256,192,50580,1,12,0:0:0:0:
256,192,51034,5,6,0:0:0:0:
256,192,51489,1,12,0:0:0:0:
256,192,51943,1,6,0:0:0:0:
256,192,52398,1,12,0:0:0:0:
256,192,52852,5,6,0:0:0:0:
256,192,53307,1,12,0:0:0:0:
256,192,53761,1,4,0:0:0:0:
256,192,54102,1,4,0:0:0:0:
256,192,54216,1,12,0:0:0:0:
256,192,54443,1,4,0:0:0:0:
256,192,54670,5,6,0:1:0:0:
256,192,55125,1,4,0:0:0:0:
256,192,55580,1,4,0:0:0:0:
256,192,56034,1,4,0:0:0:0:
256,192,56489,5,6,0:0:0:0:
256,192,56943,1,4,0:0:0:0:
256,192,57398,1,4,0:0:0:0:
256,192,57852,1,4,0:0:0:0:
256,192,58307,5,6,0:0:0:0:
256,192,58761,1,4,0:0:0:0:
256,192,59216,1,4,0:0:0:0:
256,192,59670,1,4,0:0:0:0:
256,192,60125,5,6,0:0:0:0:
256,192,60580,1,4,0:0:0:0:
256,192,61034,1,4,0:0:0:0:
256,192,61261,1,2,0:0:0:0:
256,192,61489,1,4,0:0:0:0:
256,192,61943,5,6,0:0:0:0:
256,192,62398,1,4,0:0:0:0:
256,192,62852,1,4,0:0:0:0:
256,192,63307,1,4,0:0:0:0:
256,192,63761,5,6,0:0:0:0:
256,192,64216,1,4,0:0:0:0:
256,192,64670,1,4,0:0:0:0:
256,192,65125,1,4,0:0:0:0:
256,192,65580,5,6,0:0:0:0:
256,192,66034,1,4,0:0:0:0:
256,192,66489,1,4,0:0:0:0:
256,192,66943,1,4,0:0:0:0:
256,192,67398,5,6,0:0:0:0:
256,192,67852,1,4,0:0:0:0:
256,192,68307,1,4,0:0:0:0:
256,192,68534,1,2,0:0:0:0:
256,192,68761,1,4,0:0:0:0:
256,192,69216,5,6,0:1:0:0:
256,192,69670,1,12,0:0:0:0:
256,192,69898,1,2,0:0:0:0:
256,192,70125,1,4,0:0:0:0:
256,192,70580,1,12,0:0:0:0:
256,192,71034,5,6,0:0:0:0:
256,192,71489,1,12,0:0:0:0:
256,192,71716,1,2,0:0:0:0:
256,192,71943,1,4,0:0:0:0:
256,192,72398,1,12,0:0:0:0:
256,192,72852,5,6,0:0:0:0:
256,192,73307,1,12,0:0:0:0:
256,192,73761,1,6,0:0:0:0:
256,192,74216,1,12,0:0:0:0:
256,192,74670,5,6,0:0:0:0:
256,192,75125,1,12,0:0:0:0:
256,192,75580,1,4,0:0:0:0:
256,192,75807,1,2,0:0:0:0:
256,192,76034,1,12,0:0:0:0:
256,192,76489,5,6,0:0:0:0:
256,192,76943,1,12,0:0:0:0:
256,192,77170,1,2,0:0:0:0:
256,192,77398,1,4,0:0:0:0:
256,192,77852,1,12,0:0:0:0:
256,192,78307,5,6,0:0:0:0:
256,192,78761,1,12,0:0:0:0:
256,192,78989,1,2,0:0:0:0:
256,192,79216,1,4,0:0:0:0:
256,192,79670,1,12,0:0:0:0:
256,192,80125,5,6,0:0:0:0:
256,192,80580,1,12,0:0:0:0:
256,192,81034,1,6,0:0:0:0:
256,192,81489,1,12,0:0:0:0:
256,192,81943,5,6,0:0:0:0:
256,192,82398,1,12,0:0:0:0:
256,192,82852,1,4,0:0:0:0:
256,192,83080,1,2,0:0:0:0:
256,192,83307,1,12,0:0:0:0:
256,192,83534,1,4,0:0:0:0:
256,192,83761,5,6,0:0:0:0:
256,192,84443,1,4,0:0:0:0:
256,192,84670,1,4,0:0:0:0:
256,192,85580,5,2,0:0:0:0:
256,192,85807,1,4,0:0:0:0:
256,192,86261,1,4,0:0:0:0:
256,192,86489,1,4,0:0:0:0:
256,192,86943,1,8,0:0:0:0:
256,192,87398,5,6,0:0:0:0:
256,192,88080,1,4,0:0:0:0:
256,192,88307,1,4,0:0:0:0:
256,192,89216,5,2,0:0:0:0:
256,192,89443,1,4,0:0:0:0:
256,192,89898,1,4,0:0:0:0:
256,192,90125,1,4,0:0:0:0:
256,192,90580,1,14,0:0:0:0:
256,192,91034,5,6,0:0:0:0:
256,192,91489,1,12,0:0:0:0:
256,192,91943,1,6,0:0:0:0:
256,192,92398,1,12,0:0:0:0:
256,192,92852,5,6,0:0:0:0:
256,192,93307,1,12,0:0:0:0:
256,192,93761,1,6,0:0:0:0:
256,192,94216,1,14,0:0:0:0:
256,192,94670,5,6,0:0:0:0:
256,192,95125,1,12,0:0:0:0:
256,192,95580,1,4,0:0:0:0:
256,192,96034,1,12,0:0:0:0:
256,192,96489,5,6,0:0:0:0:
256,192,96943,1,12,0:0:0:0:
256,192,97398,1,4,0:0:0:0:
256,192,97852,1,14,0:0:0:0:
256,192,98307,5,6,0:0:0:0:
256,192,98534,1,6,0:0:0:0:
256,192,98761,1,6,0:0:0:0:
256,192,100125,5,6,0:0:0:0:
256,192,100580,1,12,0:0:0:0:
256,192,101034,1,4,0:0:0:0:
256,192,101489,1,14,0:0:0:0:
256,192,101943,5,6,0:0:0:0:
256,192,102398,1,12,0:0:0:0:
256,192,102852,1,6,0:0:0:0:
256,192,103307,1,14,0:0:0:0:
256,192,103761,5,6,0:0:0:0:
256,192,104216,1,12,0:0:0:0:
256,192,104670,1,4,0:0:0:0:
256,192,105125,1,14,0:0:0:0:
256,192,105580,5,6,0:0:0:0:
256,192,106034,1,12,0:0:0:0:
256,192,106489,1,6,0:0:0:0:
256,192,106943,1,14,0:0:0:0:
256,192,107398,5,6,0:0:0:0:
256,192,107852,1,12,0:0:0:0:
256,192,108307,1,4,0:0:0:0:
256,192,108761,1,14,0:0:0:0:
256,192,109216,5,6,0:0:0:0:
256,192,109670,1,12,0:0:0:0:
256,192,110125,1,6,0:0:0:0:
256,192,110580,1,14,0:0:0:0:
256,192,111034,5,6,0:0:0:0:
256,192,111489,1,12,0:0:0:0:
256,192,111943,1,6,0:0:0:0:
256,192,112398,1,12,0:0:0:0:
256,192,112852,5,6,0:0:0:0:
256,192,113307,1,14,0:0:0:0:
256,192,113534,1,2,0:0:0:0:
256,192,113761,1,4,0:0:0:0:
256,192,114216,1,14,0:0:0:0:
256,192,114443,1,4,0:0:0:0:
256,192,114670,5,6,0:0:0:0:
256,192,115125,1,12,0:0:0:0:
256,192,115580,1,4,0:0:0:0:
256,192,116034,1,14,0:0:0:0:
256,192,116489,5,6,0:0:0:0:
256,192,116943,1,12,0:0:0:0:
256,192,117398,1,6,0:0:0:0:
256,192,117852,1,14,0:0:0:0:
256,192,118307,5,6,0:0:0:0:
256,192,118761,1,12,0:0:0:0:
256,192,119216,1,4,0:0:0:0:
256,192,119670,1,14,0:0:0:0:
256,192,120125,5,6,0:0:0:0:
256,192,120580,1,12,0:0:0:0:
256,192,121034,1,6,0:0:0:0:
256,192,121489,1,14,0:0:0:0:
256,192,121943,5,6,0:0:0:0:
256,192,122398,1,12,0:0:0:0:
256,192,122852,1,4,0:0:0:0:
256,192,123307,1,14,0:0:0:0:
256,192,123761,5,6,0:0:0:0:
256,192,124216,1,12,0:0:0:0:
256,192,124670,1,6,0:0:0:0:
256,192,125125,1,14,0:0:0:0:
256,192,125580,5,6,0:0:0:0:
256,192,126034,1,12,0:0:0:0:
256,192,126489,1,6,0:0:0:0:
256,192,126943,1,14,0:0:0:0:
256,192,127398,5,6,0:0:0:0:
256,192,127852,1,12,0:0:0:0:
256,192,128307,1,6,0:0:0:0:
256,192,128761,1,14,0:0:0:0:
256,192,128989,1,4,0:0:0:0:
256,192,129216,5,6,0:0:0:0:
256,192,130125,1,6,0:0:0:0:
256,192,131034,5,6,0:1:0:0:
256,192,131489,1,12,0:0:0:0:
256,192,131943,1,6,0:0:0:0:
256,192,132398,1,12,0:0:0:0:
256,192,132852,5,6,0:0:0:0:
256,192,133307,1,12,0:0:0:0:
256,192,133761,1,6,0:0:0:0:
256,192,134216,1,12,0:0:0:0:
256,192,134670,5,6,0:0:0:0:
256,192,135125,1,12,0:0:0:0:
256,192,135580,1,6,0:0:0:0:
256,192,136034,1,12,0:0:0:0:
256,192,136489,5,6,0:0:0:0:
256,192,136943,1,12,0:0:0:0:
256,192,137398,1,6,0:0:0:0:
256,192,137852,1,14,0:0:0:0:
256,192,138307,5,6,0:0:0:0:
256,192,138761,1,12,0:0:0:0:
256,192,139216,1,6,0:0:0:0:
256,192,139670,1,12,0:0:0:0:
256,192,140125,5,6,0:0:0:0:
256,192,140580,1,12,0:0:0:0:
256,192,141034,1,6,0:0:0:0:
256,192,141489,1,12,0:0:0:0:
256,192,141943,5,6,0:0:0:0:
256,192,142398,1,12,0:0:0:0:
256,192,142852,1,6,0:0:0:0:
256,192,143307,1,12,0:0:0:0:
256,192,143761,5,6,0:0:0:0:
256,192,144216,1,12,0:0:0:0:
256,192,144670,1,4,0:0:0:0:
256,192,145125,1,12,0:0:0:0:
256,192,145352,1,4,0:0:0:0:
256,192,145580,5,6,0:1:0:0:
256,192,146034,1,4,0:0:0:0:
256,192,146489,1,4,0:0:0:0:
256,192,146943,1,4,0:0:0:0:
256,192,147398,5,6,0:0:0:0:
256,192,147852,1,4,0:0:0:0:
256,192,148307,1,4,0:0:0:0:
256,192,148761,1,4,0:0:0:0:
256,192,149216,5,6,0:0:0:0:
256,192,149670,1,4,0:0:0:0:
256,192,150125,1,4,0:0:0:0:
256,192,150580,1,4,0:0:0:0:
256,192,151034,5,6,0:0:0:0:
256,192,151489,1,4,0:0:0:0:
256,192,151943,1,4,0:0:0:0:
256,192,152170,1,6,0:0:0:0:
256,192,152625,1,4,0:0:0:0:
256,192,152852,5,6,0:0:0:0:
256,192,153307,1,4,0:0:0:0:
256,192,153761,1,4,0:0:0:0:
256,192,154216,1,4,0:0:0:0:
256,192,154670,5,6,0:0:0:0:
256,192,155125,1,4,0:0:0:0:
256,192,155580,1,4,0:0:0:0:
256,192,156034,1,4,0:0:0:0:
256,192,156489,5,6,0:0:0:0:
256,192,156943,1,4,0:0:0:0:
256,192,157398,1,4,0:0:0:0:
256,192,157852,1,4,0:0:0:0:
256,192,158307,5,6,0:0:0:0:
256,192,158761,1,4,0:0:0:0:
256,192,159216,1,4,0:0:0:0:
256,192,159443,1,2,0:0:0:0:
256,192,159670,1,4,0:0:0:0:
256,192,160125,5,6,0:1:0:0:
256,192,160580,1,12,0:0:0:0:
256,192,160807,1,2,0:0:0:0:
256,192,161034,1,4,0:0:0:0:
256,192,161489,1,12,0:0:0:0:
256,192,161943,5,6,0:0:0:0:
256,192,162398,1,12,0:0:0:0:
256,192,162625,1,2,0:0:0:0:
256,192,162852,1,4,0:0:0:0:
256,192,163307,1,12,0:0:0:0:
256,192,163761,5,6,0:0:0:0:
256,192,164216,1,12,0:0:0:0:
256,192,164670,1,6,0:0:0:0:
256,192,165125,1,12,0:0:0:0:
256,192,165580,5,6,0:0:0:0:
256,192,166034,1,12,0:0:0:0:
256,192,166489,1,4,0:0:0:0:
256,192,166716,1,2,0:0:0:0:
256,192,166943,1,12,0:0:0:0:
256,192,167398,5,6,0:0:0:0:
256,192,167852,1,12,0:0:0:0:
256,192,168080,1,2,0:0:0:0:
256,192,168307,1,4,0:0:0:0:
256,192,168761,1,12,0:0:0:0:
256,192,169216,5,6,0:0:0:0:
256,192,169670,1,12,0:0:0:0:
256,192,169898,1,2,0:0:0:0:
256,192,170125,1,4,0:0:0:0:
256,192,170580,1,12,0:0:0:0:
256,192,171034,5,6,0:0:0:0:
256,192,171489,1,12,0:0:0:0:
256,192,171943,1,6,0:0:0:0:
256,192,172398,1,12,0:0:0:0:
256,192,172852,5,6,0:0:0:0:
256,192,173307,1,12,0:0:0:0:
256,192,173761,1,4,0:0:0:0:
256,192,173989,1,2,0:0:0:0:
256,192,174216,1,12,0:0:0:0:
256,192,174443,1,4,0:0:0:0:
256,192,174670,5,6,0:0:0:0:
256,192,175352,1,4,0:0:0:0:
256,192,175580,1,4,0:0:0:0:
256,192,176489,5,2,0:0:0:0:
256,192,176716,1,4,0:0:0:0:
256,192,177170,1,4,0:0:0:0:
256,192,177398,1,4,0:0:0:0:
256,192,177852,1,8,0:0:0:0:
256,192,178307,5,6,0:0:0:0:
256,192,178989,1,4,0:0:0:0:
256,192,179216,1,4,0:0:0:0:
256,192,180125,5,2,0:0:0:0:
256,192,180352,1,4,0:0:0:0:
256,192,180807,1,4,0:0:0:0:
256,192,181034,1,4,0:0:0:0:
256,192,181489,1,14,0:0:0:0:
256,192,181943,5,6,0:0:0:0:
256,192,182398,1,12,0:0:0:0:
256,192,182852,1,6,0:0:0:0:
256,192,183307,1,12,0:0:0:0:
256,192,183761,5,6,0:0:0:0:
256,192,184216,1,12,0:0:0:0:
256,192,184670,1,6,0:0:0:0:
256,192,185125,1,14,0:0:0:0:
256,192,185580,5,6,0:0:0:0:
256,192,186034,1,12,0:0:0:0:
256,192,186489,1,4,0:0:0:0:
256,192,186943,1,12,0:0:0:0:
256,192,187398,5,6,0:0:0:0:
256,192,187852,1,12,0:0:0:0:
256,192,188307,1,4,0:0:0:0:
256,192,188761,1,14,0:0:0:0:
256,192,189216,5,6,0:0:0:0:
256,192,189443,1,6,0:0:0:0:
256,192,189670,1,6,0:0:0:0:
256,192,191034,5,6,0:0:0:0:
256,192,191489,1,12,0:0:0:0:
256,192,191943,1,4,0:0:0:0:
256,192,192398,1,14,0:0:0:0:
256,192,192852,5,6,0:0:0:0:
256,192,193307,1,12,0:0:0:0:
256,192,193761,1,6,0:0:0:0:
256,192,194216,1,14,0:0:0:0:
256,192,194670,5,6,0:0:0:0:
256,192,195125,1,12,0:0:0:0:
256,192,195580,1,4,0:0:0:0:
256,192,196034,1,14,0:0:0:0:
256,192,196489,5,6,0:0:0:0:
256,192,196943,1,12,0:0:0:0:
256,192,197398,1,6,0:0:0:0:
256,192,197852,1,14,0:0:0:0:
256,192,198307,5,6,0:0:0:0:
256,192,198761,1,12,0:0:0:0:
256,192,199216,1,4,0:0:0:0:
256,192,199670,1,14,0:0:0:0:
256,192,200125,5,6,0:0:0:0:
256,192,200580,1,12,0:0:0:0:
256,192,201034,1,6,0:0:0:0:
256,192,201489,1,14,0:0:0:0:
256,192,201943,5,6,0:0:0:0:
256,192,202398,1,12,0:0:0:0:
256,192,202852,1,6,0:0:0:0:
256,192,203307,1,12,0:0:0:0:
256,192,203761,5,6,0:0:0:0:
256,192,204216,1,14,0:0:0:0:
256,192,204443,1,2,0:0:0:0:
256,192,204670,1,4,0:0:0:0:
256,192,205125,1,14,0:0:0:0:
256,192,205352,1,4,0:0:0:0:
256,192,205580,5,6,0:0:0:0:
256,192,206034,1,12,0:0:0:0:
256,192,206489,1,4,0:0:0:0:
256,192,206943,1,14,0:0:0:0:
256,192,207398,5,6,0:0:0:0:
256,192,207852,1,12,0:0:0:0:
256,192,208307,1,6,0:0:0:0:
256,192,208761,1,14,0:0:0:0:
256,192,209216,5,6,0:0:0:0:
256,192,209670,1,12,0:0:0:0:
256,192,210125,1,4,0:0:0:0:
256,192,210580,1,14,0:0:0:0:
256,192,211034,5,6,0:0:0:0:
256,192,211489,1,12,0:0:0:0:
256,192,211943,1,6,0:0:0:0:
256,192,212398,1,14,0:0:0:0:
256,192,212852,5,6,0:0:0:0:
256,192,213307,1,12,0:0:0:0:
256,192,213761,1,4,0:0:0:0:
256,192,214216,1,14,0:0:0:0:
256,192,214670,5,6,0:0:0:0:
256,192,215125,1,12,0:0:0:0:
256,192,215580,1,6,0:0:0:0:
256,192,216034,1,14,0:0:0:0:
256,192,216489,5,6,0:0:0:0:
256,192,216943,1,12,0:0:0:0:
256,192,217398,1,6,0:0:0:0:
256,192,217852,1,14,0:0:0:0:
256,192,218307,5,6,0:0:0:0:
256,192,218761,1,12,0:0:0:0:
256,192,219216,1,6,0:0:0:0:
256,192,219670,1,14,0:0:0:0:
256,192,219898,1,4,0:0:0:0:
256,192,220125,5,6,0:0:0:0:
256,192,221034,1,6,0:0:0:0:
256,192,221943,5,6,0:0:0:0:
256,192,222398,1,12,0:0:0:0:
256,192,222852,1,4,0:0:0:0:
256,192,223307,1,12,0:0:0:0:
256,192,223761,5,6,0:0:0:0:
256,192,224216,1,12,0:0:0:0:
256,192,224670,1,6,0:0:0:0:
256,192,225125,1,12,0:0:0:0:
256,192,225580,5,6,0:0:0:0:
256,192,226034,1,12,0:0:0:0:
256,192,226489,1,6,0:0:0:0:
256,192,226943,1,12,0:0:0:0:
256,192,227398,5,6,0:0:0:0:
256,192,227852,1,12,0:0:0:0:
256,192,228307,1,6,0:0:0:0:
256,192,228761,1,14,0:0:0:0:
256,192,228989,1,4,0:0:0:0:
256,192,229216,5,6,0:0:0:0:
256,192,229670,1,12,0:0:0:0:
256,192,230125,1,4,0:0:0:0:
256,192,230580,1,14,0:0:0:0:
256,192,231034,5,6,0:0:0:0:
256,192,231489,1,12,0:0:0:0:
256,192,231943,1,6,0:0:0:0:
256,192,232398,1,14,0:0:0:0:
256,192,232852,5,6,0:0:0:0:
256,192,233307,1,12,0:0:0:0:
256,192,233761,1,6,0:0:0:0:
256,192,234216,1,12,0:0:0:0:
256,192,234670,5,6,0:0:0:0:
256,192,235125,1,12,0:0:0:0:
256,192,235580,1,6,0:0:0:0:
256,192,235920,1,4,0:0:0:0:
256,192,236034,1,14,0:0:0:0:
256,192,236261,1,6,0:0:0:0:
256,192,236489,5,6,0:1:0:0:
256,192,236943,1,12,0:0:0:0:
256,192,237398,1,4,0:0:0:0:
256,192,237852,1,14,0:0:0:0:
256,192,238307,5,6,0:0:0:0:
256,192,238761,1,12,0:0:0:0:
256,192,239216,1,6,0:0:0:0:
256,192,239670,1,12,0:0:0:0:
256,192,240125,5,6,0:0:0:0:
256,192,240580,1,12,0:0:0:0:
256,192,241034,1,4,0:0:0:0:
256,192,241489,1,14,0:0:0:0:
256,192,241943,5,6,0:0:0:0:
256,192,242398,1,12,0:0:0:0:
256,192,242852,1,6,0:0:0:0:
256,192,243307,1,12,0:0:0:0:
256,192,243761,5,6,0:1:0:0:
256,192,244216,1,12,0:0:0:0:
256,192,244670,1,6,0:0:0:0:
256,192,245125,1,14,0:0:0:0:
256,192,245580,5,6,0:0:0:0:
256,192,246034,1,12,0:0:0:0:
256,192,246489,1,6,0:0:0:0:
256,192,246943,1,14,0:0:0:0:
256,192,247398,5,6,0:0:0:0:
256,192,247852,1,12,0:0:0:0:
256,192,248307,1,4,0:0:0:0:
256,192,248761,1,14,0:0:0:0:
256,192,249216,5,6,0:0:0:0:
256,192,249670,1,12,0:0:0:0:
256,192,250125,1,4,0:0:0:0:
256,192,250580,1,12,0:0:0:0:
256,192,250807,1,6,0:0:0:0:
256,192,251034,5,6,0:0:0:0:
256,192,252852,5,2,0:0:0:0:
256,192,253761,1,2,0:0:0:0:
256,192,254670,5,2,0:0:0:0:
256,192,255580,1,2,0:0:0:0:
256,192,256489,5,2,0:0:0:0:
256,192,257398,1,2,0:0:0:0:
256,192,258307,5,2,0:0:0:0:
256,192,259216,1,2,0:0:0:0:
256,192,260125,5,4,0:0:0:0:
256,192,260580,1,4,0:0:0:0:
256,192,261034,1,4,0:0:0:0:
256,192,261489,1,4,0:0:0:0:
256,192,261943,5,4,0:0:0:0:
256,192,262398,1,4,0:0:0:0:
256,192,262852,1,4,0:0:0:0:
256,192,263307,1,4,0:0:0:0:
256,192,263761,5,4,0:0:0:0:
256,192,264216,1,4,0:0:0:0:
256,192,264670,1,4,0:0:0:0:
256,192,265125,1,4,0:0:0:0:
256,192,265580,5,12,0:0:0:0:
256,192,265693,1,8,0:0:0:0:
256,192,265807,1,8,0:0:0:0:
256,192,265920,1,8,0:0:0:0:
256,192,266034,5,12,0:0:0:0:
256,192,266147,1,8,0:0:0:0:
256,192,266261,1,8,0:0:0:0:
256,192,266374,1,8,0:0:0:0:
256,192,266489,5,12,0:0:0:0:
256,192,266602,1,8,0:0:0:0:
256,192,266716,1,8,0:0:0:0:
256,192,266829,1,8,0:0:0:0:
256,192,266943,5,12,0:0:0:0:
256,192,267056,1,8,0:0:0:0:
256,192,267170,1,8,0:0:0:0:
256,192,267283,1,8,0:0:0:0:
256,192,267398,5,6,0:0:0:0:
256,192,267625,1,6,0:0:0:0:
256,192,267852,1,6,0:0:0:0:
256,192,268080,1,6,0:0:0:0:
256,192,269216,5,6,0:0:0:0:
256,192,269670,1,12,0:0:0:0:
256,192,270125,1,4,0:0:0:0:
256,192,270580,1,14,0:0:0:0:
256,192,271034,5,6,0:0:0:0:
256,192,271489,1,12,0:0:0:0:
256,192,271943,1,6,0:0:0:0:
256,192,272398,1,14,0:0:0:0:
256,192,272852,5,6,0:0:0:0:
256,192,273307,1,12,0:0:0:0:
256,192,273761,1,4,0:0:0:0:
256,192,274216,1,14,0:0:0:0:
256,192,274670,5,6,0:0:0:0:
256,192,275125,1,12,0:0:0:0:
256,192,275580,1,6,0:0:0:0:
256,192,276034,1,14,0:0:0:0:
256,192,276489,5,6,0:0:0:0:
256,192,276943,1,14,0:0:0:0:
256,192,277398,1,6,0:0:0:0:
256,192,277852,1,14,0:0:0:0:
256,192,278307,5,6,0:0:0:0:
256,192,278761,1,12,0:0:0:0:
256,192,279216,1,6,0:0:0:0:
256,192,279670,1,14,0:0:0:0:
256,192,280125,5,6,0:0:0:0:
256,192,280580,1,12,0:0:0:0:
256,192,281034,1,6,0:0:0:0:
256,192,281489,1,14,0:0:0:0:
256,192,281943,5,6,0:0:0:0:
256,192,282398,1,12,0:0:0:0:
256,192,282852,1,6,0:0:0:0:
256,192,283307,1,14,0:0:0:0:
256,192,283534,1,4,0:0:0:0:
256,192,283761,5,6,0:0:0:0:
256,192,284670,1,6,0:0:0:0:
256,192,285580,5,6,0:1:0:0:
256,192,286034,1,12,0:0:0:0:
256,192,286489,1,6,0:0:0:0:
256,192,286943,1,12,0:0:0:0:
256,192,287398,5,6,0:0:0:0:
256,192,287852,1,12,0:0:0:0:
256,192,288307,1,6,0:0:0:0:
256,192,288761,1,12,0:0:0:0:
256,192,289216,5,6,0:0:0:0:
256,192,289670,1,12,0:0:0:0:
256,192,290125,1,6,0:0:0:0:
256,192,290580,1,12,0:0:0:0:
256,192,291034,5,6,0:0:0:0:
256,192,291489,1,12,0:0:0:0:
256,192,291943,1,6,0:0:0:0:
256,192,292398,1,14,0:0:0:0:
256,192,292625,1,4,0:0:0:0:
256,192,292852,5,6,0:0:0:0:
256,192,293307,1,12,0:0:0:0:
256,192,293761,1,6,0:0:0:0:
256,192,294216,1,12,0:0:0:0:
256,192,294670,5,6,0:0:0:0:
256,192,295125,1,12,0:0:0:0:
256,192,295580,1,6,0:0:0:0:
256,192,296034,1,12,0:0:0:0:
256,192,296489,5,6,0:0:0:0:
256,192,296943,1,12,0:0:0:0:
256,192,297398,1,6,0:0:0:0:
256,192,297852,1,12,0:0:0:0:
256,192,298307,5,6,0:0:0:0:
256,192,298761,1,12,0:0:0:0:
256,192,299216,1,4,0:0:0:0:
256,192,299557,1,4,0:0:0:0:
256,192,299670,1,14,0:0:0:0:
256,192,299926,1,4,0:0:0:0:
256,192,300203,5,6,0:1:0:0:
256,192,300783,1,2,0:0:0:0:
256,192,301140,1,2,0:0:0:0:
256,192,301931,1,2,0:0:0:0:
256,192,302372,1,2,0:0:0:0:
256,192,303800,5,2,0:0:0:0:
256,192,304100,12,0,308600,0:0:0:0:
