osu file format v14

[General]
AudioFilename: audio.mp3
AudioLeadIn: 0
PreviewTime: 99330
Countdown: 0
SampleSet: Soft
StackLeniency: 0.6
Mode: 0
LetterboxInBreaks: 0
WidescreenStoryboard: 0

[Editor]
Bookmarks: 1475,20142,25580,40125,54670,83761,91034,100125,131034,145580,174670,181943,191034,221943,236489,252852,285580,300203,303800,308600
DistanceSpacing: 1.6
BeatDivisor: 4
GridSize: 4
TimelineZoom: 0.9

[Metadata]
Title:Kimi ga Kureta Shiny Story
TitleUnicode:きみがくれたシャイニーストーリー
Artist:Nanamori-chu*Goraku-bu
ArtistUnicode:七森中☆ごらく部
Creator:vekt0r
Version:Shining Tomorrows
Source:ゆるゆり さん☆ハイ!
Tags:yuru yuri san hai! yuruyuri san*hai! season three 3 acchu-ma seishun single akaza akari mikami shiori toshinou kyouko toshino kyoko ootsubo yuka funami yui tsuda minami yoshikawa chinatsu ookubo rumi
BeatmapID:1478082
BeatmapSetID:697810

[Difficulty]
HPDrainRate:6
CircleSize:4
OverallDifficulty:7.5
ApproachRate:8
SliderMultiplier:1.4
SliderTickRate:1

[Events]
//Background and Video events
0,0,"yuru yuri bg.jpg",0,0
//Break Periods
//Storyboard Layer 0 (Background)
//Storyboard Layer 1 (Fail)
//Storyboard Layer 2 (Pass)
//Storyboard Layer 3 (Foreground)
//Storyboard Sound Samples

[TimingPoints]
-1191,666.666666666667,4,2,2,18,1,0
475,-166.666666666667,4,2,2,18,0,0
6642,-166.666666666667,4,2,2,5,0,0
6809,-166.666666666667,4,2,2,18,0,0
24671,454.545454545455,4,2,2,30,1,0
24898,-166.666666666667,4,2,2,30,0,0
25580,454.545454545455,4,2,2,40,1,0
25580,-166.666666666667,4,2,2,40,0,0
32852,-100,4,2,1,40,0,0
39670,-71.4285714285714,4,2,1,60,0,0
40011,-71.4285714285714,4,2,1,5,0,0
40125,-83.3333333333333,4,2,1,50,0,0
54670,-125,4,2,1,35,0,0
69216,-100,4,2,1,40,0,0
83761,-100,4,2,1,50,0,0
84330,-100,4,2,1,5,0,0
84443,-100,4,2,1,50,0,0
86148,-100,4,2,1,5,0,0
86261,-100,4,2,1,50,0,0
86943,-100,4,2,1,60,0,0
87398,-100,4,2,1,50,0,0
87966,-100,4,2,1,5,0,0
88080,-100,4,2,1,50,0,0
89784,-100,4,2,1,5,0,0
89898,-100,4,2,1,50,0,0
91034,-83.3333333333333,4,2,1,50,0,0
98307,-83.3333333333333,4,2,1,70,0,0
99443,-166.666666666667,4,2,1,70,0,0
100125,-66.6666666666667,4,2,1,60,0,1
101489,-50,4,2,1,60,0,1
101943,-66.6666666666667,4,2,1,60,0,1
102852,-75.0000000000019,4,2,1,60,0,1
103193,-75.0000000000019,4,2,1,5,0,1
103307,-50,4,2,1,60,0,1
105580,-66.6666666666667,4,2,1,60,0,1
108761,-50,4,2,1,60,0,1
109216,-66.6666666666667,4,2,1,60,0,1
110466,-66.6666666666667,4,2,1,5,0,1
110580,-50,4,2,1,60,0,1
113534,-133.333333333333,4,2,1,60,0,1
114443,-133.333333333333,4,2,1,60,0,0
114670,-66.6666666666667,4,2,1,60,0,1
116034,-50,4,2,1,60,0,1
116489,-66.6666666666667,4,2,1,60,0,1
117398,-75.000001875,4,2,1,60,0,1
117739,-75.000001875,4,2,1,5,0,1
117852,-50,4,2,1,60,0,1
120125,-66.6666666666667,4,2,1,60,0,1
123307,-50,4,2,1,60,0,1
123761,-66.6666666666667,4,2,1,60,0,1
125011,-66.6666666666667,4,2,1,5,0,1
125125,-50,4,2,1,60,0,1
125580,-66.6666666666667,4,2,1,60,0,1
126489,-83.3333333333333,4,2,1,60,0,1
127398,-111.111111111111,4,2,1,60,0,1
128307,-83.3333333333333,4,2,1,60,0,1
128648,-83.3333333333333,4,2,1,5,0,1
128761,-83.3333333333333,4,2,1,60,0,1
129216,-83.3333333333333,4,2,1,60,0,0
131034,-83.3333333333333,4,2,1,50,0,1
132852,-83.3333333333333,4,2,1,50,0,0
145580,-200,4,2,1,30,0,0
152170,-125,4,2,1,30,0,0
152511,-125,4,2,1,5,0,0
152625,-125,4,2,1,30,0,0
152852,-125,4,2,1,35,0,0
160125,-100,4,2,1,40,0,0
174670,-100,4,2,1,50,0,0
175239,-100,4,2,1,5,0,0
175352,-100,4,2,1,50,0,0
177057,-100,4,2,1,5,0,0
177170,-100,4,2,1,50,0,0
177852,-100,4,2,1,60,0,0
178307,-100,4,2,1,50,0,0
178875,-100,4,2,1,5,0,0
178989,-100,4,2,1,50,0,0
180693,-100,4,2,1,5,0,0
180807,-100,4,2,1,50,0,0
181943,-83.3333333333333,4,2,1,50,0,0
189216,-83.3333333333333,4,2,1,70,0,0
190352,-166.666666666667,4,2,1,70,0,0
191034,-66.6666666666667,4,2,1,60,0,1
192398,-50,4,2,1,60,0,1
192852,-66.6666666666667,4,2,1,60,0,1
193761,-75,4,2,1,60,0,1
194102,-75,4,2,1,5,0,1
194216,-50,4,2,1,60,0,1
196489,-66.6666666666667,4,2,1,60,0,1
199670,-50,4,2,1,60,0,1
200125,-66.6666666666667,4,2,1,60,0,1
201375,-66.6666666666667,4,2,1,5,0,1
201489,-50,4,2,1,60,0,1
204443,-133.333333333333,4,2,1,60,0,1
205352,-133.333333333333,4,2,1,60,0,0
205580,-66.6666666666667,4,2,1,60,0,1
206943,-50,4,2,1,60,0,1
207398,-66.6666666666667,4,2,1,60,0,1
208307,-75.0000000000002,4,2,1,60,0,1
208648,-75.0000000000002,4,2,1,5,0,1
208761,-50,4,2,1,60,0,1
211034,-66.6666666666667,4,2,1,60,0,1
214216,-50,4,2,1,60,0,1
214670,-66.6666666666667,4,2,1,60,0,1
215920,-66.6666666666667,4,2,1,5,0,1
216034,-50,4,2,1,60,0,1
216489,-66.6666666666667,4,2,1,60,0,1
217398,-83.3333333333333,4,2,1,60,0,1
218307,-111.111111111111,4,2,1,60,0,1
219216,-83.3333333333333,4,2,1,60,0,1
219557,-83.3333333333333,4,2,1,5,0,1
219670,-83.3333333333333,4,2,1,60,0,1
220125,-83.3333333333333,4,2,1,60,0,0
221943,-83.3333333333333,4,2,1,50,0,1
223761,-83.3333333333333,4,2,1,50,0,0
226830,-83.3333333333333,4,2,1,5,0,0
226943,-83.3333333333333,4,2,1,50,0,0
236489,-71.4285714285714,4,2,1,50,0,0
247284,-71.4285714285714,4,2,1,5,0,0
247398,-71.4285714285714,4,2,1,50,0,0
251034,-125,4,2,1,50,0,0
252170,-166.666666666667,4,2,1,50,0,0
252852,-166.666666666667,4,2,2,40,0,0
260125,-100,4,2,1,40,0,0
263761,-83.3333333333333,4,2,1,40,0,0
265580,-71.4285714285714,4,2,2,50,0,0
265693,-71.4285714285714,4,2,2,30,0,0
266034,-71.4285714285714,4,2,2,50,0,0
266148,-71.4285714285714,4,2,2,40,0,0
266489,-71.4285714285714,4,2,2,60,0,0
266943,-71.4285714285714,4,2,2,70,0,0
267398,-71.4285714285714,4,2,2,80,0,0
268534,-166.666666666667,4,2,2,80,0,0
269216,-66.6666666666667,4,2,1,60,0,1
270580,-50,4,2,1,60,0,1
271943,-66.6666666666667,4,2,1,60,0,1
272284,-66.6666666666667,4,2,1,5,0,1
272398,-50,4,2,1,60,0,1
274670,-66.6666666666667,4,2,1,60,0,1
276489,-50,4,2,1,60,0,1
278307,-66.6666666666667,4,2,1,60,0,1
279557,-66.6666666666667,4,2,1,5,0,1
279670,-66.6666666666667,4,2,1,60,0,1
281034,-83.3333333333333,4,2,1,60,0,1
281943,-111.111111111111,4,2,1,60,0,1
282852,-83.3333333333333,4,2,1,60,0,1
283761,-83.3333333333333,4,2,1,70,0,0
284670,-83.3333333333333,4,2,1,80,0,0
285580,-83.3333333333333,4,2,1,90,0,1
286034,-83.3333333333333,4,2,1,50,0,1
287398,-83.3333333333333,4,2,1,50,0,0
299670,512.820512820513,4,2,1,50,1,0
299670,-83.3333333333333,4,2,1,50,0,0
299926,555.555555555556,4,2,1,50,1,0
300203,566.037735849057,4,2,1,50,1,0
300203,-83.3333333333333,4,2,1,50,0,0
300486,594.059405940594,4,2,2,50,1,0
300783,714.285714285714,4,2,2,50,1,0
301140,750,4,2,2,50,1,0
301140,-83.3333333333333,4,2,2,50,0,0
301515,833.333333333333,4,2,2,50,1,0
301931,882.352941176471,4,2,2,40,1,0
302372,1428.57142857143,4,2,2,40,1,0
302372,-166.666666666667,4,2,2,40,0,0
303800,1200,4,2,2,35,1,0
308600,-100,4,2,2,5,0,0

[Colours]
Combo1 : 249,254,48
Combo2 : 3,106,0
Combo3 : 113,255,255
Combo4 : 91,15,51

[HitObjects]
202,168,475,6,0,L|192:222,2,41.9999987182618,0|0|0,0:0|0:0|0:0,0:0:0:0:
211,127,1475,6,0,P|230:192|288:196,1,125.999996154785,2|0,0:0|0:0,0:0:0:0:
316,177,2809,1,2,0:0:0:0:
332,94,3475,1,0,0:0:0:0:
316,177,4142,2,0,P|321:218|332:262,1,83.9999974365235,2|0,0:0|0:0,0:0:0:0:
390,319,5475,2,0,B|349:356|309:342|270:329|237:354,1,146.999995513916,2|0,0:0|0:0,0:0:0:0:
230,356,6809,6,0,P|271:303|242:252,1,125.999996154785,2|0,0:0|0:0,0:0:0:0:
210,241,8142,1,2,0:0:0:0:
126,249,8809,1,0,0:0:0:0:
210,241,9475,2,0,P|249:228|290:210,1,83.9999974365235,2|0,0:0|0:0,0:0:0:0:
326,137,10809,1,2,0:0:0:0:
298,56,11475,1,2,0:0:0:0:
223,19,12142,6,0,P|157:37|152:95,1,125.999996154785,2|0,0:0|0:0,0:0:0:0:
171,123,13475,1,2,0:0:0:0:
253,136,14142,1,0,0:0:0:0:
171,123,14809,2,0,P|130:102|108:65,1,83.9999974365235,2|0,0:0|0:0,0:0:0:0:
188,41,16142,2,0,P|228:50|273:55,1,83.9999974365235,2|0,0:0|0:0,0:0:0:0:
353,40,17475,6,0,L|343:-14,2,41.9999987182618,2|0|0,0:0|0:0|0:0,0:0:0:0:
360,81,18475,2,0,B|365:100|359:121|354:145|357:168,1,83.9999974365235,2|0,0:0|0:0,0:0:0:0:
365,205,19475,2,0,L|374:253,1,41.9999987182618,2|0,0:0|0:0,0:0:0:0:
391,328,20142,5,2,0:0:0:0:
256,192,20309,12,0,24671,0:0:0:0:
207,257,24898,6,0,L|197:311,2,41.9999987182618,0|0|0,0:0|0:0|0:0,0:0:0:0:
212,215,25580,6,0,P|176:230|128:233,2,83.9999974365235,2|0|2,0:0|0:0|0:0,0:0:0:0:
284,172,26943,1,0,0:0:0:0:
284,172,27170,2,0,L|291:130,2,41.9999987182618,0|2|0,0:0|0:0|0:0,0:0:0:0:
296,211,27852,2,0,L|278:308,1,83.9999974365235,0|2,0:0|0:0,0:0:0:0:
199,298,28761,2,0,L|206:256,1,41.9999987182618,0|0,0:0|0:0,0:0:0:0:
212,215,29216,6,0,P|176:230|128:233,2,83.9999974365235,2|0|2,0:0|0:0|0:0,0:0:0:0:
284,172,30580,1,0,0:0:0:0:
284,172,30807,2,0,L|337:162,1,41.9999987182618,0|2,0:0|0:0,0:0:0:0:
365,177,31261,1,0,0:0:0:0:
365,177,31489,2,0,L|462:159,1,83.9999974365235,0|2,0:0|0:0,0:0:0:0:
488,152,32170,2,0,L|497:98,2,41.9999987182618,0|0|0,0:0|0:0|0:0,0:0:0:0:
471,241,32852,6,0,L|457:318,1,70,4|0,0:0|0:0,0:0:0:0:
383,256,33307,2,0,L|369:333,1,70,4|0,0:0|0:0,0:0:0:0:
295,271,33761,1,4,0:0:0:0:
291,257,34216,2,0,L|277:179,1,70,4|0,0:0|0:0,0:0:0:0:
249,32,34670,6,0,L|261:100,1,70,4|0,0:0|0:0,0:0:0:0:
161,17,35125,2,0,L|173:85,1,70,4|0,0:0|0:0,0:0:0:0:
73,2,35580,1,4,0:0:0:0:
77,16,36034,2,0,L|90:84,1,70,4|0,0:0|0:0,0:0:0:0:
120,235,36489,6,0,L|107:166,1,70,4|0,0:0|0:0,0:0:0:0:
94,98,36943,2,0,L|107:166,1,70,4|0,0:0|0:0,0:0:0:0:
214,242,37398,6,0,L|201:173,1,70,4|0,0:0|0:0,0:0:0:0:
180,62,37852,2,0,L|192:130,1,70,4|0,0:0|0:0,0:0:0:0:
309,250,38307,6,0,L|296:181,1,70,4|0,0:0|0:0,0:0:0:0:
266,25,38761,2,0,L|279:93,1,70,4|0,0:0|0:0,0:0:0:0:
404,258,39216,5,4,0:0:0:0:
400,235,39330,1,0,0:0:0:0:
396,212,39443,1,0,0:0:0:0:
392,189,39557,1,0,0:0:0:0:
385,131,39670,6,0,B|408:153|408:153|428:275,1,146.999995513916,12|0,0:1|0:0,0:0:0:0:
436,351,40125,6,0,P|318:361|274:317,1,167.999994873047,6|12,0:1|0:0,0:0:0:0:
235,247,40807,1,0,0:0:0:0:
369,260,41034,2,0,P|323:149|352:94,1,167.999994873047,6|12,0:0|0:0,0:0:0:0:
487,162,41716,1,0,0:0:0:0:
462,166,41830,1,0,0:0:0:0:
438,171,41943,6,0,L|330:189,1,83.9999974365235,6|0,0:0|0:0,0:0:0:0:
262,285,42398,2,0,L|369:266,1,83.9999974365235,12|0,0:0|0:0,0:0:0:0:
359,98,42852,2,0,B|313:97|283:124|249:152|201:154,1,167.999994873047,6|12,0:0|0:0,0:0:0:0:
108,116,43534,1,0,0:0:0:0:
47,236,43761,6,0,P|96:343|156:359,1,167.999994873047,6|12,0:0|0:0,0:0:0:0:
238,358,44443,1,0,0:0:0:0:
159,249,44670,2,0,P|276:239|312:188,1,167.999994873047,6|12,0:0|0:0,0:0:0:0:
319,71,45352,1,0,0:0:0:0:
294,66,45466,1,0,0:0:0:0:
269,62,45580,6,0,L|161:41,1,83.9999974365235,6|0,0:0|0:0,0:0:0:0:
295,152,46034,2,0,L|187:131,1,83.9999974365235,12|0,0:0|0:0,0:0:0:0:
321,243,46489,2,0,L|213:222,1,83.9999974365235,6|0,0:0|0:0,0:0:0:0:
90,289,46943,1,14,0:0:0:0:
221,317,47170,1,4,0:0:0:0:
352,345,47398,6,0,B|432:359|432:359|462:364|493:356|510:335,1,167.999994873047,6|12,0:0|0:0,0:0:0:0:
512,225,48080,1,0,0:0:0:0:
380,254,48307,2,0,B|299:268|299:268|269:273|238:265|221:244,1,167.999994873047,6|12,0:0|0:0,0:0:0:0:
280,102,48989,1,0,0:0:0:0:
283,127,49102,1,0,0:0:0:0:
287,152,49216,6,0,L|305:258,1,83.9999974365235,6|0,0:0|0:0,0:0:0:0:
174,112,49670,2,0,L|188:194,1,83.9999974365235,12|0,0:0|0:0,0:0:0:0:
124,1,50125,2,0,B|116:27|92:41|70:62|58:104|78:156,1,167.999994873047,6|12,0:0|0:0,0:0:0:0:
174,112,50807,1,0,0:0:0:0:
216,240,51034,6,0,B|283:251|283:251|332:281|387:266,1,167.999994873047,6|12,0:0|0:0,0:0:0:0:
468,221,51716,1,0,0:0:0:0:
349,158,51943,2,0,B|281:146|281:146|232:116|177:131,1,167.999994873047,6|12,0:0|0:0,0:0:0:0:
84,216,52625,1,0,0:0:0:0:
109,220,52739,1,0,0:0:0:0:
133,225,52852,6,0,L|240:244,1,83.9999974365235,6|0,0:0|0:0,0:0:0:0:
349,158,53307,2,0,L|242:139,1,83.9999974365235,12|0,0:0|0:0,0:0:0:0:
231,31,53761,2,0,L|338:49,1,83.9999974365235,4|0,0:0|0:0,0:0:0:0:
389,59,54102,1,4,0:0:0:0:
414,63,54216,1,12,0:0:0:0:
349,158,54443,1,4,0:0:0:0:
284,253,54670,5,6,0:1:0:0:
281,77,55125,1,4,0:0:0:0:
281,77,55352,2,0,L|226:87,1,56,0|4,0:0|0:0,0:0:0:0:
204,168,55807,1,0,0:0:0:0:
204,168,56034,2,0,P|173:168|148:163,1,56,4|0,0:0|0:0,0:0:0:0:
37,141,56489,6,0,P|66:173|75:221,1,84,6|0,0:0|0:0,0:0:0:0:
72,253,56943,2,0,L|63:308,1,56,4|0,0:0|0:0,0:0:0:0:
147,296,57398,2,0,L|138:351,1,56,4|0,0:0|0:0,0:0:0:0:
222,339,57852,1,4,0:0:0:0:
305,324,58080,1,0,0:0:0:0:
391,250,58307,5,6,0:0:0:0:
498,121,58761,2,0,L|443:130,1,56,4|0,0:0|0:0,0:0:0:0:
455,46,59216,2,0,P|425:51|399:51,1,56,4|0,0:0|0:0,0:0:0:0:
317,37,59670,1,4,0:0:0:0:
237,8,59898,1,0,0:0:0:0:
126,29,60125,5,6,0:0:0:0:
8,148,60580,2,0,L|63:139,1,56,4|0,0:0|0:0,0:0:0:0:
146,127,61034,1,4,0:0:0:0:
219,211,61261,5,2,0:0:0:0:
223,189,61489,1,4,0:0:0:0:
227,167,61716,1,0,0:0:0:0:
132,228,61943,5,6,0:0:0:0:
298,268,62398,1,4,0:0:0:0:
298,268,62625,2,0,L|353:278,1,56,0|4,0:0|0:0,0:0:0:0:
375,359,63080,1,0,0:0:0:0:
375,359,63307,2,0,P|405:357|430:350,1,56,4|0,0:0|0:0,0:0:0:0:
505,267,63761,6,0,P|476:235|467:187,1,84,6|0,0:0|0:0,0:0:0:0:
470,155,64216,1,4,0:0:0:0:
470,155,64443,2,0,L|415:164,1,56,0|4,0:0|0:0,0:0:0:0:
331,177,64898,1,0,0:0:0:0:
246,168,65125,1,4,0:0:0:0:
177,119,65352,1,0,0:0:0:0:
129,15,65580,5,6,0:0:0:0:
54,165,66034,2,0,P|48:193|48:220,1,56,4|0,0:0|0:0,0:0:0:0:
131,201,66489,2,0,P|145:173|162:154,1,56,4|0,0:0|0:0,0:0:0:0:
234,112,66943,1,4,0:0:0:0:
317,98,67170,1,0,0:0:0:0:
435,139,67398,6,0,L|425:194,1,56,6|0,0:0|0:0,0:0:0:0:
505,217,67852,2,0,L|495:272,1,56,4|0,0:0|0:0,0:0:0:0:
410,278,68307,1,4,0:0:0:0:
288,220,68534,6,0,L|344:211,1,56,2|4,0:0|0:0,0:0:0:0:
425,195,68989,1,0,0:0:0:0:
229,315,69216,6,0,P|295:332|359:305,1,140,6|12,0:1|0:0,0:0:0:0:
288,220,69898,2,0,L|212:206,1,70,2|4,0:0|0:0,0:0:0:0:
109,185,70352,1,0,0:0:0:0:
180,98,70580,2,0,P|222:103|263:90,1,70,12|0,0:0|0:0,0:0:0:0:
400,24,71034,6,0,P|383:76|399:126,1,105,6|0,0:0|0:0,0:0:0:0:
419,150,71489,2,0,L|432:225,1,70,12|2,0:0|0:0,0:0:0:0:
338,282,71943,2,0,L|311:130,1,140,4|12,0:0|0:0,0:0:0:0:
291,34,72625,1,0,0:0:0:0:
220,182,72852,6,0,P|208:138|181:105,1,70,6|0,0:0|0:0,0:0:0:0:
82,128,73307,2,0,P|105:163|139:185,1,70,12|0,0:0|0:0,0:0:0:0:
288,237,73761,1,6,0:0:0:0:
171,248,73989,1,0,0:0:0:0:
305,234,74216,1,12,0:0:0:0:
194,118,74443,1,0,0:0:0:0:
354,167,74670,6,0,P|332:128|328:85,1,70,6|0,0:0|0:0,0:0:0:0:
371,0,75125,2,0,L|290:14,1,70,12|0,0:0|0:0,0:0:0:0:
191,29,75580,1,4,0:0:0:0:
119,180,75807,5,2,0:0:0:0:
107,146,76034,1,12,0:0:0:0:
112,110,76261,1,0,0:0:0:0:
214,243,76489,6,0,P|244:274|284:289,1,70,6|0,0:0|0:0,0:0:0:0:
380,269,76943,1,12,0:0:0:0:
374,157,77170,2,0,P|331:166|298:194,2,70,2|4|0,0:0|0:0|0:0,0:0:0:0:
484,170,77852,1,12,0:0:0:0:
440,66,78080,1,0,0:0:0:0:
278,80,78307,6,0,P|329:87|366:123,1,105,6|0,0:0|0:0,0:0:0:0:
374,157,78761,1,12,0:0:0:0:
374,157,78989,2,0,L|361:232,1,70,2|4,0:0|0:0,0:0:0:0:
266,292,79443,1,0,0:0:0:0:
287,181,79670,1,12,0:0:0:0:
263,306,79898,1,0,0:0:0:0:
159,174,80125,6,0,P|175:240|148:304,1,140,6|12,0:0|0:0,0:0:0:0:
63,230,80807,1,0,0:0:0:0:
139,80,81034,2,0,P|183:80|221:101,1,70,6|0,0:0|0:0,0:0:0:0:
266,185,81489,1,12,0:0:0:0:
196,272,81716,1,0,0:0:0:0:
360,303,81943,6,0,L|273:287,1,70,6|0,0:0|0:0,0:0:0:0:
198,173,82398,2,0,L|284:188,1,70,12|0,0:0|0:0,0:0:0:0:
371,316,82852,2,0,L|284:300,1,70,4|2,0:0|0:0,0:0:0:0:
187,160,83307,1,12,0:0:0:0:
334,213,83534,1,4,0:0:0:0:
106,275,83761,6,0,P|36:219|103:184,1,175,6|0,0:0|0:0,0:0:0:0:
114,183,84443,1,4,0:0:0:0:
181,233,84671,1,4,0:0:0:0:
196,315,84898,2,0,L|207:383,2,70,0|0|0,0:0|0:0|0:0,0:0:0:0:
181,233,85580,5,2,0:0:0:0:
253,191,85807,2,0,L|274:315,1,105,4|0,0:0|0:0,0:0:0:0:
278,328,86261,1,4,0:0:0:0:
361,317,86489,2,0,P|402:322|437:343,1,70,4|0,0:0|0:0,0:0:0:0:
297,253,86943,2,0,B|331:240|331:240|365:240,1,70,8|0,0:0|0:0,0:0:0:0:
233,189,87398,6,0,P|290:122|219:99,1,175,6|0,0:0|0:0,0:0:0:0:
206,106,88080,1,4,0:0:0:0:
147,171,88308,1,4,0:0:0:0:
233,189,88535,2,0,L|301:200,2,70,0|0|0,0:0|0:0|0:0,0:0:0:0:
147,171,89217,5,2,0:0:0:0:
158,254,89444,2,0,L|282:275,1,105,4|0,0:0|0:0,0:0:0:0:
295,280,89898,1,4,0:0:0:0:
322,359,90126,2,0,P|279:360|241:345,1,70,4|0,0:0|0:0,0:0:0:0:
90,196,90580,1,14,0:0:0:0:
52,215,90693,1,0,0:0:0:0:
39,256,90807,1,0,0:0:0:0:
59,293,90920,1,0,0:0:0:0:
101,305,91034,6,0,B|123:315|153:304|183:317,1,83.9999974365235,6|0,0:0|0:0,0:0:0:0:
259,383,91489,1,12,0:0:0:0:
269,223,91716,2,0,B|238:209|208:220|178:207,2,83.9999974365235,0|6|0,0:0|0:0|0:0,0:0:0:0:
344,288,92398,1,12,0:0:0:0:
354,128,92625,6,0,B|323:114|293:125|263:112,2,83.9999974365235,0|6|0,0:0|0:0|0:0,0:0:0:0:
429,193,93307,1,12,0:0:0:0:
269,223,93534,2,0,L|184:208,1,83.9999974365235,0|6,0:0|0:0,0:0:0:0:
86,190,93989,1,0,0:0:0:0:
123,35,94216,1,14,0:0:0:0:
147,30,94329,1,0,0:0:0:0:
172,25,94443,1,0,0:0:0:0:
197,21,94556,1,0,0:0:0:0:
221,17,94670,6,0,B|266:5|303:29|341:53|383:46,1,167.999994873047,6|12,0:0|0:0,0:0:0:0:
483,0,95352,1,0,0:0:0:0:
450,140,95580,2,0,P|404:159|356:156,1,83.9999974365235,4|0,0:0|0:0,0:0:0:0:
244,107,96034,1,12,0:0:0:0:
384,47,96261,1,0,0:0:0:0:
283,197,96489,6,0,B|240:216|200:199|158:182|118:196,2,167.999994873047,6|12|4,0:0|0:0|0:0,0:0:0:0:
74,121,97852,2,0,L|38:127,5,27.9999991455078,14|0|0|0|0|0,0:0|0:0|0:0|0:0|0:0|0:0,0:0:0:0:
18,131,98307,5,6,0:0:0:0:
244,107,98534,1,6,0:0:0:0:
151,314,98761,1,6,0:0:0:0:
151,314,99443,6,0,L|97:324,2,41.9999987182618,0|0|0,0:0|0:0|0:0,0:0:0:0:
468,262,100125,6,0,P|409:261|361:231,1,105.000004005432,6|0,0:0|0:0,0:0:0:0:
314,96,100580,1,12,0:0:0:0:
439,152,100807,1,0,0:0:0:0:
251,216,101034,2,0,P|193:209|146:175,1,105.000004005432,4|0,0:0|0:0,0:0:0:0:
25,42,101489,6,0,B|18:23|37:11|52:27|41:43|41:43|18:86|34:132,1,140,14|0,0:0|0:0,0:0:0:0:
120,316,101943,6,0,B|93:265|93:265|84:210,1,105.000004005432,6|0,0:0|0:0,0:0:0:0:
167,95,102398,1,12,0:0:0:0:
181,232,102625,1,0,0:0:0:0:
324,114,102852,6,0,B|358:97|392:111|427:125|460:113,1,140,6|0,0:0|0:0,0:0:0:0:
477,19,103307,6,0,P|461:95|389:87,1,140,14|0,0:0|0:0,0:0:0:0:
138,17,103761,6,0,P|175:47|169:149,1,140,6|0,0:0|0:0,0:0:0:0:
53,203,104216,1,12,0:0:0:0:
94,98,104443,1,0,0:0:0:0:
236,273,104670,1,4,0:0:0:0:
124,290,104898,1,0,0:0:0:0:
205,79,105125,1,14,0:0:0:0:
348,255,105352,1,0,0:0:0:0:
108,292,105580,6,0,P|57:262|31:211,1,105.000004005432,6|0,0:0|0:0,0:0:0:0:
110,311,106034,2,0,P|62:289|16:226,1,105.000004005432,12|0,0:0|0:0,0:0:0:0:
14,215,106375,1,0,0:0:0:0:
14,199,106489,1,6,0:0:0:0:
189,97,106716,5,0,0:0:0:0:
178,183,106943,1,14,0:0:0:0:
192,83,107170,1,0,0:0:0:0:
303,308,107398,6,0,P|282:253|237:218,1,105.000004005432,6|0,0:0|0:0,0:0:0:0:
99,213,107852,1,12,0:0:0:0:
188,317,108080,1,0,0:0:0:0:
179,125,108307,2,0,P|208:75|258:46,1,105.000004005432,4|0,0:0|0:0,0:0:0:0:
387,58,108761,6,0,B|427:67|459:57|484:34|484:34|476:57|460:67,1,140,14|0,0:0|0:0,0:0:0:0:
153,5,109216,6,0,B|208:21|208:21|253:54,1,105.000004005432,6|0,0:0|0:0,0:0:0:0:
246,211,109670,1,12,0:0:0:0:
334,106,109898,1,0,0:0:0:0:
136,159,110125,6,0,B|114:198|118:243|146:273|146:273|153:249|138:222,1,157.500006008148,6|0,0:0|0:0,0:0:0:0:
94,227,110580,6,0,B|101:265|120:293|145:313|145:313|122:308|94:312,1,140,14|0,0:0|0:0,0:0:0:0:
128,63,111034,6,0,P|94:130|145:159,1,140,6|0,0:0|0:0,0:0:0:0:
330,180,111489,1,12,0:0:0:0:
229,223,111716,1,0,0:0:0:0:
251,2,111944,5,6,0:0:0:0:
330,180,112170,1,0,0:0:0:0:
136,159,112398,1,12,0:0:0:0:
343,64,112625,1,0,0:0:0:0:
222,271,112852,5,6,0:0:0:0:
299,258,113080,1,0,0:0:0:0:
215,145,113307,1,14,0:0:0:0:
136,159,113534,2,0,L|84:168,1,52.5000020027161,2|4,0:0|0:0,0:0:0:0:
32,178,113989,5,0,0:0:0:0:
224,259,114216,1,14,0:0:0:0:
16,172,114443,1,4,0:0:0:0:
165,355,114670,6,0,P|125:312|112:257,1,105.000004005432,6|0,0:0|0:0,0:0:0:0:
164,136,115125,1,12,0:0:0:0:
32,178,115352,1,0,0:0:0:0:
224,259,115580,2,0,P|281:267|335:247,1,105.000004005432,4|0,0:0|0:0,0:0:0:0:
251,59,116034,6,0,B|252:38|231:31|221:50|235:63|235:63|269:99|265:148,1,140,14|0,0:0|0:0,0:0:0:0:
215,362,116489,6,0,B|228:305|228:305|222:249,1,105.000004005432,6|0,0:0|0:0,0:0:0:0:
164,136,116943,1,12,0:0:0:0:
89,249,117170,1,0,0:0:0:0:
304,157,117398,6,0,B|341:159|368:134|397:109|432:110,1,140,6|0,0:0|0:0,0:0:0:0:
512,91,117853,6,0,B|483:117|446:115|409:114|382:137,1,140,14|0,0:0|0:0,0:0:0:0:
376,310,118307,5,6,0:0:0:0:
446,223,118534,1,0,0:0:0:0:
231,249,118761,5,12,0:0:0:0:
357,153,118989,1,0,0:0:0:0:
98,105,119216,5,4,0:0:0:0:
289,61,119443,1,0,0:0:0:0:
231,249,119670,1,14,0:0:0:0:
87,96,119898,1,0,0:0:0:0:
304,58,120125,6,0,P|353:68|392:104,1,105.000004005432,6|0,0:0|0:0,0:0:0:0:
295,39,120580,2,0,P|346:48|407:96,1,105.000004005432,12|0,0:0|0:0,0:0:0:0:
413,106,120920,1,0,0:0:0:0:
419,123,121034,1,6,0:0:0:0:
230,88,121261,5,0,0:0:0:0:
255,171,121488,1,14,0:0:0:0:
225,76,121715,1,0,0:0:0:0:
245,284,121943,6,0,P|265:228|254:172,1,105.000004005432,6|0,0:0|0:0,0:0:0:0:
143,82,122398,1,12,0:0:0:0:
152,220,122625,1,0,0:0:0:0:
35,120,122852,2,0,P|30:68|48:19,1,105.000004005432,4|0,0:0|0:0,0:0:0:0:
252,53,123307,6,0,B|264:92|255:124|233:151|233:151|250:134|270:127,1,140,14|0,0:0|0:0,0:0:0:0:
455,54,123761,6,0,B|427:105|427:105|419:159,1,105.000004005432,6|0,0:0|0:0,0:0:0:0:
486,332,124216,1,12,0:0:0:0:
512,196,124443,1,0,0:0:0:0:
364,334,124670,6,0,B|321:345|279:329|257:294|257:294|282:294|304:315,1,157.500006008148,6|0,0:0|0:0,0:0:0:0:
377,343,125125,6,0,B|414:362|447:361|478:345|478:345|464:365|446:371,1,140,14|0,0:0|0:0,0:0:0:0:
343,226,125580,6,0,L|322:108,1,105.000004005432,6|0,0:0|0:0,0:0:0:0:
301,1,126034,1,12,0:0:0:0:
248,219,126261,1,0,0:0:0:0:
248,219,126375,1,0,0:0:0:0:
248,219,126489,6,0,L|232:125,1,83.9999974365235,6|0,0:0|0:0,0:0:0:0:
214,38,126943,1,14,0:0:0:0:
153,212,127170,1,0,0:0:0:0:
153,212,127398,6,0,L|141:141,1,62.9999980773926,6|0,0:0|0:0,0:0:0:0:
129,74,127852,1,12,0:0:0:0:
58,205,128080,1,0,0:0:0:0:
58,205,128193,1,0,0:0:0:0:
58,205,128307,6,0,B|52:239|73:267|94:296|91:328,1,125.999996154785,6|0,0:0|0:0,0:0:0:0:
0,327,128762,1,14,0:0:0:0:
153,212,128989,1,4,0:0:0:0:
296,366,129216,6,0,B|213:381|157:324|177:259|222:234|260:250|268:289|239:303,1,251.999992309571,6|0,0:0|0:0,0:0:0:0:
153,212,130125,2,0,B|185:180|229:167|270:177|288:200|324:204|344:176|339:145|320:128|293:131|281:145|287:167,1,251.999992309571,6|0,0:0|0:0,0:0:0:0:
325,358,131034,6,0,P|415:281|415:218,1,167.999994873047,6|12,0:1|0:0,0:0:0:0:
393,141,131716,1,0,0:0:0:0:
306,244,131943,2,0,P|185:244|146:196,1,167.999994873047,6|12,0:0|0:0,0:0:0:0:
255,98,132625,1,0,0:0:0:0:
251,123,132739,1,0,0:0:0:0:
247,148,132852,6,0,L|226:255,1,83.9999974365235,6|0,0:0|0:0,0:0:0:0:
133,324,133307,2,0,L|152:217,1,83.9999974365235,12|0,0:0|0:0,0:0:0:0:
320,227,133761,2,0,B|321:273|294:303|266:337|264:385,1,167.999994873047,6|12,0:0|0:0,0:0:0:0:
364,384,134443,1,0,0:0:0:0:
425,265,134670,6,0,P|401:149|346:120,1,167.999994873047,6|12,0:0|0:0,0:0:0:0:
320,227,135352,1,0,0:0:0:0:
245,339,135580,2,0,P|131:376|79:342,1,167.999994873047,6|12,0:0|0:0,0:0:0:0:
28,240,136262,1,0,0:0:0:0:
53,244,136376,1,0,0:0:0:0:
78,248,136489,6,0,L|185:269,1,83.9999974365235,6|0,0:0|0:0,0:0:0:0:
103,96,136943,2,0,L|138:199,1,83.9999974365235,12|0,0:0|0:0,0:0:0:0:
247,41,137398,2,0,L|175:123,1,83.9999974365235,6|0,0:0|0:0,0:0:0:0:
366,137,137852,2,0,L|259:116,1,83.9999974365235,14|0,0:0|0:0,0:0:0:0:
341,289,138307,6,0,B|320:273|307:244|308:218|308:218|277:224|250:219|224:202,1,167.999994873047,6|12,0:0|0:0,0:0:0:0:
146,138,138989,1,0,0:0:0:0:
249,50,139216,2,0,B|270:66|283:95|282:121|282:121|313:115|340:120|366:137,1,167.999994873047,6|12,0:0|0:0,0:0:0:0:
308,218,139898,1,0,0:0:0:0:
305,243,140011,1,0,0:0:0:0:
300,268,140125,6,0,L|281:374,1,83.9999974365235,6|0,0:0|0:0,0:0:0:0:
181,204,140580,2,0,L|195:285,1,83.9999974365235,12|0,0:0|0:0,0:0:0:0:
96,112,141034,2,0,B|94:137|75:157|59:183|59:227|91:272,1,167.999994873047,6|12,0:0|0:0,0:0:0:0:
181,204,141716,1,0,0:0:0:0:
264,308,141943,6,0,B|306:311|345:284|345:284|390:296|426:279,1,167.999994873047,6|12,0:0|0:0,0:0:0:0:
492,191,142625,1,0,0:0:0:0:
358,178,142852,2,0,B|314:173|275:199|275:199|230:187|194:205,1,167.999994873047,6|12,0:0|0:0,0:0:0:0:
131,331,143534,1,0,0:0:0:0:
156,327,143648,1,0,0:0:0:0:
181,323,143761,6,0,L|288:304,1,83.9999974365235,6|0,0:0|0:0,0:0:0:0:
358,178,144216,2,0,L|250:196,1,83.9999974365235,12|0,0:0|0:0,0:0:0:0:
408,281,144670,2,0,L|491:267,1,83.9999974365235,4|0,0:0|0:0,0:0:0:0:
358,178,145125,1,12,0:0:0:0:
264,256,145352,1,4,0:0:0:0:
170,331,145580,6,0,L|155:249,3,70,6|4|4|4,0:1|0:0|0:0|0:0,0:0:0:0:
255,261,147170,1,0,0:0:0:0:
255,261,147398,6,0,L|271:179,3,70,6|4|4|4,0:0|0:0|0:0|0:0,0:0:0:0:
170,191,148989,1,0,0:0:0:0:
170,191,149216,6,0,L|155:109,3,70,6|4|4|4,0:0|0:0|0:0|0:0,0:0:0:0:
255,121,150806,1,0,0:0:0:0:
255,121,151034,5,6,0:0:0:0:
340,173,151261,1,0,0:0:0:0:
340,173,151375,1,0,0:0:0:0:
340,173,151489,1,4,0:0:0:0:
278,250,151717,1,0,0:0:0:0:
362,301,151944,1,4,0:0:0:0:
194,199,152170,6,0,P|152:190|106:207,1,84,6|0,0:0|0:0,0:0:0:0:
102,210,152625,1,4,0:0:0:0:
255,121,152852,5,6,0:0:0:0:
160,273,153307,1,4,0:0:0:0:
160,273,153534,2,0,L|215:263,1,56,0|4,0:0|0:0,0:0:0:0:
237,182,153989,1,0,0:0:0:0:
237,182,154216,2,0,P|267:184|292:191,1,56,4|0,0:0|0:0,0:0:0:0:
399,223,154670,6,0,P|382:183|390:134,1,84,6|0,0:0|0:0,0:0:0:0:
404,105,155125,1,4,0:0:0:0:
404,105,155352,2,0,L|349:94,1,56,0|4,0:0|0:0,0:0:0:0:
266,79,155807,1,0,0:0:0:0:
187,107,156034,1,4,0:0:0:0:
110,72,156261,1,0,0:0:0:0:
55,170,156489,5,6,0:0:0:0:
190,272,156943,2,0,P|218:265|242:253,1,56,4|0,0:0|0:0,0:0:0:0:
190,187,157398,2,0,P|161:193|137:205,1,56,4|0,0:0|0:0,0:0:0:0:
106,285,157852,1,4,0:0:0:0:
159,352,158079,1,0,0:0:0:0:
269,373,158307,6,0,L|324:382,1,56,6|0,0:0|0:0,0:0:0:0:
328,299,158761,2,0,L|383:308,1,56,4|0,0:0|0:0,0:0:0:0:
387,224,159216,1,4,0:0:0:0:
274,151,159443,6,0,L|330:142,1,56,2|4,0:0|0:0,0:0:0:0:
411,126,159898,1,0,0:0:0:0:
276,263,160125,6,0,P|210:244|168:189,1,140,6|12,0:1|0:0,0:0:0:0:
178,78,160807,2,0,L|102:64,1,70,2|4,0:0|0:0,0:0:0:0:
0,44,161261,1,0,0:0:0:0:
37,149,161489,2,0,P|45:190|36:232,1,70,12|0,0:0|0:0,0:0:0:0:
13,384,161943,6,0,P|56:350|108:348,1,105,6|0,0:0|0:0,0:0:0:0:
137,358,162398,2,0,L|211:344,1,70,12|2,0:0|0:0,0:0:0:0:
292,274,162852,2,0,B|223:261|223:261|154:273,1,140,4|12,0:0|0:0,0:0:0:0:
44,295,163534,1,0,0:0:0:0:
163,176,163761,6,0,P|117:176|78:159,1,70,6|0,0:0|0:0,0:0:0:0:
169,86,164216,2,0,P|208:99|239:126,1,70,12|0,0:0|0:0,0:0:0:0:
193,284,164670,1,6,0:0:0:0:
163,176,164898,1,0,0:0:0:0:
198,297,165125,1,12,0:0:0:0:
248,137,165352,1,0,0:0:0:0:
292,299,165580,6,0,P|315:262|353:239,1,70,6|0,0:0|0:0,0:0:0:0:
436,297,166034,2,0,P|463:276|482:246,1,70,12|0,0:0|0:0,0:0:0:0:
489,134,166490,1,4,0:0:0:0:
336,204,166717,5,2,0:0:0:0:
368,220,166944,1,12,0:0:0:0:
405,218,167171,1,0,0:0:0:0:
278,107,167398,6,0,P|210:118|164:170,1,140,6|12,0:0|0:0,0:0:0:0:
267,215,168080,2,0,L|343:202,1,70,2|4,0:0|0:0,0:0:0:0:
413,284,168534,1,0,0:0:0:0:
460,182,168761,1,12,0:0:0:0:
349,200,168989,1,0,0:0:0:0:
449,64,169216,6,0,P|398:85|346:73,1,105,6|0,0:0|0:0,0:0:0:0:
320,58,169670,1,12,0:0:0:0:
320,58,169898,2,0,L|333:133,1,70,2|4,0:0|0:0,0:0:0:0:
347,237,170352,1,0,0:0:0:0:
241,198,170579,1,12,0:0:0:0:
360,242,170807,1,0,0:0:0:0:
189,331,171034,6,0,P|235:281|242:212,1,140,6|12,0:0|0:0,0:0:0:0:
202,107,171716,1,0,0:0:0:0:
72,213,171943,2,0,P|102:231|137:237,1,70,6|0,0:0|0:0,0:0:0:0:
246,218,172398,1,12,0:0:0:0:
275,111,172625,1,0,0:0:0:0:
163,235,172852,6,0,L|250:219,1,70,6|0,0:0|0:0,0:0:0:0:
358,97,173307,2,0,L|272:111,1,70,12|0,0:0|0:0,0:0:0:0:
152,248,173761,2,0,L|239:232,1,70,4|2,0:0|0:0,0:0:0:0:
368,83,174216,1,12,0:0:0:0:
302,218,174443,1,4,0:0:0:0:
240,23,174670,6,0,P|156:51|206:107,1,175,6|0,0:0|0:0,0:0:0:0:
221,108,175352,1,4,0:0:0:0:
305,81,175580,1,4,0:0:0:0:
286,167,175807,2,0,L|273:235,2,70,0|0|0,0:0|0:0|0:0,0:0:0:0:
305,81,176489,5,2,0:0:0:0:
385,56,176716,2,0,L|366:162,1,105,4|0,0:0|0:0,0:0:0:0:
361,194,177170,1,4,0:0:0:0:
278,174,177398,2,0,P|236:175|199:194,1,70,4|0,0:0|0:0,0:0:0:0:
393,121,177852,2,0,B|359:110|359:110|323:109,1,70,8|0,0:0|0:0,0:0:0:0:
260,257,178307,6,0,P|312:327|238:344,1,175,6|0,0:0|0:0,0:0:0:0:
227,342,178989,1,4,0:0:0:0:
177,274,179216,1,4,0:0:0:0:
260,257,179444,2,0,L|328:245,2,70,0|0|0,0:0|0:0|0:0,0:0:0:0:
177,274,180126,5,2,0:0:0:0:
108,226,180352,2,0,B|89:333,1,105,4|0,0:0|0:0,0:0:0:0:
85,364,180807,1,4,0:0:0:0:
16,315,181034,2,0,P|0:276|0:234,1,70,4|0,0:0|0:0,0:0:0:0:
62,47,181489,1,14,0:0:0:0:
103,32,181602,1,0,0:0:0:0:
144,44,181716,1,0,0:0:0:0:
186,56,181829,1,0,0:0:0:0:
227,45,181943,6,0,B|251:47|275:27|308:29,1,83.9999974365235,6|0,0:0|0:0,0:0:0:0:
408,43,182398,1,12,0:0:0:0:
306,147,182625,2,0,B|273:145|249:165|225:163,2,83.9999974365235,0|6|0,0:0|0:0|0:0,0:0:0:0:
406,161,183307,1,12,0:0:0:0:
304,265,183534,6,0,B|271:263|247:283|223:281,2,83.9999974365235,0|6|0,0:0|0:0|0:0,0:0:0:0:
404,279,184216,1,12,0:0:0:0:
306,147,184443,2,0,L|220:132,1,83.9999974365235,0|6,0:0|0:0,0:0:0:0:
173,44,184898,1,0,0:0:0:0:
193,222,185125,1,14,0:0:0:0:
199,245,185238,1,0,0:0:0:0:
210,268,185352,1,0,0:0:0:0:
224,288,185466,1,0,0:0:0:0:
244,305,185580,6,0,P|290:324|338:321,1,83.9999974365235,6|0,0:0|0:0,0:0:0:0:
472,246,186034,1,12,0:0:0:0:
342,211,186261,1,0,0:0:0:0:
425,357,186489,1,4,0:0:0:0:
478,233,186716,1,0,0:0:0:0:
323,324,186943,1,12,0:0:0:0:
420,148,187170,1,0,0:0:0:0:
223,255,187398,6,0,B|180:274|140:257|98:240|58:254,1,167.999994873047,6|12,0:0|0:0,0:0:0:0:
212,368,188080,2,0,P|261:361|301:334,2,83.9999974365235,0|4|0,0:0|0:0|0:0,0:0:0:0:
58,255,188761,2,0,L|22:261,5,27.9999991455078,14|0|0|0|0|0,0:0|0:0|0:0|0:0|0:0|0:0,0:0:0:0:
0,267,189216,5,6,0:0:0:0:
212,368,189443,1,6,0:0:0:0:
194,134,189670,1,6,0:0:0:0:
194,134,190352,6,0,L|140:144,2,41.9999987182618,0|0|0,0:0|0:0|0:0,0:0:0:0:
481,93,191034,6,0,P|426:113|391:158,1,105.000004005432,6|0,0:0|0:0,0:0:0:0:
349,318,191489,1,12,0:0:0:0:
295,193,191716,1,0,0:0:0:0:
202,345,191943,2,0,P|160:376|108:384,1,105.000004005432,4|0,0:0|0:0,0:0:0:0:
14,187,192398,6,0,B|-4:178|0:156|22:157|26:176|26:176|40:223|84:244,1,140,14|0,0:0|0:0,0:0:0:0:
293,270,192852,6,0,B|235:262|235:262|185:238,1,105.000004005432,6|0,0:0|0:0,0:0:0:0:
154,77,193307,1,12,0:0:0:0:
267,152,193534,1,0,0:0:0:0:
68,211,193761,6,0,B|103:195|137:209|172:223|205:211,1,140,6|0,0:0|0:0,0:0:0:0:
267,152,194216,6,0,P|211:164|185:240,1,140,14|0,0:0|0:0,0:0:0:0:
380,268,194670,5,6,0:0:0:0:
272,307,194898,1,0,0:0:0:0:
399,157,195125,1,12,0:0:0:0:
465,339,195352,1,0,0:0:0:0:
291,196,195580,1,4,0:0:0:0:
484,229,195807,1,0,0:0:0:0:
359,379,196034,1,14,0:0:0:0:
286,183,196261,1,0,0:0:0:0:
153,345,196489,6,0,P|93:350|43:322,1,105.000004005432,6|0,0:0|0:0,0:0:0:0:
165,359,196943,2,0,P|113:367|39:342,1,105.000004005432,12|0,0:0|0:0,0:0:0:0:
31,335,197284,1,0,0:0:0:0:
20,324,197398,1,6,0:0:0:0:
236,320,197625,5,0,0:0:0:0:
188,246,197852,1,14,0:0:0:0:
242,331,198079,1,0,0:0:0:0:
174,134,198307,6,0,P|197:187|190:243,1,105.000004005432,6|0,0:0|0:0,0:0:0:0:
112,378,198761,1,12,0:0:0:0:
242,331,198989,1,0,0:0:0:0:
82,205,199216,2,0,P|58:151|65:95,1,105.000004005432,4|0,0:0|0:0,0:0:0:0:
93,216,199670,6,0,B|120:246|152:256|186:251|186:251|166:266|147:265,1,140,14|0,0:0|0:0,0:0:0:0:
68,92,200125,6,0,B|119:119|119:119|174:128,1,105.000004005432,6|0,0:0|0:0,0:0:0:0:
323,111,200580,1,12,0:0:0:0:
262,205,200807,1,0,0:0:0:0:
449,92,201034,6,0,B|410:70|365:74|335:102|335:102|359:109|386:94,1,157.500006008148,6|0,0:0|0:0,0:0:0:0:
378,56,201489,6,0,B|339:52|312:77|284:102|249:102,1,140,14|0,0:0|0:0,0:0:0:0:
78,19,201943,6,0,P|3:28|7:85,1,140,6|0,0:0|0:0,0:0:0:0:
122,194,202398,1,12,0:0:0:0:
169,93,202625,1,0,0:0:0:0:
298,275,202852,5,6,0:0:0:0:
281,81,203079,1,0,0:0:0:0:
122,194,203307,1,12,0:0:0:0:
346,178,203534,1,0,0:0:0:0:
205,340,203761,5,6,0:0:0:0:
284,357,203989,1,0,0:0:0:0:
203,208,204216,1,14,0:0:0:0:
122,194,204443,2,0,L|68:183,1,52.5000020027161,2|4,0:0|0:0,0:0:0:0:
18,172,204899,5,0,0:0:0:0:
210,91,205126,1,14,0:0:0:0:
6,179,205353,1,4,0:0:0:0:
279,177,205580,6,0,P|222:194|184:235,1,105.000004005432,6|0,0:0|0:0,0:0:0:0:
127,377,206034,1,12,0:0:0:0:
76,249,206261,1,0,0:0:0:0:
239,336,206489,2,0,P|295:318|333:277,1,105.000004005432,4|0,0:0|0:0,0:0:0:0:
357,81,206943,6,0,B|356:60|334:55|326:75|341:87|341:87|378:119|379:168,1,140,14|0,0:0|0:0,0:0:0:0:
363,373,207398,6,0,B|355:315|355:315|331:265,1,105.000004005432,6|0,0:0|0:0,0:0:0:0:
171,202,207852,1,12,0:0:0:0:
239,336,208080,1,0,0:0:0:0:
51,215,208307,6,0,B|43:177|66:147|88:117|85:81,1,140,6|0,0:0|0:0,0:0:0:0:
36,142,208761,6,0,B|19:177|20:211|29:242|29:242|8:221|7:196,1,140,14|0,0:0|0:0,0:0:0:0:
171,202,209216,5,6,0:0:0:0:
124,303,209443,1,0,0:0:0:0:
262,138,209670,5,12,0:0:0:0:
235,294,209898,1,0,0:0:0:0:
308,37,210125,5,4,0:0:0:0:
382,239,210352,1,0,0:0:0:0:
171,202,210580,1,14,0:0:0:0:
317,27,210807,1,0,0:0:0:0:
235,294,211034,6,0,P|188:329|130:332,1,105.000004005432,6|0,0:0|0:0,0:0:0:0:
254,299,211489,2,0,P|215:334|139:351,1,105.000004005432,12|0,0:0|0:0,0:0:0:0:
129,350,211829,1,0,0:0:0:0:
113,344,211943,1,6,0:0:0:0:
246,202,212170,5,0,0:0:0:0:
325,234,212397,1,14,0:0:0:0:
234,195,212624,1,0,0:0:0:0:
369,383,212852,6,0,P|330:339|276:320,1,105.000004005432,6|0,0:0|0:0,0:0:0:0:
111,330,213307,1,12,0:0:0:0:
219,230,213534,1,0,0:0:0:0:
39,176,213761,2,0,P|8:134|0:82,1,105.000004005432,4|0,0:0|0:0,0:0:0:0:
157,0,214216,6,0,B|158:40|141:69|113:89|113:89|134:77|155:76,1,140,14|0,0:0|0:0,0:0:0:0:
369,104,214670,6,0,B|311:106|311:106|259:125,1,105.000004005432,6|0,0:0|0:0,0:0:0:0:
93,182,215125,1,12,0:0:0:0:
187,79,215352,1,0,0:0:0:0:
145,294,215580,6,0,B|106:315|61:311|31:283|31:283|55:276|82:291,1,157.500006008148,6|0,0:0|0:0,0:0:0:0:
156,301,216034,6,0,B|193:311|224:291|256:271|291:278,1,140,14|0,0:0|0:0,0:0:0:0:
475,321,216489,6,0,L|495:202,1,105.000004005432,6|0,0:0|0:0,0:0:0:0:
512,95,216943,1,12,0:0:0:0:
388,281,217170,1,0,0:0:0:0:
388,281,217284,1,0,0:0:0:0:
388,281,217398,6,0,L|405:187,1,83.9999974365235,6|0,0:0|0:0,0:0:0:0:
418,100,217852,1,14,0:0:0:0:
301,242,218079,1,0,0:0:0:0:
301,242,218307,6,0,L|314:171,1,62.9999980773926,6|0,0:0|0:0,0:0:0:0:
325,104,218761,1,12,0:0:0:0:
214,203,218989,1,0,0:0:0:0:
214,203,219102,1,0,0:0:0:0:
214,203,219216,6,0,B|201:241|204:273|226:299|226:299|222:283|230:263,1,125.999996154785,6|0,0:0|0:0,0:0:0:0:
301,242,219670,1,14,0:0:0:0:
124,191,219898,1,4,0:0:0:0:
276,40,220125,6,0,B|202:15|154:28|140:67|143:101|162:129|192:135|217:122|221:97|209:81|189:81,1,251.999992309571,6|0,0:0|0:0,0:0:0:0:
45,74,221034,2,0,B|30:81|13:74|3:49|16:26|44:13|75:24|81:60|63:84|65:126|88:166|126:192,1,251.999992309571,6|0,0:0|0:0,0:0:0:0:
285,272,221943,6,0,P|243:277|207:300,1,83.9999974365235,6|0,0:0|0:0,0:0:0:0:
275,260,222398,2,0,B|229:258|199:285|165:313|117:315,2,167.999994873047,12|4|12,0:0|0:0|0:0,0:0:0:0:
386,278,223534,1,0,0:0:0:0:
411,283,223648,1,0,0:0:0:0:
436,288,223761,6,0,P|478:283|514:260,1,83.9999974365235,6|0,0:0|0:0,0:0:0:0:
431,304,224216,2,0,B|344:319,1,83.9999974365235,12|0,0:0|0:0,0:0:0:0:
142,241,224670,2,0,P|184:246|220:269,1,83.9999974365235,6|0,0:0|0:0,0:0:0:0:
137,225,225125,2,0,B|50:210,1,83.9999974365235,12|0,0:0|0:0,0:0:0:0:
312,151,225580,6,0,P|419:102|435:42,1,167.999994873047,6|12,0:0|0:0,0:0:0:0:
324,39,226261,1,0,0:0:0:0:
210,197,226489,2,0,P|265:255|328:262,1,125.999996154785,6|0,0:0|0:0,0:0:0:0:
348,257,226943,1,12,0:0:0:0:
312,151,227170,1,0,0:0:0:0:
457,279,227398,6,0,P|377:365|315:362,1,167.999994873047,6|12,0:0|0:0,0:0:0:0:
142,289,228080,1,0,0:0:0:0:
117,294,228194,1,0,0:0:0:0:
92,299,228307,2,0,L|-15:320,1,83.9999974365235,6|0,0:0|0:0,0:0:0:0:
99,190,228761,1,14,0:0:0:0:
230,219,228988,1,4,0:0:0:0:
363,250,229216,6,0,B|387:262|428:264|465:254|487:242|490:226|487:212|474:204|460:206|457:220,1,167.999994873047,6|12,0:0|0:0,0:0:0:0:
345,363,229898,2,0,P|304:350|273:321,1,83.9999974365235,0|4,0:0|0:0,0:0:0:0:
230,219,230352,1,0,0:0:0:0:
291,139,230580,1,14,0:0:0:0:
253,46,230807,1,0,0:0:0:0:
389,158,231034,6,0,P|431:160|470:143,1,83.9999974365235,6|0,0:0|0:0,0:0:0:0:
291,139,231489,2,0,L|398:160,1,83.9999974365235,12|0,0:0|0:0,0:0:0:0:
157,200,231943,1,6,0:0:0:0:
277,231,232170,1,0,0:0:0:0:
142,195,232398,1,14,0:0:0:0:
291,139,232625,1,0,0:0:0:0:
163,306,232852,6,0,B|118:315|83:294|45:272|-2:279,1,167.999994873047,6|12,0:0|0:0,0:0:0:0:
142,195,233534,1,0,0:0:0:0:
167,190,233648,1,0,0:0:0:0:
192,185,233761,2,0,B|258:172|258:172|315:183|354:155,1,167.999994873047,6|12,0:0|0:0,0:0:0:0:
293,69,234443,1,0,0:0:0:0:
258,276,234670,6,0,B|300:293|337:278|379:263|425:278,1,167.999994873047,6|12,0:0|0:0,0:0:0:0:
296,170,235353,1,0,0:0:0:0:
271,165,235467,1,0,0:0:0:0:
247,159,235580,2,0,L|140:139,1,83.9999974365235,6|0,0:0|0:0,0:0:0:0:
88,129,235921,1,4,0:0:0:0:
63,124,236035,1,14,0:0:0:0:
139,238,236261,1,6,0:0:0:0:
214,352,236489,6,0,B|265:368|316:355|346:314|346:314|375:356,2,195.999994018555,6|12|4,0:1|0:0|0:0,0:0:0:0:
99,339,237625,1,0,0:0:0:0:
255,246,237852,1,14,0:0:0:0:
140,233,238080,1,0,0:0:0:0:
296,140,238307,6,0,B|336:117|349:79|361:30|389:20|389:20|378:41|378:70,1,195.999994018555,6|12,0:0|0:0,0:0:0:0:
410,204,238989,1,0,0:0:0:0:
413,229,239103,1,0,0:0:0:0:
416,254,239216,2,0,B|421:306|460:326|500:317|523:279|506:246|506:246|497:262|480:277,1,195.999994018555,6|12,0:0|0:0,0:0:0:0:
336,338,239898,1,0,0:0:0:0:
195,170,240125,6,0,B|152:156|116:170|83:198|48:178|48:178|73:127,2,195.999994018555,6|12|4,0:0|0:0|0:0,0:0:0:0:
305,205,241261,1,0,0:0:0:0:
159,277,241489,1,14,0:0:0:0:
267,312,241715,1,0,0:0:0:0:
121,384,241943,6,0,B|72:366|47:327|46:276|46:276|46:305|22:332,1,195.999994018555,6|12,0:0|0:0,0:0:0:0:
21,165,242625,2,0,L|29:117,2,32.6666656697591,0|0|0,0:0|0:0|0:0,0:0:0:0:
16,197,242852,2,0,B|54:170|101:177|130:215|127:257|127:257|130:234|145:218,1,195.999994018555,6|12,0:0|0:0,0:0:0:0:
231,97,243534,1,0,0:0:0:0:
200,328,243761,6,0,B|194:367|194:367|228:340|269:360|312:379|350:356,1,195.999994018555,6|12,0:1|0:0,0:0:0:0:
447,252,244443,1,0,0:0:0:0:
452,227,244557,1,0,0:0:0:0:
458,202,244670,2,0,L|478:95,1,97.9999970092774,6|0,0:0|0:0,0:0:0:0:
340,193,245125,2,0,P|311:243|259:270,1,97.9999970092774,14|0,0:0|0:0,0:0:0:0:
311,92,245580,6,0,B|356:79|392:96|428:114|463:106|463:106|447:120|419:124,1,195.999994018555,6|12,0:0|0:0,0:0:0:0:
186,152,246261,1,0,0:0:0:0:
181,177,246375,1,0,0:0:0:0:
175,202,246489,1,6,0:0:0:0:
148,316,246716,1,0,0:0:0:0:
0,195,246943,2,0,B|39:196|65:173|95:148|137:146,1,146.999995513916,14|0,0:0|0:0,0:0:0:0:
186,152,247398,6,0,B|143:154|115:123|84:104|50:103|50:103|78:93|94:75,2,195.999994018555,6|12|4,0:0|0:0|0:0,0:0:0:0:
284,97,248534,1,0,0:0:0:0:
252,241,248761,1,14,0:0:0:0:
288,84,248989,1,0,0:0:0:0:
369,283,249216,6,0,P|322:247|264:241,1,97.9999970092774,6|0,0:0|0:0,0:0:0:0:
371,266,249670,2,0,B|344:231|303:230|268:218|246:193|246:193|256:221|252:245,2,195.999994018555,12|4|12,0:0|0:0|0:0,0:0:0:0:
422,384,250807,2,0,L|432:330,1,48.9999985046387,6|0,0:0|0:0,0:0:0:0:
458,187,251034,6,0,B|403:193|353:169|329:125|329:125|361:115|414:136,1,224,6|0,0:0|0:0,0:0:0:0:
471,185,252170,2,0,L|525:175,2,41.9999987182618,0|0|0,0:0|0:0|0:0,0:0:0:0:
429,193,252852,6,0,P|444:229|447:277,2,83.9999974365235,2|0|2,0:0|0:0|0:0,0:0:0:0:
381,123,254216,1,0,0:0:0:0:
381,123,254443,2,0,L|435:113,2,41.9999987182618,0|2|0,0:0|0:0|0:0,0:0:0:0:
341,110,255125,2,0,L|299:117,1,41.9999987182618,0|0,0:0|0:0,0:0:0:0:
258,126,255580,1,2,0:0:0:0:
298,218,256034,2,0,L|257:226,1,41.9999987182618,0|0,0:0|0:0,0:0:0:0:
215,234,256489,6,0,P|213:272|226:319,2,83.9999974365235,2|0|2,0:0|0:0|0:0,0:0:0:0:
243,155,257852,1,0,0:0:0:0:
243,155,258079,2,0,L|190:145,1,41.9999987182618,0|2,0:0|0:0,0:0:0:0:
162,160,258533,1,0,0:0:0:0:
162,160,258761,2,0,L|65:142,1,83.9999974365235,0|2,0:0|0:0,0:0:0:0:
38,136,259443,2,0,L|47:82,2,41.9999987182618,0|0|0,0:0|0:0|0:0,0:0:0:0:
12,254,260125,6,0,L|-2:331,1,70,4|0,0:0|0:0,0:0:0:0:
135,304,260580,2,0,L|121:381,1,70,4|0,0:0|0:0,0:0:0:0:
258,354,261034,1,4,0:0:0:0:
262,340,261489,2,0,L|276:262,1,70,4|0,0:0|0:0,0:0:0:0:
308,92,261943,6,0,L|239:103,1,70,4|0,0:0|0:0,0:0:0:0:
59,136,262398,2,0,L|70:205,1,70,4|0,0:0|0:0,0:0:0:0:
103,384,262852,1,4,0:0:0:0:
117,381,263307,2,0,L|195:367,1,70,4|0,0:0|0:0,0:0:0:0:
418,330,263761,6,0,L|409:280,3,41.9999987182618,4|0|0|0,0:0|0:0|0:0|0:0,0:0:0:0:
488,253,264216,2,0,L|496:203,3,41.9999987182618,4|0|0|0,0:0|0:0|0:0|0:0,0:0:0:0:
418,176,264670,2,0,L|409:126,3,41.9999987182618,4|0|0|0,0:0|0:0|0:0|0:0,0:0:0:0:
488,99,265125,2,0,L|496:49,3,41.9999987182618,4|0|0|0,0:0|0:0|0:0|0:0,0:0:0:0:
397,39,265580,6,0,L|347:47,3,48.9999985046387,12|8|8|8,0:0|0:0|0:0|0:0,0:0:0:0:
312,139,266034,2,0,L|262:147,3,48.9999985046387,12|8|8|8,0:0|0:0|0:0|0:0,0:0:0:0:
166,164,266489,5,12,0:0:0:0:
127,192,266602,1,8,0:0:0:0:
117,239,266716,1,8,0:0:0:0:
142,280,266829,1,8,0:0:0:0:
188,294,266943,1,12,0:0:0:0:
235,287,267056,1,8,0:0:0:0:
284,278,267170,1,8,0:0:0:0:
332,283,267283,1,8,0:0:0:0:
372,310,267397,5,6,0:0:0:0:
337,116,267624,1,6,0:0:0:0:
144,151,267852,1,6,0:0:0:0:
179,344,268080,1,6,0:0:0:0:
179,344,268534,6,0,L|125:354,2,41.9999987182618,0|0|0,0:0|0:0|0:0,0:0:0:0:
474,292,269216,5,6,0:0:0:0:
317,280,269443,1,0,0:0:0:0:
449,81,269670,1,12,0:0:0:0:
399,229,269898,1,0,0:0:0:0:
299,26,270125,2,0,P|252:2|199:3,1,105.000004005432,4|0,0:0|0:0,0:0:0:0:
384,125,270580,6,0,B|404:126|411:105|392:95|379:109|379:109|343:143|294:139,1,140,14|0,0:0|0:0,0:0:0:0:
111,104,271034,5,6,0:0:0:0:
246,217,271261,1,0,0:0:0:0:
43,181,271488,1,12,0:0:0:0:
211,121,271716,1,0,0:0:0:0:
78,276,271943,6,0,P|120:317|221:288,1,157.500006008148,6|0,0:0|0:0,0:0:0:0:
154,243,272398,6,0,B|136:278|151:312|165:347|153:379,1,140,14|0,0:0|0:0,0:0:0:0:
43,181,272852,5,6,0:0:0:0:
154,243,273080,1,0,0:0:0:0:
110,101,273307,5,12,0:0:0:0:
257,233,273535,1,0,0:0:0:0:
200,48,273761,5,4,0:0:0:0:
358,259,273989,1,0,0:0:0:0:
461,16,274216,1,14,0:0:0:0:
187,51,274443,1,0,0:0:0:0:
365,268,274670,6,0,P|419:289|476:278,1,105.000004005432,6|0,0:0|0:0,0:0:0:0:
347,277,275125,2,0,P|393:301|471:298,1,105.000004005432,12|0,0:0|0:0,0:0:0:0:
481,294,275465,1,0,0:0:0:0:
495,284,275579,1,6,0:0:0:0:
448,107,275807,5,0,0:0:0:0:
427,190,276034,1,14,0:0:0:0:
449,93,276261,1,0,0:0:0:0:
276,291,276489,6,0,B|302:321|340:331|375:316|375:316|357:303|329:308,1,140,6|0,0:0|0:0,0:0:0:0:
96,207,276943,2,0,B|56:214|27:242|23:279|23:279|43:269|52:244,1,140,14|0,0:0|0:0,0:0:0:0:
258,95,277398,2,0,B|270:57|260:18|230:-3|230:-3|228:18|246:39,1,140,6|0,0:0|0:0,0:0:0:0:
276,291,277852,6,0,B|295:255|324:239|358:235|358:235|334:235|315:226,1,140,14|0,0:0|0:0,0:0:0:0:
96,207,278307,6,0,B|153:210|153:210|207:195,1,105.000004005432,6|0,0:0|0:0,0:0:0:0:
245,29,278761,1,12,0:0:0:0:
142,101,278988,1,0,0:0:0:0:
356,79,279216,6,0,B|394:78|426:55|437:20|437:20|410:26|399:51,1,157.500006008148,6|0,0:0|0:0,0:0:0:0:
314,165,279670,5,14,0:0:0:0:
235,218,279898,1,0,0:0:0:0:
140,225,280125,6,0,L|161:107,1,105.000004005432,6|0,0:0|0:0,0:0:0:0:
182,0,280580,1,12,0:0:0:0:
235,218,280806,1,0,0:0:0:0:
235,218,280920,1,0,0:0:0:0:
235,218,281034,6,0,L|251:124,1,83.9999974365235,6|0,0:0|0:0,0:0:0:0:
269,37,281488,1,14,0:0:0:0:
330,211,281715,1,0,0:0:0:0:
330,211,281943,6,0,L|342:140,1,62.9999980773926,6|0,0:0|0:0,0:0:0:0:
354,73,282397,1,12,0:0:0:0:
425,204,282625,1,0,0:0:0:0:
425,204,282738,1,0,0:0:0:0:
425,204,282852,6,0,B|431:238|410:266|389:295|392:327,1,125.999996154785,6|0,0:0|0:0,0:0:0:0:
483,326,283307,1,14,0:0:0:0:
330,211,283534,1,4,0:0:0:0:
512,89,283761,6,0,B|456:47|393:92|331:138|272:89,1,251.999992309571,6|0,0:0|0:0,0:0:0:0:
464,153,284670,2,0,B|470:107|456:63|424:35|395:34|371:7|382:-23|411:-37|436:-30|449:-7|445:8|422:16,1,251.999992309571,6|0,0:0|0:0,0:0:0:0:
170,10,285580,6,0,P|55:40|29:98,1,167.999994873047,6|12,0:1|0:0,0:0:0:0:
19,177,286262,1,0,0:0:0:0:
138,117,286489,2,0,P|138:235|186:275,1,167.999994873047,6|12,0:0|0:0,0:0:0:0:
289,168,287171,1,0,0:0:0:0:
264,172,287285,1,0,0:0:0:0:
239,177,287398,6,0,L|131:195,1,83.9999974365235,6|0,0:0|0:0,0:0:0:0:
40,259,287853,2,0,L|147:278,1,83.9999974365235,12|0,0:0|0:0,0:0:0:0:
160,104,288307,2,0,B|114:103|84:130|50:158|2:160,1,167.999994873047,6|12,0:0|0:0,0:0:0:0:
4,62,288989,1,0,0:0:0:0:
40,259,289216,6,0,P|131:335|193:323,1,167.999994873047,6|12,0:0|0:0,0:0:0:0:
262,284,289898,1,0,0:0:0:0:
145,222,290125,2,0,P|237:148|239:85,1,167.999994873047,6|12,0:0|0:0,0:0:0:0:
146,10,290807,1,0,0:0:0:0:
121,13,290921,1,0,0:0:0:0:
96,18,291035,6,0,L|-12:35,1,83.9999974365235,6|0,0:0|0:0,0:0:0:0:
152,94,291489,2,0,L|43:111,1,83.9999974365235,12|0,0:0|0:0,0:0:0:0:
207,170,291944,2,0,L|98:187,1,83.9999974365235,6|0,0:0|0:0,0:0:0:0:
310,229,292398,1,14,0:0:0:0:
179,258,292625,1,4,0:0:0:0:
45,288,292852,6,0,B|54:315|81:333|111:338|111:338|191:353,1,167.999994873047,6|12,0:0|0:0,0:0:0:0:
287,321,293534,1,0,0:0:0:0:
277,187,293761,2,0,B|268:212|241:230|211:236|211:236|131:250,1,167.999994873047,6|12,0:0|0:0,0:0:0:0:
178,76,294444,1,0,0:0:0:0:
181,101,294557,1,0,0:0:0:0:
185,126,294671,6,0,L|199:208,1,83.9999974365235,6|0,0:0|0:0,0:0:0:0:
293,268,295125,2,0,L|307:185,1,83.9999974365235,12|0,0:0|0:0,0:0:0:0:
129,16,295580,2,0,B|121:42|97:56|75:77|63:119|83:171,1,167.999994873047,6|12,0:0|0:0,0:0:0:0:
200,209,296262,1,0,0:0:0:0:
67,291,296489,6,0,B|134:301|134:301|183:332|238:317,1,167.999994873047,6|12,0:0|0:0,0:0:0:0:
334,290,297170,1,0,0:0:0:0:
200,209,297398,2,0,B|267:198|267:198|316:168|371:183,1,167.999994873047,6|12,0:0|0:0,0:0:0:0:
464,267,298080,1,0,0:0:0:0:
439,271,298194,1,0,0:0:0:0:
415,276,298307,6,0,L|308:295,1,83.9999974365235,6|0,0:0|0:0,0:0:0:0:
200,209,298762,2,0,L|307:190,1,83.9999974365235,12|0,0:0|0:0,0:0:0:0:
318,79,299216,2,0,L|211:97,1,83.9999974365235,4|0,0:0|0:0,0:0:0:0:
161,106,299557,1,4,0:0:0:0:
136,110,299670,2,0,P|85:111|41:91,1,83.9999974365235,14|4,0:0|0:0,0:0:0:0:
18,3,300203,6,0,L|123:21,1,83.9999974365235,6|0,0:1|0:0,0:0:0:0:
218,95,300783,1,2,0:0:0:0:
218,95,301140,6,0,L|113:113,1,83.9999974365235,2|0,0:0|0:0,0:0:0:0:
18,187,301931,1,2,0:0:0:0:
18,187,302372,6,0,L|104:202,1,83.9999974365235,2|2,0:0|0:0,0:0:0:0:
256,192,304100,12,0,308600,0:0:0:0:
