osu file format v14

[General]
AudioFilename: audio.mp3
AudioLeadIn: 0
PreviewTime: -1
Countdown: 1
SampleSet: None
StackLeniency: 0.7
Mode: 0
LetterboxInBreaks: 0
WidescreenStoryboard: 1

[Editor]
Bookmarks: 9287,21026
DistanceSpacing: 1
BeatDivisor: 4
GridSize: 16
TimelineZoom: 1

[Metadata]
Title:Acchu ma Seishun! (Ringtone Sized)
TitleUnicode:Acchu ma Seishun! (Ringtone Sized)
Artist:Nanamori-chu Gorakubu
ArtistUnicode:Nanamori-chu Gorakubu
Creator:Y33ZY69
Version:hitsound
Source:
Tags:
BeatmapID:1813618
BeatmapSetID:867573

[Difficulty]
HPDrainRate:6
CircleSize:4
OverallDifficulty:9.1
ApproachRate:9.6
SliderMultiplier:1.4
SliderTickRate:1

[Events]
//Background and Video events
//Break Periods
//Storyboard Layer 0 (Background)
//Storyboard Layer 1 (Fail)
//Storyboard Layer 2 (Pass)
//Storyboard Layer 3 (Foreground)
//Storyboard Sound Samples

[TimingPoints]
1461,326.086956521739,4,2,0,60,1,0
20374,-66.6666666666667,4,1,0,70,0,0
20700,-50,4,3,0,75,0,0

[Colours]
Combo1 : 255,255,128
Combo2 : 255,70,70
Combo3 : 255,128,128
Combo4 : 251,181,243
Combo5 : 219,81,253
Combo6 : 3,90,252
Combo7 : 16,210,252
Combo8 : 147,255,147

[HitObjects]
118,191,1461,5,4,0:0:0:0:
236,133,2765,1,4,0:0:0:0:
199,268,3417,1,4,0:0:0:0:
317,263,4069,1,4,0:0:0:0:
199,268,4721,1,4,0:0:0:0:
317,263,5373,1,4,0:0:0:0:
292,120,6678,1,4,0:0:0:0:
211,207,7819,1,4,0:0:0:0:
75,169,9287,5,4,0:0:0:0:
146,218,9450,1,8,0:0:0:0:
75,169,9613,1,4,0:0:0:0:
146,218,9776,1,8,0:0:0:0:
75,169,9939,1,4,0:0:0:0:
146,218,10102,1,8,0:0:0:0:
278,165,10265,1,8,0:0:0:0:
278,165,10346,1,8,0:0:0:0:
278,165,10428,1,8,0:0:0:0:
278,165,10509,1,8,0:0:0:0:
278,165,10591,5,12,0:2:0:0:
332,245,10754,1,8,0:0:0:0:
426,135,10917,1,4,0:0:0:0:
332,245,11080,1,8,0:0:0:0:
219,84,11243,1,2,0:0:0:0:
332,245,11406,1,8,0:0:0:0:
426,135,11569,1,4,0:0:0:0:
332,245,11732,1,8,0:0:0:0:
219,84,11895,1,2,0:0:0:0:
332,245,12058,1,8,0:0:0:0:
426,135,12221,1,4,0:0:0:0:
332,245,12384,1,8,0:0:0:0:
219,84,12547,1,2,0:0:0:0:
332,245,12710,1,8,0:0:0:0:
426,135,12873,1,4,0:0:0:0:
332,245,13036,1,8,0:0:0:0:
219,84,13199,1,2,0:0:0:0:
332,245,13363,1,8,0:0:0:0:
426,135,13526,1,4,0:0:0:0:
332,245,13689,1,8,0:0:0:0:
219,84,13852,1,2,0:0:0:0:
332,245,14015,1,8,0:0:0:0:
426,135,14178,1,4,0:0:0:0:
332,245,14341,1,8,0:0:0:0:
219,84,14504,1,2,0:0:0:0:
332,245,14667,1,8,0:0:0:0:
426,135,14830,1,4,0:0:0:0:
332,245,14993,1,8,0:0:0:0:
219,84,15156,1,2,0:0:0:0:
332,245,15319,1,8,0:0:0:0:
426,135,15482,1,4,0:0:0:0:
332,245,15645,1,8,0:0:0:0:
219,84,15808,1,2,0:0:0:0:
332,245,15971,1,8,0:0:0:0:
426,135,16134,1,4,0:0:0:0:
332,245,16297,1,8,0:0:0:0:
219,84,16460,1,2,0:0:0:0:
332,245,16624,1,8,0:0:0:0:
426,135,16787,1,4,0:0:0:0:
332,245,16950,1,8,0:0:0:0:
219,84,17113,1,2,0:0:0:0:
332,245,17276,1,8,0:0:0:0:
426,135,17439,1,4,0:0:0:0:
332,245,17602,1,8,0:0:0:0:
219,84,17765,1,2,0:0:0:0:
332,245,17928,1,8,0:0:0:0:
426,135,18091,1,4,0:0:0:0:
332,245,18254,1,8,0:0:0:0:
219,84,18417,1,2,0:0:0:0:
332,245,18580,1,8,0:0:0:0:
426,135,18743,1,4,0:0:0:0:
332,245,18906,1,8,0:0:0:0:
219,84,19069,1,2,0:0:0:0:
332,245,19232,1,8,0:0:0:0:
426,135,19395,1,4,0:0:0:0:
332,245,19558,1,8,0:0:0:0:
219,84,19721,1,2,0:0:0:0:
332,245,19884,1,8,0:0:0:0:
426,135,20047,1,4,0:0:0:0:
332,245,20210,1,8,0:0:0:0:
219,84,20373,1,2,0:0:0:0:
128,195,20537,1,8,0:0:0:0:
128,195,20618,1,8,0:0:0:0:
128,195,20700,1,8,0:0:0:0:
128,195,20781,1,8,0:0:0:0:
128,195,20863,1,8,0:0:0:0:
128,195,20944,1,8,0:0:0:0:
99,288,21026,5,0,1:0:0:0:
284,274,21189,1,0,0:0:0:0:
99,288,21352,1,0,1:0:0:0:
284,274,21515,1,0,0:0:0:0:
99,288,21678,1,0,1:0:0:0:
284,274,21841,1,0,0:0:0:0:
99,288,22004,1,0,1:0:0:0:
284,274,22167,1,0,0:0:0:0:
99,288,22330,1,0,1:0:0:0:
284,274,22493,1,0,0:0:0:0:
99,288,22656,1,0,1:0:0:0:
284,274,22819,1,0,0:0:0:0:
99,288,22982,1,0,1:0:0:0:
284,274,23145,1,0,0:0:0:0:
99,288,23308,1,0,1:0:0:0:
284,274,23471,1,0,0:0:0:0:
99,288,23634,1,0,1:0:0:0:
284,274,23797,1,0,0:0:0:0:
99,288,23960,1,0,1:0:0:0:
284,274,24123,1,0,0:0:0:0:
99,288,24286,1,0,1:0:0:0:
284,274,24449,1,0,0:0:0:0:
99,288,24612,1,0,1:0:0:0:
284,274,24775,1,0,0:0:0:0:
99,288,24939,1,0,1:0:0:0:
284,274,25102,1,0,0:0:0:0:
99,288,25265,1,0,1:0:0:0:
284,274,25428,1,0,0:0:0:0:
99,288,25591,1,0,1:0:0:0:
284,274,25754,1,0,0:0:0:0:
99,288,25917,1,0,1:0:0:0:
284,274,26080,1,0,0:0:0:0:
99,288,26243,1,0,1:0:0:0:
284,274,26406,1,0,0:0:0:0:
99,288,26569,1,0,1:0:0:0:
284,274,26732,1,0,0:0:0:0:
99,288,26895,1,0,1:0:0:0:
284,274,27058,1,0,0:0:0:0:
99,288,27221,1,0,1:0:0:0:
284,274,27384,1,0,0:0:0:0:
99,288,27547,1,0,1:0:0:0:
284,274,27710,1,0,0:0:0:0:
99,288,27874,1,0,1:0:0:0:
284,274,28037,1,0,0:0:0:0:
99,288,28200,1,0,1:0:0:0:
284,274,28363,1,0,0:0:0:0:
99,288,28526,1,0,1:0:0:0:
284,274,28689,1,0,0:0:0:0:
99,288,28852,1,0,1:0:0:0:
284,274,29015,1,0,0:0:0:0:
99,288,29178,1,0,1:0:0:0:
284,274,29341,1,0,0:0:0:0:
99,288,29504,1,0,1:0:0:0:
284,274,29667,1,0,0:0:0:0:
99,288,29830,1,0,1:0:0:0:
284,274,29993,1,0,0:0:0:0:
99,288,30156,5,4,1:2:0:0:
284,274,30319,1,2,0:0:0:0:
99,288,30482,1,8,0:0:0:0:
99,288,30645,5,4,1:2:0:0:
284,274,30808,1,2,0:0:0:0:
99,288,30971,1,8,0:0:0:0:
99,288,31134,5,4,1:2:0:0:
284,274,31297,1,2,0:0:0:0:
99,288,31460,1,4,0:2:0:0:
