osu file format v14

[General]
AudioFilename: audio.mp3
AudioLeadIn: 0
PreviewTime: -1
Countdown: 1
SampleSet: None
StackLeniency: 0.7
Mode: 0
LetterboxInBreaks: 0
WidescreenStoryboard: 1

[Editor]
Bookmarks: 9287,21026
DistanceSpacing: 1
BeatDivisor: 4
GridSize: 16
TimelineZoom: 1

[Metadata]
Title:Acchu ma Seishun! (Ringtone Sized)
TitleUnicode:Acchu ma Seishun! (Ringtone Sized)
Artist:Nanamori-chu Gorakubu
ArtistUnicode:Nanamori-chu Gorakubu
Creator:Y33ZY69
Version:OwO
Source:
Tags:
BeatmapID:1813620
BeatmapSetID:867573

[Difficulty]
HPDrainRate:6
CircleSize:3.8
OverallDifficulty:9.1
ApproachRate:9.6
SliderMultiplier:1.4
SliderTickRate:1

[Events]
//Background and Video events
0,0,"697005.jpg",0,0
//Break Periods
//Storyboard Layer 0 (Background)
//Storyboard Layer 1 (Fail)
//Storyboard Layer 2 (Pass)
//Storyboard Layer 3 (Foreground)
//Storyboard Sound Samples

[TimingPoints]
1461,326.086956521739,4,2,0,60,1,0
20374,-66.6666666666667,4,1,0,70,0,0
20700,-50,4,3,0,75,0,0

[Colours]
Combo1 : 255,255,128
Combo2 : 255,70,70
Combo3 : 255,128,128
Combo4 : 251,181,243
Combo5 : 219,81,253
Combo6 : 3,90,252
Combo7 : 16,210,252
Combo8 : 147,255,147

[HitObjects]
75,102,1461,5,4,0:0:0:0:
4,209,2765,5,4,0:0:0:0:
127,218,3417,5,4,0:0:0:0:
182,333,4069,5,4,0:0:0:0:
251,229,4803,5,0,0:0:0:0:
306,344,5373,5,4,0:0:0:0:
394,17,6678,5,4,0:0:0:0:
128,218,7819,5,4,0:0:0:0:
264,220,9287,5,4,0:0:0:0:
159,61,9450,1,8,0:0:0:0:
317,151,9613,5,4,0:0:0:0:
108,139,9776,1,8,0:0:0:0:
300,62,9939,5,4,0:0:0:0:
59,209,10102,1,8,0:0:0:0:
219,146,10265,5,8,0:0:0:0:
217,180,10346,1,8,0:0:0:0:
220,215,10428,1,8,0:0:0:0:
228,249,10509,1,8,0:0:0:0:
241,282,10591,1,12,0:2:0:0:
350,198,10754,6,0,P|369:229|380:269,1,70,8|4,0:0|0:0,0:0:0:0:
241,282,11080,2,0,P|251:315|269:344,2,70,8|2|8,0:0|0:0|0:0,0:0:0:0:
286,156,11569,1,4,0:0:0:0:
378,260,11732,2,0,L|305:242,1,70,8|2,0:0|0:0,0:0:0:0:
205,199,12058,6,0,L|132:217,1,70,8|4,0:0|0:0,0:0:0:0:
130,313,12384,2,0,P|54:267|40:216,1,140,8|8,0:0|0:0,0:0:0:0:
40,202,12874,1,4,0:0:0:0:
193,228,13037,1,8,0:0:0:0:
27,302,13200,1,2,0:0:0:0:
48,98,13363,6,0,L|114:132,1,70,8|4,0:0|0:0,0:0:0:0:
180,64,13689,2,0,L|246:30,1,70,8|2,0:0|0:0,0:0:0:0:
252,132,14015,2,0,L|314:164,1,70,8|4,0:0|0:0,0:0:0:0:
401,104,14341,1,8,0:0:0:0:
401,104,14422,1,0,0:0:0:0:
401,104,14504,2,0,P|418:137|411:194,1,70,2|8,0:0|0:0,0:0:0:0:
292,63,14830,5,4,0:0:0:0:
209,147,14993,2,0,P|215:212|269:262,1,140,8|8,0:0|0:0,0:0:0:0:
267,261,15482,1,4,0:0:0:0:
303,168,15645,1,8,0:0:0:0:
303,168,15727,1,0,0:0:0:0:
303,168,15808,2,0,P|337:192|366:243,1,70,2|8,0:0|0:0,0:0:0:0:
267,261,16134,6,0,P|280:300|273:358,1,70,4|8,0:0|0:0,0:0:0:0:
141,168,16460,2,0,P|107:192|78:243,1,70,2|8,0:0|0:0,0:0:0:0:
177,261,16786,2,0,P|163:300|170:358,1,70,4|8,0:0|0:0,0:0:0:0:
223,151,17113,5,2,0:0:0:0:
223,363,17276,1,8,0:0:0:0:
316,251,17439,1,4,0:0:0:0:
125,255,17602,1,8,0:0:0:0:
315,338,17765,1,2,0:0:0:0:
93,254,17928,1,8,0:0:0:0:
322,162,18091,1,4,0:0:0:0:
52,251,18254,1,8,0:0:0:0:
52,251,18580,5,8,0:0:0:0:
191,80,18743,1,4,0:0:0:0:
236,327,18906,1,8,0:0:0:0:
203,44,19069,1,2,0:0:0:0:
31,279,19232,1,8,0:0:0:0:
214,15,19395,1,4,0:0:0:0:
240,365,19558,1,8,0:0:0:0:
190,166,20047,6,0,L|214:265,2,70,4|8|0,0:0|0:0|0:0,0:0:0:0:
226,109,20537,5,8,0:0:0:0:
231,134,20618,1,8,0:0:0:0:
237,160,20700,1,8,0:0:0:0:
243,185,20781,1,8,0:0:0:0:
249,211,20863,1,8,0:0:0:0:
255,236,20944,1,8,0:0:0:0:
261,262,21026,5,0,1:0:0:0:
356,151,21189,1,0,0:0:0:0:
154,193,21352,5,0,1:0:0:0:
387,271,21515,1,0,0:0:0:0:
160,299,21678,5,0,1:0:0:0:
426,197,21841,1,0,0:0:0:0:
88,131,22004,5,0,1:0:0:0:
423,346,22167,1,0,0:0:0:0:
251,73,22330,5,0,1:0:0:0:
75,350,22493,1,0,0:0:0:0:
383,271,22656,5,0,1:0:0:0:
88,131,22819,1,0,0:0:0:0:
251,382,22982,5,0,1:0:0:0:
380,117,23145,1,0,0:0:0:0:
81,248,23308,5,0,1:0:0:0:
451,195,23471,1,0,0:0:0:0:
451,195,23553,1,0,0:0:0:0:
451,195,23634,5,0,1:0:0:0:
161,92,23797,1,0,0:0:0:0:
389,58,23960,5,0,1:0:0:0:
192,238,24124,1,0,0:0:0:0:
252,28,24287,5,0,1:0:0:0:
341,306,24450,1,0,0:0:0:0:
511,87,24613,5,0,1:0:0:0:
268,269,24776,1,0,0:0:0:0:
168,18,24939,5,0,1:0:0:0:
226,373,25102,1,0,0:0:0:0:
371,54,25265,5,0,1:0:0:0:
181,273,25428,1,0,0:0:0:0:
258,66,25591,5,0,1:0:0:0:
309,350,25754,1,0,0:0:0:0:
175,111,25917,5,0,1:0:0:0:
268,269,26080,1,0,0:0:0:0:
268,269,26162,1,0,0:0:0:0:
268,269,26243,5,0,1:0:0:0:
403,169,26406,1,0,0:0:0:0:
126,267,26569,5,0,1:0:0:0:
388,328,26732,1,0,0:0:0:0:
130,119,26895,5,0,1:0:0:0:
319,384,27058,1,0,0:0:0:0:
463,113,27221,5,0,1:0:0:0:
152,335,27384,1,0,0:0:0:0:
65,69,27547,5,0,1:0:0:0:
391,344,27710,1,0,0:0:0:0:
376,56,27874,5,0,1:0:0:0:
86,367,28037,1,0,0:0:0:0:
176,0,28200,5,0,1:0:0:0:
276,383,28363,1,0,0:0:0:0:
311,0,28526,5,0,1:0:0:0:
171,383,28689,1,0,0:0:0:0:
171,383,28770,1,0,0:0:0:0:
171,383,28852,5,0,1:0:0:0:
399,108,29015,1,0,0:0:0:0:
64,130,29178,5,0,1:0:0:0:
385,337,29341,1,0,0:0:0:0:
209,19,29504,5,0,1:0:0:0:
103,383,29667,1,0,0:0:0:0:
416,192,29830,5,0,1:0:0:0:
103,383,29993,1,0,0:0:0:0:
118,0,30156,5,4,1:2:0:0:
242,383,30319,1,2,0:0:0:0:
375,0,30482,1,8,0:0:0:0:
1,170,30645,5,4,1:2:0:0:
511,68,30808,1,2,0:0:0:0:
174,383,30971,1,8,0:0:0:0:
0,41,31134,5,4,1:2:0:0:
258,383,31297,1,2,0:0:0:0:
406,0,31460,1,4,0:2:0:0:
