osu file format v14

[General]
AudioFilename: audio.mp3
AudioLeadIn: 0
PreviewTime: 51415
Countdown: 0
SampleSet: Soft
StackLeniency: 0.7
Mode: 0
LetterboxInBreaks: 0
WidescreenStoryboard: 1

[Editor]
Bookmarks: 158,12500,28958,39929,52272,74215,76958,87586
DistanceSpacing: 1
BeatDivisor: 4
GridSize: 32
TimelineZoom: 2.3

[Metadata]
Title:Yuriyurarararayuruyuri Daijiken (TV Size)
TitleUnicode:ゆりゆららららゆるゆり大事件 (TV Size)
Artist:Nanamori-chu * Goraku-bu
ArtistUnicode:七森中☆ごらく部
Creator:eiri-
Version:Expert
Source:ゆるゆり
Tags:Ayyri Stefan TheNutritiousGuy TNG Lafayla Lafa hypercyte Seto Kousuke IOException FFI deadcode Onlybiscuit Sotarks YuruYuri 三上枝織 大坪由佳 津田美波 大久保瑠美 Mikami Shiori Otsubo Yuka Tsuda Minami Okubo Rumi 赤座あかり Akaza Akari 歳納京子 Toshino Kyoko 船見結衣 Funami Yui 吉川ちなつ Yoshikawa Chinatsu YRYR Yuru Yuri
BeatmapID:1837326
BeatmapSetID:877973

[Difficulty]
HPDrainRate:5
CircleSize:3.7
OverallDifficulty:8.5
ApproachRate:9
SliderMultiplier:1.6
SliderTickRate:1

[Events]
//Background and Video events
0,0,"Akari Yui Kyouko Chinatsu 348.jpg",0,0
//Break Periods
//Storyboard Layer 0 (Background)
//Storyboard Layer 1 (Fail)
//Storyboard Layer 2 (Pass)
//Storyboard Layer 3 (Foreground)
//Storyboard Sound Samples

[TimingPoints]
158,342.857142857143,4,2,22,75,1,0
12500,-100,4,2,22,80,0,0
28958,-100,4,2,22,70,0,0
39929,-125,4,2,22,65,0,0
48158,-125,4,2,22,75,0,0
49529,-200,4,2,22,75,0,0
51415,-133.333333333333,4,2,22,75,0,0
52272,-80,4,2,22,90,0,1
74215,-125,4,2,22,75,0,0
76958,-100,4,2,22,75,0,0

[Colours]
Combo1 : 226,118,121
Combo2 : 240,206,217
Combo3 : 191,222,255
Combo4 : 254,234,192

[HitObjects]
352,75,1529,6,0,P|401:66|452:38,1,80,2|0,1:2|0:2,0:0:0:0:
258,143,1872,1,2,1:2:0:0:
138,35,2043,2,0,P|187:44|238:72,1,80,2|0,0:2|1:2,0:0:0:0:
41,132,2386,2,0,P|71:201|79:226,1,80,2|0,0:2|1:2,0:0:0:0:
187,188,2729,2,0,P|157:257|149:282,1,80,2|0,0:2|1:2,0:0:0:0:
18,123,3072,2,0,P|48:192|56:217,1,80,2|0,0:2|1:2,0:0:0:0:
207,196,3415,1,2,0:2:0:0:
324,138,3586,5,2,1:2:0:0:
167,68,3758,1,2,0:2:0:0:
267,171,3929,5,2,1:2:0:0:
463,83,4101,1,2,0:2:0:0:
370,284,4272,6,0,P|376:220|383:189,1,80,2|0,1:2|0:2,0:0:0:0:
446,348,4615,1,2,1:2:0:0:
512,191,4786,2,0,P|506:127|499:96,1,80,2|0,0:2|1:2,0:0:0:0:
318,43,5129,2,0,P|382:37|413:30,1,80,2|0,0:2|1:2,0:0:0:0:
267,148,5472,2,0,P|203:154|172:161,1,80,2|0,0:2|1:2,0:0:0:0:
323,17,5815,2,0,P|387:11|418:4,1,80,2|0,0:2|1:2,0:0:0:0:
262,175,6158,1,2,0:2:0:0:
89,107,6329,5,2,1:2:0:0:
281,36,6500,1,2,0:2:0:0:
330,140,6672,5,2,1:2:0:0:
90,51,6843,1,2,0:2:0:0:
216,237,7015,6,0,P|230:174|224:132,1,80,2|0,1:2|0:2,0:0:0:0:
279,315,7358,1,2,1:2:0:0:
369,201,7529,2,0,P|355:138|361:96,1,80,2|0,0:2|1:2,0:0:0:0:
431,279,7872,2,0,P|490:269|522:270,1,80,2|0,0:2|1:2,0:0:0:0:
329,361,8215,2,0,P|368:369|407:370,1,80,2|0,0:2|1:2,0:0:0:0:
421,254,8558,2,0,P|480:244|512:245,1,80,2|0,0:2|1:2,0:0:0:0:
310,380,8900,1,2,0:2:0:0:
256,192,9072,5,2,1:2:0:0:
428,130,9243,1,2,0:2:0:0:
340,204,9415,5,2,1:2:0:0:
125,126,9586,1,2,0:2:0:0:
256,352,9758,5,2,1:0:0:0:
256,32,10100,1,2,1:0:0:0:
480,192,10443,1,2,1:0:0:0:
480,192,10615,1,2,1:0:0:0:
256,192,10958,1,2,1:0:0:0:
384,64,11300,5,10,0:0:0:0:
323,269,11472,1,10,0:0:0:0:
173,25,11643,1,10,0:0:0:0:
117,142,11815,2,0,L|44:136,1,40,10|8,0:0|0:0,0:0:0:0:
194,227,11986,2,0,L|267:221,1,40,10|8,0:0|0:0,0:0:0:0:
411,209,12158,1,8,0:3:0:0:
411,209,12329,1,4,0:3:0:0:
289,370,12500,6,0,P|238:340|207:335,1,80,6|0,1:2|0:0,0:0:0:0:
358,305,12843,1,0,1:2:0:0:
389,100,13015,1,2,0:2:0:0:
509,247,13186,1,2,1:2:0:0:
305,192,13358,1,2,0:2:0:0:
493,140,13529,2,0,L|499:42,1,80,0|0,1:2|0:2,0:0:0:0:
310,22,13872,6,0,P|289:78|170:71,1,160,2|0,1:2|1:2,0:0:0:0:
108,25,14386,1,2,0:2:0:0:
43,211,14558,1,2,1:2:0:0:
183,108,14729,1,2,0:2:0:0:
274,275,14900,1,0,1:2:0:0:
205,383,15072,5,2,0:2:0:0:
205,383,15158,1,2,0:2:0:0:
205,383,15243,2,0,L|192:284,1,80,2|2,1:2|0:2,0:0:0:0:
170,148,15586,1,0,1:2:0:0:
337,255,15758,1,2,0:2:0:0:
337,255,15844,1,2,0:2:0:0:
337,255,15929,2,0,L|324:156,1,80,2|2,1:2|0:2,0:0:0:0:
302,20,16272,1,0,1:2:0:0:
184,136,16443,1,2,0:2:0:0:
269,29,16615,6,0,L|175:11,1,80,2|2,1:2|0:2,0:0:0:0:
82,140,16958,2,0,L|176:122,1,80,10|0,0:2|0:2,0:0:0:0:
347,44,17300,6,0,L|253:26,1,80,2|0,1:2|0:2,0:0:0:0:
157,145,17643,1,8,0:2:0:0:
157,145,17729,1,8,0:2:0:0:
157,145,17815,1,8,0:2:0:0:
385,24,17986,6,0,P|409:78|381:181,1,160,6|0,1:2|1:2,0:0:0:0:
251,259,18500,1,2,0:2:0:0:
297,99,18672,1,2,1:2:0:0:
433,285,18843,1,2,0:2:0:0:
512,51,19015,2,0,L|428:36,1,80,8|0,1:2|0:2,0:0:0:0:
227,11,19358,6,0,B|210:59|210:59|236:183,1,160,2|0,1:2|1:2,0:0:0:0:
276,342,19872,1,2,0:2:0:0:
373,220,20043,1,2,1:2:0:0:
128,152,20215,1,2,0:2:0:0:
297,65,20386,2,0,L|394:60,1,80,8|2,1:2|0:2,0:0:0:0:
403,83,20643,1,2,0:2:0:0:
403,83,20729,6,0,L|500:78,1,80,2|2,1:2|0:2,0:0:0:0:
395,218,21072,2,0,L|298:213,1,80,8|2,1:2|0:2,0:0:0:0:
289,236,21329,1,2,0:2:0:0:
289,236,21415,6,0,L|192:231,1,80,2|2,1:2|0:2,0:0:0:0:
62,220,21758,1,8,1:2:0:0:
152,76,21929,1,2,0:2:0:0:
234,354,22100,5,2,1:2:0:0:
452,287,22272,1,2,0:2:0:0:
239,152,22443,2,0,P|186:161|148:175,1,80,10|0,1:2|0:2,0:0:0:0:
37,251,22786,1,10,1:2:0:0:
50,275,23129,6,0,P|43:297|45:320,3,40,2|2|2|2,0:2|0:2|0:2|0:2,0:0:0:0:
68,355,23472,1,6,1:2:0:0:
243,244,23643,1,2,0:2:0:0:
28,132,23815,1,2,1:2:0:0:
197,19,23986,2,0,L|177:193,1,160,2|0,0:2|0:2,0:0:0:0:
166,328,24500,1,8,1:2:0:0:
166,328,24586,1,0,0:2:0:0:
166,328,24672,1,0,0:2:0:0:
328,267,24843,5,2,1:2:0:0:
426,72,25015,1,2,0:2:0:0:
511,330,25186,1,2,1:2:0:0:
305,128,25358,2,0,P|324:75|445:69,1,160,2|0,0:2|0:2,0:0:0:0:
510,218,25872,1,8,1:2:0:0:
510,218,25958,1,0,0:0:0:0:
510,218,26043,1,0,0:2:0:0:
360,377,26215,5,2,1:2:0:0:
305,161,26386,1,2,0:2:0:0:
283,365,26558,5,2,1:2:0:0:
349,104,26729,1,2,0:2:0:0:
437,314,26900,5,2,1:2:0:0:
366,65,27072,1,2,0:2:0:0:
194,327,27243,5,10,1:2:0:0:
283,10,27415,1,2,0:2:0:0:
53,95,27586,5,2,1:2:0:0:
53,95,27929,5,8,0:2:0:0:
79,206,28100,1,8,0:2:0:0:
240,327,28443,5,0,1:2:0:0:
302,132,28614,1,8,0:2:0:0:
302,132,28958,6,0,P|248:127|201:95,1,80,6|2,1:2|0:2,0:0:0:0:
214,106,29215,1,2,0:2:0:0:
196,84,29300,1,10,0:2:0:0:
318,1,29472,1,2,0:2:0:0:
334,152,29643,1,2,1:2:0:0:
454,62,29815,2,0,L|464:168,1,80,0|10,0:0|0:0,0:0:0:0:
449,282,30158,1,2,3:2:0:0:
330,174,30329,5,2,1:2:0:0:
330,174,30500,1,2,1:2:0:0:
235,322,30672,1,10,0:2:0:0:
175,174,30843,2,0,P|97:175|39:258,1,160,2|2,1:2|1:2,0:0:0:0:
26,373,31358,1,8,0:2:0:0:
138,266,31529,1,2,3:2:0:0:
277,361,31700,5,2,1:2:0:0:
250,149,31872,1,0,1:2:0:0:
447,203,32043,2,0,P|457:139|451:111,1,80,10|2,0:2|0:2,0:0:0:0:
422,329,32386,2,0,L|512:319,1,80,2|2,1:2|3:2,0:0:0:0:
280,253,32729,2,0,L|190:243,1,80,10|0,0:2|3:2,0:0:0:0:
61,226,33072,2,0,P|119:186|149:92,1,160,2|10,1:2|0:2,0:0:0:0:
30,21,33586,2,0,L|21:101,1,80,2|0,0:2|1:2,0:0:0:0:
72,307,33929,5,8,3:2:0:0:
149,104,34100,1,8,3:2:0:0:
87,342,34272,1,10,3:2:0:0:
137,74,34443,6,0,P|179:57|230:53,1,80,6|2,1:2|0:2,0:0:0:0:
239,53,34700,1,2,0:2:0:0:
272,65,34786,1,10,0:2:0:0:
391,151,34958,1,2,0:2:0:0:
271,266,35129,1,2,1:2:0:0:
449,375,35300,2,0,L|439:276,1,80,0|10,0:0|0:0,0:0:0:0:
429,150,35643,1,2,3:2:0:0:
326,249,35815,6,0,P|278:228|254:196,1,80,2|2,1:2|1:2,0:0:0:0:
232,80,36158,1,10,0:2:0:0:
232,80,36329,2,0,L|142:77,1,80,2|0,1:2|0:0,0:0:0:0:
33,74,36672,1,2,1:2:0:0:
112,202,36843,1,8,0:2:0:0:
195,6,37015,1,2,3:2:0:0:
316,153,37186,5,2,1:2:0:0:
316,153,37358,1,0,1:2:0:0:
441,104,37529,2,0,L|448:205,1,80,10|2,0:2|0:2,0:0:0:0:
464,333,37872,1,2,1:2:0:0:
464,333,38043,1,2,3:2:0:0:
322,286,38215,1,10,0:2:0:0:
322,286,38386,1,0,3:2:0:0:
180,352,38558,6,0,B|63:344|63:344|20:299,1,160,2|10,1:2|0:2,0:0:0:0:
113,168,39072,2,0,L|109:248,1,80,2|0,0:2|1:2,0:0:0:0:
193,368,39415,5,8,3:2:0:0:
252,124,39586,1,8,3:2:0:0:
316,361,39758,1,10,3:2:0:0:
253,93,39929,6,0,P|316:106|372:45,1,128,6|2,1:2|0:2,0:0:0:0:
165,20,40443,2,0,L|174:97,1,64,2|0,1:2|1:2,0:0:0:0:
190,197,40786,1,0,0:2:0:0:
190,197,40958,2,0,P|145:186|107:187,1,64,10|0,0:2|0:0,0:0:0:0:
15,289,41300,2,0,L|142:273,1,128,2|2,1:2|0:2,0:0:0:0:
267,260,41815,1,2,1:2:0:0:
267,260,41986,2,0,L|276:184,1,64,0|0,1:2|0:2,0:0:0:0:
347,127,42329,2,0,L|338:51,1,64,8|0,0:2|0:0,0:0:0:0:
477,28,42672,6,0,P|466:97|468:166,1,128,2|2,1:2|0:2,0:0:0:0:
498,252,43186,2,0,L|425:245,1,64,2|0,1:2|1:2,0:0:0:0:
330,238,43529,1,0,0:2:0:0:
330,238,43700,2,0,P|348:291|351:309,1,64,10|0,0:2|0:0,0:0:0:0:
231,351,44043,2,0,L|159:344,2,64,2|2|2,1:2|0:2|0:2,0:0:0:0:
194,240,44558,2,0,L|61:252,1,128,2|0,1:2|0:2,0:0:0:0:
22,144,45072,2,0,L|108:152,1,64,8|0,0:2|0:0,0:0:0:0:
224,162,45415,6,0,L|241:13,1,128,2|2,1:2|0:2,0:0:0:0:
351,11,45929,2,0,P|379:50|390:74,1,64,2|0,1:2|1:2,0:0:0:0:
410,169,46272,1,2,0:2:0:0:
410,169,46443,2,0,P|381:184|356:204,1,64,8|0,0:2|0:0,0:0:0:0:
282,295,46786,2,0,L|202:286,2,64,2|2|2,1:2|0:2|0:2,0:0:0:0:
459,314,47300,2,0,P|493:267|478:182,1,128,2|2,1:2|0:2,0:0:0:0:
477,183,47729,1,2,0:2:0:0:
453,161,47815,1,10,0:2:0:0:
345,109,47986,1,2,0:2:0:0:
212,252,48158,5,2,1:2:0:0:
212,252,48329,2,0,L|201:208,1,32,2|2,0:2|0:2,0:0:0:0:
159,52,48500,1,2,1:2:0:0:
33,315,48672,1,2,0:2:0:0:
305,171,48843,1,2,1:2:0:0:
34,123,49015,1,2,0:2:0:0:
246,332,49186,1,2,1:2:0:0:
169,33,49358,1,2,0:2:0:0:
169,33,49529,6,0,B|316:-25|290:118|457:46,1,300,6|0,1:2|0:0,0:0:0:0:
487,8,50900,1,8,0:2:0:0:
487,8,51415,6,0,P|505:75|512:139,1,120.000004577637,2|2,0:0|0:0,0:0:0:0:
472,228,51929,2,0,P|433:216|405:215,1,60.0000022888184,2|2,0:0|0:0,0:0:0:0:
194,262,52272,6,0,P|187:141|277:114,1,200,6|8,1:2|0:2,0:0:0:0:
390,275,52786,1,2,0:2:0:0:
487,193,52958,2,0,P|450:133|443:77,1,100,0|2,1:2|0:2,0:0:0:0:
254,246,53300,2,0,P|291:186|298:134,1,100,10|2,0:2|3:2,0:0:0:0:
499,278,53643,6,0,P|420:270|299:361,1,200,2|8,1:2|0:2,0:0:0:0:
153,357,54158,2,0,L|122:221,1,100,2|0,0:2|1:2,0:0:0:0:
88,99,54500,1,2,3:2:0:0:
31,231,54672,1,10,0:2:0:0:
196,136,54843,1,2,0:2:0:0:
378,288,55015,6,0,P|403:197|408:53,1,200,2|8,1:2|0:2,0:0:0:0:
270,3,55529,1,2,0:2:0:0:
203,168,55700,2,0,P|138:137|79:135,1,100,0|2,1:2|0:2,0:0:0:0:
134,295,56043,1,10,0:2:0:0:
232,151,56215,1,2,3:2:0:0:
368,344,56386,6,0,P|477:317|487:205,1,200,2|8,1:2|0:2,0:0:0:0:
413,98,56900,1,0,3:2:0:0:
293,275,57072,2,0,P|223:264|165:249,1,100,2|0,1:2|0:2,0:0:0:0:
52,166,57415,1,10,0:2:0:0:
189,27,57586,1,8,0:2:0:0:
189,27,57672,1,8,0:2:0:0:
189,27,57758,6,0,B|215:54|215:54|176:251,1,200,6|8,1:2|0:2,0:0:0:0:
141,381,58272,1,0,0:2:0:0:
337,350,58443,2,0,P|320:237|209:226,1,200,2|8,1:2|0:2,0:0:0:0:
104,327,58958,1,0,0:2:0:0:
23,142,59129,2,0,L|261:117,1,200,2|10,1:2|0:2,0:0:0:0:
414,95,59643,1,0,0:2:0:0:
479,287,59815,2,0,P|409:263|359:266,1,100,2|0,1:2|3:2,0:0:0:0:
236,336,60158,2,0,P|176:334|122:312,1,100,10|8,0:2|0:2,0:0:0:0:
119,311,60415,1,8,0:2:0:0:
97,290,60500,5,2,1:2:0:0:
38,139,60672,1,2,0:2:0:0:
180,49,60843,1,10,0:2:0:0:
283,177,61015,2,0,L|410:158,1,100,2|0,0:2|1:2,0:0:0:0:
485,59,61358,1,8,0:2:0:0:
347,2,61529,1,8,0:3:0:0:
347,2,61700,1,4,0:3:0:0:
217,123,61872,6,0,P|143:99|86:90,1,100,6|2,1:0|0:0,0:0:0:0:
150,254,62215,1,10,0:0:0:0:
305,86,62386,1,2,0:0:0:0:
426,198,62558,2,0,L|488:187,1,50,8|8,0:0|0:0,0:0:0:0:
412,317,62729,2,0,L|351:307,1,50,10|8,0:0|0:0,0:0:0:0:
203,280,62900,5,10,0:0:0:0:
176,227,62985,1,8,0:0:0:0:
194,171,63071,1,10,0:0:0:0:
246,143,63157,1,8,0:0:0:0:
302,159,63243,6,0,B|451:146|451:146|512:78,1,200,6|8,1:2|0:2,0:0:0:0:
380,7,63758,1,2,0:2:0:0:
246,143,63929,2,0,P|218:196|198:246,1,100,0|2,1:2|0:2,0:0:0:0:
171,384,64272,1,10,0:2:0:0:
311,313,64443,1,2,3:2:0:0:
103,207,64615,6,0,P|81:118|182:27,1,200,2|8,1:2|0:2,0:0:0:0:
349,1,65129,2,0,L|369:137,1,100,2|0,0:2|1:2,0:0:0:0:
393,279,65472,1,2,3:2:0:0:
482,176,65643,1,10,0:2:0:0:
269,138,65815,1,2,0:2:0:0:
165,280,65986,6,0,P|76:285|146:213,1,200,2|8,1:2|0:2,0:0:0:0:
285,346,66500,1,2,0:2:0:0:
366,201,66672,2,0,P|282:220|227:211,1,100,0|2,1:2|0:2,0:0:0:0:
137,173,67015,1,10,0:2:0:0:
237,61,67186,1,2,3:2:0:0:
399,298,67358,6,0,L|423:67,1,200,2|8,1:2|0:2,0:0:0:0:
500,166,67872,1,0,3:2:0:0:
306,228,68043,2,0,P|274:159|266:97,1,100,2|0,1:2|0:2,0:0:0:0:
281,2,68386,1,10,0:2:0:0:
146,71,68558,1,8,0:2:0:0:
146,71,68643,1,8,0:2:0:0:
146,71,68729,6,0,P|125:184|80:303,1,200,6|8,1:2|0:2,0:0:0:0:
0,383,69243,1,0,0:2:0:0:
234,359,69415,2,0,P|265:285|160:223,1,200,2|8,1:2|0:2,0:0:0:0:
0,293,69929,1,0,0:2:0:0:
60,120,70100,2,0,P|181:105|301:98,1,200,2|10,1:2|0:2,0:0:0:0:
445,115,70615,1,0,0:2:0:0:
261,366,70786,2,0,P|277:293|294:249,1,100,2|0,1:2|3:2,0:0:0:0:
456,94,71129,2,0,P|478:149|488:202,1,100,10|8,0:2|0:2,0:0:0:0:
489,215,71386,1,8,0:2:0:0:
482,245,71472,5,2,1:2:0:0:
291,166,71643,1,2,0:2:0:0:
470,75,71815,1,10,0:2:0:0:
330,254,71986,2,0,L|310:109,1,100,2|0,0:2|1:2,0:0:0:0:
295,7,72329,1,8,0:2:0:0:
154,98,72500,1,8,0:3:0:0:
154,98,72672,1,4,0:3:0:0:
241,224,72843,6,0,P|163:236|118:226,1,100,6|2,1:0|0:0,0:0:0:0:
279,115,73186,1,10,0:0:0:0:
348,276,73358,1,2,0:0:0:0:
502,138,73529,2,0,L|489:69,1,50,8|8,0:0|0:0,0:0:0:0:
440,235,73700,2,0,L|429:303,1,50,10|8,0:0|0:0,0:0:0:0:
342,142,73872,5,10,0:0:0:0:
282,139,73957,1,8,0:0:0:0:
222,136,74043,1,10,0:0:0:0:
162,133,74129,1,8,0:0:0:0:
102,130,74215,6,0,L|81:-3,2,128,4|2|2,1:2|0:0|0:0,0:0:0:0:
134,313,75243,1,2,0:0:0:0:
352,309,75586,5,10,0:0:0:0:
352,309,76958,6,0,P|401:318|452:346,1,80,2|0,1:2|0:2,0:0:0:0:
258,241,77301,1,2,1:2:0:0:
138,349,77472,2,0,P|187:340|238:312,1,80,2|0,0:2|1:2,0:0:0:0:
41,252,77815,2,0,P|71:183|79:158,1,80,2|0,0:2|1:2,0:0:0:0:
187,196,78158,2,0,P|157:127|149:102,1,80,2|0,0:2|1:2,0:0:0:0:
18,261,78501,2,0,P|48:192|56:167,1,80,2|0,0:2|1:2,0:0:0:0:
207,188,78844,1,2,0:2:0:0:
324,246,79015,5,2,1:2:0:0:
167,316,79187,1,2,0:2:0:0:
267,213,79358,5,2,1:2:0:0:
463,301,79530,1,2,0:2:0:0:
370,100,79701,6,0,P|376:164|383:195,1,80,2|0,1:2|0:2,0:0:0:0:
446,36,80044,1,2,1:2:0:0:
512,193,80215,2,0,P|506:257|499:288,1,80,2|0,0:2|1:2,0:0:0:0:
318,341,80558,2,0,P|382:347|413:354,1,80,2|0,0:2|1:2,0:0:0:0:
267,236,80901,2,0,P|203:230|172:223,1,80,2|0,0:2|1:2,0:0:0:0:
323,367,81244,2,0,P|387:373|418:380,1,80,2|0,0:2|1:2,0:0:0:0:
262,209,81587,1,2,0:2:0:0:
89,277,81758,5,2,1:2:0:0:
281,348,81929,1,2,0:2:0:0:
330,244,82101,5,2,1:2:0:0:
90,333,82272,1,2,0:2:0:0:
216,147,82444,6,0,P|230:210|224:252,1,80,2|0,1:2|0:2,0:0:0:0:
279,69,82787,1,2,1:2:0:0:
369,183,82958,2,0,P|355:246|361:288,1,80,2|0,0:2|1:2,0:0:0:0:
431,105,83301,2,0,P|490:115|522:114,1,80,2|0,0:2|1:2,0:0:0:0:
329,23,83644,2,0,P|368:15|407:14,1,80,2|0,0:2|1:2,0:0:0:0:
421,130,83987,2,0,P|480:140|512:139,1,80,2|0,0:2|1:2,0:0:0:0:
310,4,84329,1,2,0:2:0:0:
256,192,84501,5,2,1:2:0:0:
428,254,84672,1,2,0:2:0:0:
340,180,84844,5,2,1:2:0:0:
125,258,85015,1,2,0:2:0:0:
256,32,85187,5,6,1:2:0:0:
256,352,85529,1,10,0:2:0:0:
480,192,85872,1,2,1:2:0:0:
480,192,86044,1,10,0:2:0:0:
256,192,86387,1,2,1:2:0:0:
384,320,86558,5,10,0:2:0:0:
329,123,86730,1,10,0:2:0:0:
210,340,86901,1,10,0:2:0:0:
134,68,87072,1,10,0:2:0:0:
134,68,87587,5,10,0:0:0:0:
