osu file format v14

[General]
AudioFilename: Yuruyuriu.mp3
AudioLeadIn: 0
PreviewTime: 51414
Countdown: 0
SampleSet: Soft
StackLeniency: 0.5
Mode: 0
LetterboxInBreaks: 1
WidescreenStoryboard: 1

[Editor]
Bookmarks: 3243,15765,28957,52271,87594
DistanceSpacing: 0.9
BeatDivisor: 4
GridSize: 8
TimelineZoom: 1.2

[Metadata]
Title:Yuriyurarararayuruyuri Daijiken
TitleUnicode:ゆりゆららららゆるゆり大事件
Artist:Nanamori-chu * Goraku-bu
ArtistUnicode:七森中☆ごらく部
Creator:Moo-Chan
Version:Sotarks' Peace of Mind
Source:ゆるゆり
Tags:yuru yuri op opening fizz rizia p_a_n sotarks 2024 2015 oldmap cute short japanese anime akari_akaza kyōko_toshinō yui_funami chinatsu_yoshikawa happy_go_lily
BeatmapID:4581419
BeatmapSetID:299651

[Difficulty]
HPDrainRate:6
CircleSize:4
OverallDifficulty:8.5
ApproachRate:9
SliderMultiplier:1.82
SliderTickRate:1

[Events]
//Background and Video events
0,0,"bgsotarks.png",0,0
//Break Periods
//Storyboard Layer 0 (Background)
//Storyboard Layer 1 (Fail)
//Storyboard Layer 2 (Pass)
//Storyboard Layer 3 (Foreground)
//Storyboard Layer 4 (Overlay)
//Storyboard Sound Samples

[TimingPoints]
1529,342.857142857143,4,2,3,72,1,0
1529,-121.951219512195,4,2,3,72,0,0
9757,-98.0392156862745,4,2,3,72,0,0
12500,-108.695652173913,4,2,3,72,0,0
17986,-98.0392156862745,4,2,3,72,0,0
28957,-108.695652173913,4,2,3,72,0,0
39929,-121.951219512195,4,2,3,72,0,0
50129,-121.951219512195,4,2,3,5,0,0
50214,-192.307692307692,4,2,3,52,0,0
51414,-138.888888888889,4,2,3,62,0,0
52271,-89.2857142857144,4,2,3,82,0,0
76957,-89.2857142857144,4,2,3,72,0,0

[Colours]
Combo1 : 255,255,51
Combo2 : 255,128,192
Combo3 : 0,242,242

[HitObjects]
102,263,1529,6,0,P|164:277|188:278,1,74.6200011386109,2|0,1:2|0:2,0:0:0:0:
262,329,1871,1,2,1:2:0:0:
370,221,2043,2,0,P|371:166|367:136,1,74.6200011386109,2|0,0:2|1:2,0:0:0:0:
298,89,2386,1,2,0:2:0:0:
282,178,2557,1,0,1:2:0:0:
298,89,2729,6,0,P|236:80|210:82,1,74.6200011386109,2|0,0:2|1:2,0:0:0:0:
370,221,3071,2,0,P|432:230|458:228,1,74.6200011386109,2|0,0:2|1:2,0:0:0:0:
485,110,3414,5,2,3:2:0:0:
485,110,3500,1,0,3:0:0:0:
485,110,3586,1,2,1:2:0:0:
404,80,3757,1,2,0:2:0:0:
419,160,3929,1,2,1:2:0:0:
471,32,4100,1,2,0:2:0:0:
326,99,4271,6,0,B|283:87|283:87|241:100|166:101,1,149.240002277222,2|2,1:2|1:2,0:0:0:0:
66,55,4786,1,2,0:2:0:0:
99,206,4957,1,0,1:2:0:0:
66,55,5129,2,0,P|68:101|74:134,1,74.6200011386109,2|0,0:2|1:2,0:0:0:0:
200,253,5471,2,0,P|198:215|193:178,1,74.6200011386109,2|0,0:2|1:2,0:0:0:0:
139,305,5814,6,0,P|192:340|268:299,1,149.240002277222,2|2,0:2|3:2,0:0:0:0:
263,306,6243,1,0,3:0:0:0:
263,306,6329,1,2,1:2:0:0:
386,267,6500,1,2,0:2:0:0:
304,225,6671,1,2,1:2:0:0:
361,349,6843,1,2,0:2:0:0:
361,349,7014,6,0,P|404:341|439:338,1,74.6200011386109,2|0,1:2|0:2,0:0:0:0:
490,259,7357,1,2,1:2:0:0:
406,128,7529,2,0,P|418:183|428:217,1,74.6200011386109,2|0,0:2|1:2,0:0:0:0:
512,162,7871,2,0,P|500:107|490:73,1,74.6200011386109,2|0,0:2|1:2,0:0:0:0:
364,6,8214,1,2,3:2:0:0:
364,6,8300,1,0,3:2:0:0:
364,6,8386,5,0,1:2:0:0:
315,88,8557,2,0,B|276:103|276:103|237:91|150:88,1,149.240002277222,2|2,0:2|0:2,0:0:0:0:
80,174,9071,1,2,1:2:0:0:
31,90,9243,1,2,0:2:0:0:
167,159,9414,1,2,1:2:0:0:
68,276,9586,1,2,3:2:0:0:
68,276,9671,1,0,3:2:0:0:
68,276,9757,6,0,P|153:261|277:253,2,185.640001133057,2|2|2,1:0|1:0|1:0,0:0:0:0:
322,201,10614,1,2,1:0:0:0:
322,201,10957,2,0,P|335:274|335:302,1,92.8200005665283,2|0,1:0|0:0,0:0:0:0:
284,359,11300,5,10,0:0:0:0:
437,253,11471,1,10,0:0:0:0:
316,117,11643,1,10,0:0:0:0:
251,253,11814,1,10,0:0:0:0:
251,253,11900,1,8,0:0:0:0:
251,253,11986,2,0,L|313:275,1,46.4100002832642,10|8,0:0|0:0,0:0:0:0:
395,178,12157,2,0,L|438:162,1,46.4100002832642,8|8,0:3|0:3,0:0:0:0:
433,52,12329,1,4,0:3:0:0:
433,52,12414,1,4,0:3:0:0:
433,52,12500,6,0,B|344:33|345:79|246:55,1,167.439994379151,6|0,1:2|1:2,0:0:0:0:
82,110,13014,1,2,0:2:0:0:
176,15,13186,1,2,1:2:0:0:
198,205,13357,2,0,P|181:136|179:103,1,83.7199971895753,2|0,0:2|1:2,0:0:0:0:
179,123,13700,1,0,0:2:0:0:
263,269,13871,6,0,P|212:316|135:270,1,167.439994379151,2|0,1:2|1:2,0:0:0:0:
305,184,14386,1,2,0:2:0:0:
332,338,14557,1,2,1:2:0:0:
467,299,14729,2,0,P|463:243|455:209,1,83.7199971895753,2|0,0:2|1:2,0:0:0:0:
397,59,15071,5,2,0:2:0:0:
397,59,15157,1,2,0:2:0:0:
397,59,15243,1,2,1:2:0:0:
488,126,15414,2,0,P|422:136|315:134,1,167.439994379151,2|2,0:2|0:2,0:0:0:0:
321,134,15843,1,2,0:2:0:0:
321,134,15929,1,2,1:2:0:0:
204,76,16100,2,0,P|208:132|216:166,1,83.7199971895753,2|0,0:2|1:2,0:0:0:0:
249,244,16443,1,2,0:2:0:0:
138,171,16614,6,0,L|50:153,1,83.7199971895753,2|2,1:2|0:2,0:0:0:0:
289,117,16957,2,0,L|348:49,1,83.7199971895753,10|0,0:2|0:2,0:0:0:0:
249,244,17300,2,0,L|277:329,1,83.7199971895753,2|0,1:2|0:2,0:0:0:0:
217,176,17643,1,8,0:2:0:0:
220,155,17729,1,8,0:2:0:0:
224,134,17814,1,8,0:2:0:0:
159,311,17986,6,0,P|86:345|10:266,1,185.640001133057,6|0,1:2|1:2,0:0:0:0:
104,227,18500,1,2,0:2:0:0:
261,337,18671,1,2,1:2:0:0:
224,134,18843,1,2,0:2:0:0:
189,305,19014,2,0,P|198:248|193:195,1,92.8200005665283,8|0,1:2|0:2,0:0:0:0:
36,68,19357,6,0,B|79:85|79:85|147:63|221:59,1,185.640001133057,2|0,1:2|1:2,0:0:0:0:
87,0,19871,1,2,0:2:0:0:
144,149,20043,1,2,1:2:0:0:
330,91,20214,1,2,0:2:0:0:
215,59,20386,1,8,1:2:0:0:
273,223,20557,5,2,0:2:0:0:
273,223,20643,1,2,0:2:0:0:
273,223,20729,1,2,1:2:0:0:
330,91,20900,2,0,P|342:152|341:200,1,92.8200005665283,2|8,0:2|1:2,0:0:0:0:
305,296,21243,5,2,0:2:0:0:
305,296,21329,1,2,0:2:0:0:
305,296,21414,1,2,1:2:0:0:
360,96,21586,2,0,P|372:157|371:205,1,92.8200005665283,2|8,0:2|1:2,0:0:0:0:
446,118,21929,5,2,0:2:0:0:
269,144,22100,1,2,1:2:0:0:
479,207,22271,1,2,0:2:0:0:
264,136,22443,2,0,P|164:118|63:153,1,185.640001133057,10|10,1:2|1:2,0:0:0:0:
84,140,23129,5,10,0:2:0:0:
55,175,23214,1,10,0:2:0:0:
52,221,23300,1,10,0:2:0:0:
76,260,23386,1,10,0:2:0:0:
118,278,23471,1,14,1:2:0:0:
265,143,23643,1,2,0:2:0:0:
61,68,23814,1,2,1:2:0:0:
162,190,23986,6,0,P|174:119|170:-2,1,185.640001133057,2|0,0:2|0:2,0:0:0:0:
171,5,24500,1,8,1:2:0:0:
434,311,24843,5,2,1:2:0:0:
245,236,25014,1,2,0:2:0:0:
403,127,25186,1,2,1:2:0:0:
341,340,25357,2,0,P|329:269|333:148,1,185.640001133057,2|0,0:2|0:2,0:0:0:0:
331,155,25871,1,8,1:2:0:0:
154,323,26214,5,2,1:2:0:0:
70,149,26386,1,2,0:2:0:0:
245,66,26557,1,2,1:2:0:0:
164,228,26729,1,2,0:2:0:0:
0,106,26900,5,2,1:2:0:0:
225,179,27071,1,2,0:2:0:0:
5,290,27243,1,10,1:2:0:0:
121,38,27414,1,2,0:2:0:0:
154,323,27586,6,0,P|138:238|139:149,1,139.230000849792,2|0,1:2|0:0,0:0:0:0:
134,162,27929,1,8,0:2:0:0:
258,330,28100,1,8,0:2:0:0:
258,330,28443,1,0,1:2:0:0:
310,236,28614,2,0,P|242:238|200:250,1,92.8200005665283,8|0,0:2|0:0,0:0:0:0:
389,287,28957,6,0,P|396:228|389:181,1,83.7199971895753,6|2,1:2|0:2,0:0:0:0:
393,204,29214,1,2,0:2:0:0:
393,204,29300,2,0,L|484:189,1,83.7199971895753,10|2,0:2|0:2,0:0:0:0:
346,106,29643,1,2,1:2:0:0:
256,58,29814,2,8,P|249:117|256:164,1,83.7199971895753,0|10,0:0|0:2,0:0:0:0:
218,243,30157,1,2,3:2:0:0:
157,171,30329,5,2,1:2:0:0:
301,208,30500,1,2,1:2:0:0:
203,332,30671,1,10,0:2:0:0:
218,243,30843,2,0,B|264:241|264:241|308:258|409:262,1,167.439994379151,2|2,1:2|1:2,0:0:0:0:
467,168,31357,2,0,P|468:117|459:75,1,83.7199971895753,8|2,0:2|3:2,0:0:0:0:
301,84,31700,5,2,1:2:0:0:
381,151,31871,1,0,1:2:0:0:
370,11,32043,1,10,0:2:0:0:
225,66,32214,1,2,0:2:0:0:
292,166,32386,2,0,P|301:105|298:61,1,83.7199971895753,2|2,1:2|3:2,0:0:0:0:
146,7,32729,2,0,P|137:68|140:112,1,83.7199971895753,10|0,0:2|3:2,0:0:0:0:
140,120,32986,1,0,3:2:0:0:
140,120,33071,6,0,P|94:144|12:68,1,167.439994379151,2|10,1:2|0:2,0:0:0:0:
113,225,33586,2,0,L|129:325,1,83.7199971895753,2|0,0:2|1:2,0:0:0:0:
48,288,33929,6,0,L|1:278,1,41.8599985947876,8|0,3:2|0:0,0:0:0:0:
192,248,34100,2,0,L|239:238,1,41.8599985947876,8|0,3:2|0:0,0:0:0:0:
38,198,34271,1,10,3:2:0:0:
221,343,34443,5,6,1:2:0:0:
136,312,34614,1,2,0:2:0:0:
136,312,34700,1,2,0:2:0:0:
136,312,34786,1,10,0:2:0:0:
268,205,34957,1,2,0:2:0:0:
311,346,35129,1,2,1:2:0:0:
192,248,35300,2,0,P|185:195|195:134,1,83.7199971895753,0|10,0:0|0:2,0:0:0:0:
216,84,35643,1,2,3:2:0:0:
272,160,35814,5,2,1:2:0:0:
121,91,35986,1,2,1:2:0:0:
263,6,36157,1,10,0:2:0:0:
216,84,36329,2,0,P|299:73|408:67,1,167.439994379151,2|2,1:2|1:2,0:0:0:0:
482,112,36843,2,0,P|480:59|472:19,1,83.7199971895753,8|2,0:2|3:2,0:0:0:0:
474,28,37100,1,0,3:0:0:0:
474,28,37186,5,2,1:2:0:0:
396,144,37357,1,0,1:2:0:0:
497,201,37529,1,10,0:2:0:0:
382,67,37700,1,2,0:2:0:0:
306,193,37871,1,2,1:2:0:0:
482,112,38043,1,2,3:2:0:0:
401,227,38214,2,0,P|395:175|397:124,1,83.7199971895753,10|0,0:2|3:2,0:0:0:0:
453,301,38557,6,0,B|398:315|398:315|351:294|281:294,1,167.439994379151,2|10,1:2|0:2,0:0:0:0:
160,243,39071,2,0,P|160:284|165:326,1,83.7199971895753,2|0,0:2|1:2,0:0:0:0:
247,138,39414,1,8,3:2:0:0:
220,380,39586,1,8,3:2:0:0:
250,135,39757,1,10,3:2:0:0:
160,243,39929,6,0,P|98:255|20:208,1,149.240002277222,6|2,1:2|0:2,0:0:0:0:
159,105,40443,1,2,1:2:0:0:
96,171,40614,2,0,P|79:109|84:78,1,74.6200011386109,0|0,1:2|0:2,0:0:0:0:
239,30,40957,2,0,P|241:149|225:193,1,149.240002277222,10|2,0:2|1:2,0:0:0:0:
373,339,41643,5,2,0:2:0:0:
320,263,41814,1,2,1:2:0:0:
320,263,41986,1,0,1:2:0:0:
274,345,42157,1,0,0:2:0:0:
402,259,42329,2,0,P|411:207|409:171,1,74.6200011386109,8|0,0:2|0:0,0:0:0:0:
223,271,42671,6,0,B|150:248|156:289|64:263,1,149.240002277222,2|2,1:2|0:2,0:0:0:0:
113,117,43186,1,2,1:2:0:0:
143,195,43357,2,0,P|91:193|62:182,1,74.6200011386109,0|0,1:2|0:2,0:0:0:0:
38,47,43700,2,0,P|105:39|218:34,1,149.240002277222,10|2,0:2|1:2,0:0:0:0:
314,126,44214,5,2,0:2:0:0:
232,92,44386,1,2,0:2:0:0:
309,39,44557,1,2,1:2:0:0:
309,39,44729,1,0,1:2:0:0:
239,181,44900,1,0,0:2:0:0:
387,117,45071,2,0,P|329:121|301:129,1,74.6200011386109,8|0,0:2|0:0,0:0:0:0:
457,177,45414,6,0,P|487:113|438:48,1,149.240002277222,2|2,1:2|0:2,0:0:0:0:
376,200,45929,1,2,1:2:0:0:
438,263,46100,2,0,P|485:264|523:252,1,74.6200011386109,0|2,1:2|0:2,0:0:0:0:
293,235,46443,2,0,P|230:219|173:246,1,111.930001707916,8|0,0:2|0:0,0:0:0:0:
187,234,46786,6,0,P|178:182|186:146,1,74.6200011386109,2|2,1:2|0:2,0:0:0:0:
242,310,47129,1,2,0:2:0:0:
126,320,47300,2,0,P|79:321|41:309,1,74.6200011386109,2|0,1:2|1:2,0:0:0:0:
95,160,47643,1,2,0:2:0:0:
95,160,47729,1,2,0:2:0:0:
95,160,47814,2,0,P|104:212|96:248,1,74.6200011386109,10|2,0:2|0:2,0:0:0:0:
29,74,48157,5,2,1:2:0:0:
184,130,48329,1,2,0:2:0:0:
202,125,48414,1,2,0:2:0:0:
220,121,48500,5,2,1:2:0:0:
161,30,48671,1,2,0:2:0:0:
217,217,48843,1,2,1:2:0:0:
167,29,49014,1,2,0:2:0:0:
210,230,49186,1,2,1:2:0:0:
177,27,49357,1,2,0:2:0:0:
310,133,49529,6,0,B|375:106|384:158|435:173|497:160|511:124|465:74|426:84|429:132,1,261.170003985138,6|0,1:2|0:0,0:0:0:0:
428,130,50214,6,0,P|422:227|435:339,1,189.279998844727,2|8,0:0|0:2,0:0:0:0:
431,319,51414,6,0,P|385:330|358:331,1,65.5200015996094,2|0,0:0|0:0,0:0:0:0:
280,298,51757,2,0,P|282:341|291:373,2,65.5200015996094,2|2|2,0:0|0:0|0:0,0:0:0:0:
171,117,52271,6,0,P|117:105|58:105,1,101.920001244141,6|0,1:2|0:0,0:0:0:0:
117,243,52614,1,8,0:2:0:0:
296,198,52786,2,0,P|305:144|306:90,1,101.920001244141,2|0,0:2|1:2,0:0:0:0:
164,23,53129,1,2,3:2:0:0:
164,23,53214,1,0,3:2:0:0:
164,23,53300,1,10,0:2:0:0:
195,194,53471,1,2,3:2:0:0:
407,109,53643,6,0,P|349:98|294:97,1,101.920001244141,2|0,1:2|0:0,0:0:0:0:
381,285,53986,1,8,0:2:0:0:
195,194,54157,2,0,P|184:245|185:295,1,101.920001244141,2|0,0:2|1:2,0:0:0:0:
267,378,54500,1,2,3:2:0:0:
267,378,54586,1,0,3:2:0:0:
267,378,54671,1,10,0:2:0:0:
68,274,54843,1,2,0:2:0:0:
281,243,55014,6,0,B|342:232|342:232|409:247|493:245,1,203.840002488281,2|8,1:2|0:2,0:0:0:0:
386,384,55529,2,0,P|381:333|384:282,1,101.920001244141,2|0,0:2|1:2,0:0:0:0:
487,330,55871,1,2,0:2:0:0:
281,243,56043,1,10,0:2:0:0:
445,90,56214,1,2,3:2:0:0:
448,115,56300,1,0,3:2:0:0:
452,140,56386,6,0,P|365:159|263:100,2,203.840002488281,2|8|2,1:2|0:2|1:2,0:0:0:0:
314,29,57243,1,0,3:2:0:0:
314,29,57329,1,0,3:2:0:0:
314,29,57414,1,10,0:2:0:0:
172,239,57586,1,8,0:2:0:0:
167,213,57671,1,8,0:2:0:0:
162,188,57757,6,0,P|85:159|19:257,1,203.840002488281,6|8,1:2|0:2,0:0:0:0:
203,351,58271,1,0,0:2:0:0:
305,276,58443,2,0,P|307:216|296:159,1,101.920001244141,2|0,1:2|0:0,0:0:0:0:
105,255,58786,2,0,P|103:315|114:372,1,101.920001244141,8|0,0:2|0:2,0:0:0:0:
305,276,59129,6,0,L|433:244,1,101.920001244141,2|0,1:2|0:2,0:0:0:0:
162,188,59471,2,0,L|34:156,1,101.920001244141,10|0,0:2|3:2,0:0:0:0:
45,157,59729,1,0,3:0:0:0:
45,157,59814,1,2,1:2:0:0:
200,61,59986,1,0,3:2:0:0:
17,246,60157,1,10,0:2:0:0:
248,139,60329,1,8,0:2:0:0:
272,145,60414,1,8,0:2:0:0:
297,151,60500,5,2,1:2:0:0:
278,49,60671,1,2,0:2:0:0:
155,166,60843,1,10,0:2:0:0:
376,213,61014,2,0,P|380:143|370:91,1,101.920001244141,2|0,0:2|1:2,0:0:0:0:
244,289,61357,1,8,0:2:0:0:
346,358,61529,2,0,P|414:349|464:324,1,101.920001244141,8|4,0:3|0:3,0:0:0:0:
251,208,61871,6,0,L|229:92,1,101.920001244141,6|2,1:0|0:0,0:0:0:0:
152,278,62214,2,0,L|133:378,1,101.920001244141,10|2,0:0|0:0,0:0:0:0:
25,212,62557,1,8,0:0:0:0:
62,186,62643,1,8,0:0:0:0:
107,178,62729,1,10,0:0:0:0:
151,188,62814,1,8,0:0:0:0:
188,215,62900,1,10,0:0:0:0:
225,241,62986,1,8,0:0:0:0:
270,252,63071,1,10,0:0:0:0:
314,243,63157,1,8,0:0:0:0:
352,218,63243,5,6,1:2:0:0:
256,140,63414,1,0,0:0:0:0:
329,314,63586,1,8,0:2:0:0:
462,173,63757,1,2,0:2:0:0:
225,241,63929,5,0,1:2:0:0:
425,286,64100,1,2,0:2:0:0:
368,46,64271,1,10,0:2:0:0:
314,243,64443,1,2,3:2:0:0:
141,158,64614,6,0,P|135:92|146:32,1,101.920001244141,2|0,1:2|0:0,0:0:0:0:
314,243,64957,2,0,P|318:293|312:344,1,101.920001244141,8|2,0:2|0:2,0:0:0:0:
134,252,65300,1,0,1:2:0:0:
264,161,65471,1,2,3:2:0:0:
264,161,65557,1,0,3:0:0:0:
264,161,65643,2,0,P|339:155|379:160,1,101.920001244141,10|2,0:2|0:2,0:0:0:0:
226,342,65986,6,0,P|148:365|34:305,1,203.840002488281,2|8,1:2|0:2,0:0:0:0:
69,86,66500,1,2,0:2:0:0:
134,252,66671,1,0,1:2:0:0:
8,204,66843,1,2,0:2:0:0:
221,157,67014,1,10,0:2:0:0:
74,384,67186,1,2,3:2:0:0:
134,252,67357,6,0,P|147:319|149:375,1,101.920001244141,2|0,1:2|0:2,0:0:0:0:
300,274,67700,2,0,L|422:243,1,101.920001244141,8|0,0:2|3:2,0:0:0:0:
220,119,68043,2,0,P|224:68|235:18,1,101.920001244141,2|0,1:2|0:2,0:0:0:0:
367,136,68386,1,10,0:2:0:0:
234,218,68557,5,8,0:2:0:0:
234,218,68643,1,8,0:2:0:0:
234,218,68729,2,0,P|151:241|40:181,1,203.840002488281,6|8,1:2|0:2,0:0:0:0:
142,83,69243,1,0,0:2:0:0:
315,182,69414,2,0,P|324:253|318:300,1,101.920001244141,2|0,1:2|0:0,0:0:0:0:
135,384,69757,2,0,P|126:313|132:266,1,101.920001244141,8|0,0:2|0:2,0:0:0:0:
254,108,70100,6,0,P|336:93|381:101,1,101.920001244141,2|0,1:2|0:2,0:0:0:0:
128,283,70443,2,0,P|77:283|28:269,1,101.920001244141,10|0,0:2|0:2,0:0:0:0:
107,134,70786,1,2,1:2:0:0:
208,341,70957,1,0,3:2:0:0:
398,188,71129,1,10,0:2:0:0:
237,221,71300,1,8,0:2:0:0:
237,221,71386,1,8,0:2:0:0:
237,221,71471,5,2,1:2:0:0:
300,295,71643,1,2,0:2:0:0:
254,73,71814,1,10,0:2:0:0:
99,172,71986,1,2,0:2:0:0:
166,295,72157,5,0,1:2:0:0:
184,30,72329,1,8,0:2:0:0:
331,212,72500,1,8,0:3:0:0:
99,172,72671,1,4,0:3:0:0:
355,135,72843,6,0,L|363:23,1,101.920001244141,6|2,1:0|0:0,0:0:0:0:
232,234,73186,2,0,L|239:335,1,101.920001244141,10|2,0:0|0:0,0:0:0:0:
459,174,73529,1,8,0:0:0:0:
422,148,73614,1,8,0:0:0:0:
377,140,73700,1,10,0:0:0:0:
333,150,73786,1,8,0:0:0:0:
296,177,73871,1,10,0:0:0:0:
259,203,73957,1,8,0:0:0:0:
214,214,74043,1,10,0:0:0:0:
170,205,74129,1,8,0:0:0:0:
132,180,74214,5,4,1:2:0:0:
220,130,74557,1,2,0:0:0:0:
281,217,74900,1,2,0:0:0:0:
184,269,75243,1,2,0:0:0:0:
208,201,75586,5,10,0:0:0:0:
208,201,76957,5,2,1:2:0:0:
148,125,77129,1,0,0:2:0:0:
173,280,77300,1,2,1:2:0:0:
297,179,77471,2,0,P|298:110|284:69,1,101.920001244141,2|0,0:2|1:2,0:0:0:0:
104,208,77814,1,2,3:2:0:0:
104,208,77900,1,0,3:2:0:0:
104,208,77986,1,0,3:2:0:0:
261,284,78157,2,0,P|324:285|369:270,1,101.920001244141,2|0,0:2|1:2,0:0:0:0:
208,201,78500,1,2,0:2:0:0:
265,372,78671,1,0,1:2:0:0:
388,256,78843,5,2,3:2:0:0:
388,256,78929,1,0,3:2:0:0:
388,256,79014,1,2,1:2:0:0:
134,319,79186,1,2,0:2:0:0:
375,240,79357,1,2,1:2:0:0:
137,333,79529,1,2,0:2:0:0:
297,143,79700,6,0,P|305:79|296:35,1,101.920001244141,2|0,1:2|0:2,0:0:0:0:
208,201,80043,1,2,1:2:0:0:
112,42,80214,1,2,0:2:0:0:
213,103,80386,1,0,1:2:0:0:
52,237,80557,1,2,0:2:0:0:
114,124,80729,1,0,1:2:0:0:
100,321,80900,2,0,P|30:327|-13:314,1,101.920001244141,2|0,0:2|1:2,0:0:0:0:
208,201,81243,2,0,P|278:195|321:208,1,101.920001244141,2|0,0:2|1:2,0:0:0:0:
381,330,81586,5,2,3:2:0:0:
381,330,81671,1,0,3:2:0:0:
381,330,81757,1,2,1:2:0:0:
320,104,81929,1,2,0:2:0:0:
374,341,82100,1,2,1:2:0:0:
332,94,82271,1,2,0:2:0:0:
294,279,82443,5,2,1:2:0:0:
424,213,82614,1,0,0:2:0:0:
246,73,82786,1,2,1:2:0:0:
329,195,82957,2,0,P|334:141|331:88,1,101.920001244141,2|0,0:2|1:2,0:0:0:0:
167,23,83300,1,2,3:2:0:0:
167,23,83386,1,0,3:2:0:0:
167,23,83471,1,0,1:2:0:0:
129,174,83643,2,0,P|192:171|246:156,1,101.920001244141,2|0,0:2|1:2,0:0:0:0:
63,94,83986,6,0,P|13:151|68:260,1,203.840002488281,2|2,0:2|3:2,0:0:0:0:
79,268,84414,1,0,3:0:0:0:
104,268,84500,1,2,1:2:0:0:
182,84,84671,1,2,0:2:0:0:
207,308,84843,1,2,1:2:0:0:
411,229,85014,1,2,0:2:0:0:
278,179,85186,5,6,1:2:0:0:
454,384,85529,1,10,0:2:0:0:
469,93,85871,1,2,1:2:0:0:
469,93,86043,2,0,P|488:172|489:307,1,203.840002488281,10|2,0:2|1:2,0:0:0:0:
291,48,86557,5,10,0:2:0:0:
360,310,86729,1,10,0:2:0:0:
410,23,86900,1,10,0:2:0:0:
241,319,87071,2,0,B|179:349|179:349|91:335|51:299,1,203.840002488281,10|0,0:2|0:0,0:0:0:0:
166,237,87586,5,14,0:0:0:0:
