osu file format v14

[General]
AudioFilename: audio.mp3
AudioLeadIn: 0
PreviewTime: 55926
Countdown: 0
SampleSet: Soft
StackLeniency: 0.7
Mode: 3
LetterboxInBreaks: 0
SpecialStyle: 0
WidescreenStoryboard: 1

[Editor]
DistanceSpacing: 0.5
BeatDivisor: 4
GridSize: 32
TimelineZoom: 1.9

[Metadata]
Title:Yes! Yuyuyu * Yuruyuri (TV Size)
TitleUnicode:いぇす!ゆゆゆ☆ゆるゆり♪♪ (TV Size)
Artist:Nanamori-chu * Goraku-bu
ArtistUnicode:七森中☆ごらく部
Creator:SuzumeAyase
Version:Yes! Yui * Normal
Source:ゆるゆり♪♪
Tags:syadow- ferdixia- yuiazu- onii_ue 三上枝織 大坪由佳 津田美波 大久保瑠美 Mikami Shiori Otsubo Yuka Tsuda Minami Okubo Rumi 赤座あかり Akaza Akari 歳納京子 Toshino Kyoko 船見結衣 Funami Yui 吉川ちなつ Yoshikawa Chinatsu funta7 Seiichiro Sugiura 杉浦ラフィン誠一郎 pony canyon PCCG-01280 PCCG-70137 yryr yuru yuri yuri♪♪ YURUYURI♪2nd.Series BEST ALBUM ゆるゆりずむ♪2 Yuruyurizumi♪2 opening op season 2 s2 jpop j-pop japanese pop anime
BeatmapID:3507138
BeatmapSetID:1716339

[Difficulty]
HPDrainRate:7.5
CircleSize:4
OverallDifficulty:7.5
ApproachRate:5
SliderMultiplier:1.4
SliderTickRate:1

[Events]
//Background and Video events
0,0,"BG.png",0,0
Video,499,"VIDEO.mp4"
//Break Periods
//Storyboard Layer 0 (Background)
//Storyboard Layer 1 (Fail)
//Storyboard Layer 2 (Pass)
//Storyboard Layer 3 (Foreground)
//Storyboard Layer 4 (Overlay)
//Storyboard Sound Samples
Sample,56146,0,"Crash 2.wav",70
Sample,56805,0,"Crash 2.wav",70
Sample,58234,0,"Tom 1.wav",55
Sample,68783,0,"Tom 1.wav",55

[TimingPoints]
542,329.67032967033,4,2,1,70,1,0
24607,-100,4,2,1,50,0,0
26915,-100,4,2,1,70,0,0
27080,-100,4,2,1,50,0,0
29552,-100,4,2,1,70,0,0
29717,-100,4,2,1,50,0,0
32520,-100,4,2,1,70,0,0
58563,-100,4,2,1,70,0,1
79662,-100,4,2,1,70,0,0

[HitObjects]
320,192,542,128,0,2520:0:0:0:30:Hat open.wav
64,192,1201,1,0,0:0:0:50:Hat open.wav
448,192,1860,1,0,0:0:0:70:Hat open.wav
64,192,2520,1,8,0:0:0:0:
192,192,2520,1,0,0:0:0:0:
64,192,3179,128,2,3509:0:0:0:0:
448,192,3179,1,4,0:0:0:0:
320,192,3509,128,8,3673:0:0:0:0:
192,192,3673,128,2,3838:0:0:0:0:
448,192,3838,128,2,4003:0:0:0:0:
320,192,4003,128,2,4168:0:0:0:0:
64,192,4168,1,8,0:0:0:0:
192,192,4333,128,2,4498:0:0:0:0:
320,192,4498,128,2,4662:0:0:0:0:
64,192,4662,128,2,4827:0:0:0:0:
448,192,4827,128,8,4992:0:0:0:0:
192,192,4992,128,2,5157:0:0:0:0:
320,192,5322,1,8,0:0:0:0:
448,192,5322,1,0,0:0:0:0:
64,192,5487,1,8,0:0:0:0:
192,192,5487,1,0,0:0:0:0:
320,192,5651,1,8,0:0:0:0:
448,192,5651,1,0,0:0:0:0:
64,192,5816,128,2,6146:0:0:0:0:
192,192,5816,1,4,0:0:0:0:
448,192,6146,128,8,6311:0:0:0:0:
320,192,6311,128,2,6476:0:0:0:0:
64,192,6476,128,2,6640:0:0:0:0:
192,192,6640,128,2,6805:0:0:0:0:
448,192,6805,1,8,0:0:0:0:
320,192,6970,128,2,7135:0:0:0:0:
192,192,7135,128,2,7300:0:0:0:0:
448,192,7300,128,2,7465:0:0:0:0:
64,192,7465,128,8,7629:0:0:0:0:
192,192,7629,128,2,7794:0:0:0:0:
320,192,7794,128,0,8124:0:0:0:0:
448,192,7959,128,2,8124:0:0:0:0:
192,192,8124,128,8,8454:0:0:0:0:
64,192,8289,128,0,8454:0:0:0:0:
320,192,8454,1,2,0:0:0:0:
448,192,8454,128,4,8783:0:0:0:0:
192,192,8783,128,8,8948:0:0:0:0:
320,192,8948,128,2,9113:0:0:0:0:
64,192,9113,128,2,9278:0:0:0:0:
448,192,9278,128,2,9443:0:0:0:0:
192,192,9443,1,8,0:0:0:0:
320,192,9607,128,2,9772:0:0:0:0:
64,192,9772,128,2,9937:0:0:0:0:
192,192,9937,128,2,10102:0:0:0:0:
448,192,10102,128,8,10267:0:0:0:0:
320,192,10267,128,2,10432:0:0:0:0:
64,192,10596,1,8,0:0:0:0:
192,192,10596,1,0,0:0:0:0:
320,192,10761,1,8,0:0:0:0:
448,192,10761,1,0,0:0:0:0:
64,192,10926,1,8,0:0:0:0:
192,192,10926,1,0,0:0:0:0:
320,192,11091,1,2,0:0:0:0:
448,192,11091,1,4,0:0:0:0:
64,192,11750,1,2,0:0:0:0:
192,192,11750,1,0,0:0:0:70:Crash 2.wav
320,192,12245,1,2,0:0:0:0:
448,192,12245,1,4,0:0:0:0:
192,192,12574,1,8,0:0:0:0:
192,192,12739,1,8,0:0:0:0:
320,192,12904,1,8,0:0:0:0:
320,192,13069,1,8,0:0:0:0:
192,192,13234,1,2,0:0:0:0:
64,192,13399,1,8,0:0:0:0:
448,192,13399,1,4,0:0:0:0:
192,192,13728,1,2,0:0:0:0:
320,192,13728,128,4,14058:0:0:0:0:
64,192,14058,1,8,0:0:0:0:
448,192,14058,1,0,0:0:0:0:
192,192,14388,128,2,14717:0:0:0:0:
320,192,14717,1,8,0:0:0:0:
448,192,14717,1,0,0:0:0:0:
64,192,15047,128,2,15377:0:0:0:0:
192,192,15377,1,8,0:0:0:0:
320,192,15377,1,0,0:0:0:0:
64,192,15706,1,2,0:0:0:0:
448,192,15706,128,0,15871:0:0:0:0:
192,192,15871,128,0,16036:0:0:0:0:
320,192,16036,128,8,16201:0:0:0:0:
448,192,16036,1,0,0:0:0:0:
64,192,16201,128,0,16366:0:0:0:0:
448,192,16366,128,2,16695:0:0:0:0:
192,192,16695,1,8,0:0:0:0:
320,192,16695,1,0,0:0:0:0:
64,192,17025,128,2,17355:0:0:0:0:
320,192,17355,1,8,0:0:0:0:
448,192,17355,1,0,0:0:0:0:
192,192,17684,1,2,0:0:0:0:
320,192,17849,1,8,0:0:0:0:
320,192,18014,1,8,0:0:0:0:
64,192,18179,1,2,0:0:0:0:
448,192,18179,128,4,18509:0:0:0:0:
192,192,18509,1,2,0:0:0:0:
64,192,18673,1,8,0:0:0:0:
448,192,18673,1,0,0:0:0:0:
320,192,18838,1,0,0:0:0:70:Tom 2.wav
64,192,19003,1,2,0:0:0:0:
192,192,19003,128,0,19333:0:0:0:0:
320,192,19333,1,8,0:0:0:0:
448,192,19333,1,0,0:0:0:0:
64,192,19662,128,2,19992:0:0:0:0:
192,192,19992,1,8,0:0:0:0:
448,192,19992,1,0,0:0:0:0:
320,192,20322,128,2,20651:0:0:0:0:
64,192,20651,1,8,0:0:0:0:
448,192,20651,1,0,0:0:0:0:
192,192,20981,128,2,21146:0:0:0:0:
320,192,20981,1,0,0:0:0:0:
448,192,21146,128,0,21311:0:0:0:0:
64,192,21311,128,8,21476:0:0:0:0:
192,192,21311,1,0,0:0:0:0:
320,192,21476,128,0,21640:0:0:0:0:
64,192,21640,1,2,0:0:0:0:
448,192,21640,1,4,0:0:0:0:
192,192,21805,1,0,0:0:0:0:
320,192,21970,1,8,0:0:0:0:
64,192,22135,128,0,22300:0:0:0:0:
448,192,22300,128,0,22465:0:0:0:70:Tom 1.wav
320,192,22465,128,0,22629:0:0:0:70:Tom 2.wav
192,192,22629,128,0,22794:0:0:0:70:Tom 3.wav
64,192,22794,128,2,23124:0:0:0:0:
448,192,22794,1,4,0:0:0:0:
320,192,23124,1,8,0:0:0:0:
320,192,23289,1,8,0:0:0:0:
192,192,23454,1,8,0:0:0:0:
192,192,23618,1,8,0:0:0:0:
320,192,23948,1,2,0:0:0:0:
448,192,23948,1,0,0:0:0:70:Crash 2.wav
64,192,24278,1,2,0:0:0:0:
192,192,24278,1,4,0:0:0:0:
320,192,24443,1,2,0:0:0:0:
448,192,24443,1,0,0:0:0:70:Crash 2.wav
192,192,24607,1,8,0:0:0:0:
320,192,24937,1,2,0:0:0:0:
64,192,25267,1,8,0:0:0:0:
448,192,25596,1,2,0:0:0:0:
192,192,25926,1,8,0:0:0:0:
320,192,26256,1,2,0:0:0:0:
64,192,26585,1,8,0:0:0:0:
320,192,26915,1,2,0:0:0:0:
448,192,26915,1,4,0:0:0:0:
64,192,27080,1,2,0:0:0:0:
192,192,27080,1,0,0:0:0:70:Crash 2.wav
448,192,27245,1,8,0:0:0:0:
64,192,27574,1,2,0:0:0:0:
192,192,27904,1,8,0:0:0:0:
448,192,28234,1,2,0:0:0:0:
320,192,28563,1,8,0:0:0:0:
192,192,28893,1,2,0:0:0:0:
448,192,29223,1,8,0:0:0:0:
64,192,29552,1,2,0:0:0:0:
192,192,29552,1,4,0:0:0:0:
320,192,29717,1,2,0:0:0:0:
448,192,29717,1,0,0:0:0:70:Crash 2.wav
64,192,29882,1,8,0:0:0:0:
448,192,30212,1,2,0:0:0:0:
192,192,30542,1,8,0:0:0:0:
320,192,30871,1,2,0:0:0:0:
64,192,31201,1,8,0:0:0:0:
448,192,31531,1,2,0:0:0:0:
192,192,31860,1,8,0:0:0:0:
320,192,32190,128,2,32520:0:0:0:0:
64,192,32520,1,8,0:0:0:0:
448,192,32520,1,4,0:0:0:0:
192,192,32849,128,2,33179:0:0:0:0:
320,192,33179,1,8,0:0:0:0:
64,192,33344,1,2,0:0:0:0:
448,192,33344,1,4,0:0:0:0:
192,192,33673,1,8,0:0:0:0:
320,192,33673,1,0,0:0:0:70:Crash 2.wav
64,192,34003,1,8,0:0:0:0:
448,192,34003,1,0,0:0:0:70:Crash 2.wav
320,192,34333,1,2,0:0:0:0:
192,192,34498,1,8,0:0:0:0:
192,192,34662,1,8,0:0:0:0:
64,192,34827,1,2,0:0:0:0:
448,192,34827,128,4,35157:0:0:0:0:
320,192,35157,1,8,0:0:0:0:
192,192,35487,1,2,0:0:0:0:
320,192,35651,1,2,0:0:0:0:
64,192,35816,1,8,0:0:0:0:
448,192,35816,1,0,0:0:0:0:
192,192,35981,1,2,0:0:0:0:
320,192,36311,1,2,0:0:0:0:
64,192,36476,1,8,0:0:0:0:
192,192,36476,1,0,0:0:0:0:
448,192,36805,1,2,0:0:0:0:
192,192,36970,1,2,0:0:0:0:
320,192,37135,1,8,0:0:0:0:
448,192,37135,1,0,0:0:0:0:
64,192,37465,128,2,37794:0:0:0:0:
192,192,37465,1,4,0:0:0:0:
448,192,37794,1,8,0:0:0:0:
320,192,38124,1,2,0:0:0:0:
192,192,38289,1,2,0:0:0:0:
64,192,38454,1,8,0:0:0:0:
448,192,38454,1,0,0:0:0:0:
320,192,38618,1,2,0:0:0:0:
192,192,38948,1,2,0:0:0:0:
320,192,39113,1,8,0:0:0:0:
448,192,39113,1,0,0:0:0:0:
64,192,39443,1,2,0:0:0:0:
320,192,39607,1,2,0:0:0:0:
64,192,39772,1,8,0:0:0:0:
192,192,39772,1,0,0:0:0:0:
320,192,39937,1,8,0:0:0:0:
192,192,40102,1,2,0:0:0:0:
448,192,40102,128,0,40432:0:0:0:70:Crash 2.wav
64,192,40432,1,8,0:0:0:0:
192,192,40761,1,2,0:0:0:0:
320,192,40926,1,2,0:0:0:0:
64,192,41091,1,8,0:0:0:0:
448,192,41091,1,0,0:0:0:0:
192,192,41256,1,2,0:0:0:0:
320,192,41585,1,2,0:0:0:0:
192,192,41750,1,8,0:0:0:0:
448,192,41750,1,0,0:0:0:0:
64,192,41915,1,8,0:0:0:0:
320,192,42080,1,0,0:0:0:0:
192,192,42245,1,2,0:0:0:0:
448,192,42410,1,8,0:0:0:0:
320,192,42574,1,2,0:0:0:0:
64,192,43069,1,8,0:0:0:0:
192,192,43069,1,0,0:0:0:0:
320,192,43234,1,8,0:0:0:0:
448,192,43234,1,0,0:0:0:0:
64,192,43728,1,8,0:0:0:0:
192,192,43728,1,0,0:0:0:0:
320,192,43893,1,8,0:0:0:0:
448,192,43893,1,0,0:0:0:0:
64,192,44223,1,8,0:0:0:0:
192,192,44223,1,0,0:0:0:0:
320,192,44388,1,8,0:0:0:0:
448,192,44388,1,0,0:0:0:0:
64,192,44552,1,8,0:0:0:0:
192,192,44552,1,0,0:0:0:0:
320,192,44717,128,2,45047:0:0:0:0:
448,192,44717,1,4,0:0:0:0:
64,192,45047,1,2,0:0:0:0:
192,192,45047,128,0,45377:0:0:0:70:Crash 2.wav
320,192,45377,1,2,0:0:0:0:
448,192,45377,128,4,45706:0:0:0:0:
64,192,45706,1,8,0:0:0:0:
448,192,46036,1,2,0:0:0:0:
320,192,46201,1,2,0:0:0:0:
64,192,46366,1,8,0:0:0:0:
192,192,46366,1,0,0:0:0:0:
448,192,46531,1,2,0:0:0:0:
192,192,46860,1,2,0:0:0:0:
320,192,47025,1,8,0:0:0:0:
448,192,47025,1,0,0:0:0:0:
64,192,47355,1,2,0:0:0:0:
320,192,47520,1,2,0:0:0:0:
192,192,47684,1,8,0:0:0:0:
448,192,47684,1,0,0:0:0:0:
64,192,48014,128,2,48344:0:0:0:0:
320,192,48014,1,0,0:0:0:70:Crash 2.wav
448,192,48344,1,8,0:0:0:0:
192,192,48673,1,2,0:0:0:0:
320,192,48838,1,2,0:0:0:0:
64,192,49003,1,8,0:0:0:0:
192,192,49003,1,0,0:0:0:0:
320,192,49333,1,8,0:0:0:0:
448,192,49333,1,0,0:0:0:0:
192,192,49498,1,2,0:0:0:0:
320,192,49662,1,2,0:0:0:0:
64,192,49827,1,8,0:0:0:0:
192,192,49827,1,0,0:0:0:0:
448,192,50157,1,2,0:0:0:0:
64,192,50322,1,0,0:0:0:70:Tom 2.wav
192,192,50487,1,0,0:0:0:70:Tom 1.wav
320,192,50651,1,2,0:0:0:0:
448,192,50651,128,4,51805:0:0:0:0:
64,192,51146,1,2,0:0:0:0:
192,192,51311,1,8,0:0:0:0:
64,192,51805,128,2,53289:0:0:0:0:
320,192,51805,1,0,0:0:0:70:Crash 2.wav
192,192,52135,1,2,0:0:0:0:
448,192,52300,1,2,0:0:0:0:
320,192,52629,1,8,0:0:0:0:
192,192,53289,1,2,0:0:0:0:
320,192,53289,128,4,54443:0:0:0:0:
448,192,53783,1,2,0:0:0:0:
64,192,53948,1,8,0:0:0:0:
192,192,54443,128,2,54772:0:0:0:0:
448,192,54443,1,0,0:0:0:70:Crash 2.wav
64,192,54772,1,8,0:0:0:0:
320,192,54937,1,8,0:0:0:0:
192,192,55102,1,8,0:0:0:0:
448,192,55267,1,2,0:0:0:0:
320,192,55432,1,0,0:0:0:70:Tom 2.wav
64,192,55596,1,0,0:0:0:70:Tom 3.wav
192,192,55761,1,0,0:0:0:70:Tom 3.wav
320,192,55926,1,2,0:0:0:0:
448,192,55926,1,4,0:0:0:0:
192,192,56146,1,2,0:0:0:0:
320,192,56366,1,8,0:0:0:0:
64,192,56585,1,2,0:0:0:0:
192,192,56585,1,4,0:0:0:0:
448,192,56805,1,2,0:0:0:0:
64,192,57025,1,8,0:0:0:0:
320,192,57245,1,2,0:0:0:0:
448,192,57245,1,4,0:0:0:0:
192,192,57574,1,8,0:0:0:0:
64,192,57739,1,2,0:0:0:0:
448,192,57739,1,0,0:0:0:70:Crash 2.wav
320,192,57904,128,8,58069:0:0:0:0:
192,192,58069,128,8,58234:0:0:0:0:
448,192,58234,128,8,58399:0:0:0:0:
64,192,58399,128,0,58563:0:0:0:60:Tom 2.wav
320,192,58563,128,2,58893:0:0:0:0:
448,192,58563,1,4,0:0:0:0:
64,192,58893,1,8,0:0:0:0:
192,192,58893,1,0,0:0:0:0:
320,192,59223,1,2,0:0:0:0:
192,192,59388,1,2,0:0:0:0:
64,192,59552,1,8,0:0:0:0:
448,192,59552,1,0,0:0:0:0:
320,192,59717,128,2,60047:0:0:0:0:
192,192,60047,1,2,0:0:0:0:
320,192,60212,1,8,0:0:0:0:
448,192,60212,1,0,0:0:0:0:
64,192,60542,128,2,60871:0:0:0:0:
192,192,60706,1,2,0:0:0:0:
320,192,60871,1,8,0:0:0:0:
448,192,60871,128,0,61201:0:0:0:0:
64,192,61201,1,2,0:0:0:0:
192,192,61201,128,0,61531:0:0:0:70:Crash 2.wav
320,192,61531,1,8,0:0:0:0:
448,192,61531,1,0,0:0:0:0:
192,192,61860,1,2,0:0:0:0:
320,192,62025,1,2,0:0:0:0:
64,192,62190,1,8,0:0:0:0:
448,192,62190,1,0,0:0:0:0:
192,192,62355,128,2,62684:0:0:0:0:
320,192,62684,1,2,0:0:0:0:
64,192,62849,1,8,0:0:0:0:
192,192,62849,1,0,0:0:0:0:
448,192,63179,1,2,0:0:0:0:
192,192,63344,1,2,0:0:0:0:
320,192,63509,1,8,0:0:0:0:
448,192,63509,1,0,0:0:0:0:
192,192,63673,1,8,0:0:0:0:
64,192,63838,128,2,64168:0:0:0:0:
320,192,63838,1,4,0:0:0:0:
192,192,64168,1,8,0:0:0:0:
448,192,64168,1,0,0:0:0:0:
320,192,64498,128,2,64827:0:0:0:0:
192,192,64662,1,2,0:0:0:0:
64,192,64827,1,8,0:0:0:0:
448,192,64827,1,0,0:0:0:0:
320,192,64992,1,8,0:0:0:0:
192,192,65157,128,2,65487:0:0:0:0:
448,192,65322,1,2,0:0:0:0:
64,192,65487,1,8,0:0:0:0:
320,192,65487,1,0,0:0:0:0:
448,192,65816,128,2,66146:0:0:0:0:
320,192,65981,1,2,0:0:0:0:
64,192,66146,1,8,0:0:0:0:
192,192,66146,1,0,0:0:0:0:
320,192,66311,1,8,0:0:0:0:
64,192,66476,128,2,67135:0:0:0:0:
448,192,66476,1,4,0:0:0:0:
192,192,66805,1,2,0:0:0:0:
320,192,66970,1,2,0:0:0:0:
448,192,67135,128,2,67465:0:0:0:0:
192,192,67465,1,8,0:0:0:0:
64,192,67629,1,2,0:0:0:0:
448,192,67629,1,0,0:0:0:70:Crash 2.wav
192,192,67959,1,2,0:0:0:0:
320,192,67959,1,0,0:0:0:70:Crash 2.wav
64,192,68289,1,8,0:0:0:0:
448,192,68289,1,0,0:0:0:0:
192,192,68454,128,0,68618:0:0:0:0:
320,192,68618,128,8,68783:0:0:0:0:
64,192,68783,128,8,68948:0:0:0:0:
448,192,68948,128,0,69113:0:0:0:60:Tom 3.wav
64,192,69113,1,2,0:0:0:0:
192,192,69113,128,4,69443:0:0:0:0:
320,192,69443,1,8,0:0:0:0:
448,192,69443,1,0,0:0:0:0:
192,192,69772,1,2,0:0:0:0:
448,192,69937,1,2,0:0:0:0:
64,192,70102,1,8,0:0:0:0:
192,192,70102,1,0,0:0:0:0:
320,192,70267,128,2,70596:0:0:0:0:
448,192,70267,1,0,0:0:0:70:Crash 2.wav
192,192,70596,1,2,0:0:0:0:
64,192,70761,1,8,0:0:0:0:
448,192,70761,1,0,0:0:0:0:
320,192,71091,1,2,0:0:0:0:
192,192,71256,1,2,0:0:0:0:
64,192,71421,128,8,71750:0:0:0:0:
448,192,71421,1,0,0:0:0:0:
192,192,71750,1,2,0:0:0:0:
320,192,71750,128,4,72080:0:0:0:0:
64,192,72080,1,8,0:0:0:0:
448,192,72080,1,0,0:0:0:0:
320,192,72410,1,2,0:0:0:0:
192,192,72574,1,2,0:0:0:0:
320,192,72739,1,8,0:0:0:0:
448,192,72739,1,0,0:0:0:0:
64,192,72904,1,2,0:0:0:0:
192,192,72904,128,0,73234:0:0:0:70:Crash 2.wav
320,192,73234,1,2,0:0:0:0:
64,192,73399,1,8,0:0:0:0:
448,192,73399,1,0,0:0:0:0:
192,192,73563,1,8,0:0:0:0:
320,192,73728,1,2,0:0:0:0:
192,192,73893,1,2,0:0:0:0:
64,192,74058,1,8,0:0:0:0:
448,192,74058,1,0,0:0:0:0:
320,192,74223,1,0,0:0:0:70:Tom 1.wav
192,192,74388,128,2,74717:0:0:0:0:
448,192,74388,1,4,0:0:0:0:
64,192,74717,1,8,0:0:0:0:
320,192,74717,128,0,75047:0:0:0:0:
448,192,75047,128,2,75377:0:0:0:0:
192,192,75212,1,2,0:0:0:0:
64,192,75377,128,8,75706:0:0:0:0:
320,192,75377,1,0,0:0:0:0:
192,192,75706,128,2,76036:0:0:0:0:
320,192,76036,1,8,0:0:0:0:
448,192,76036,1,0,0:0:0:0:
192,192,76366,1,2,0:0:0:0:
320,192,76531,1,2,0:0:0:0:
64,192,76695,1,8,0:0:0:0:
448,192,76695,1,0,0:0:0:0:
192,192,76860,1,0,0:0:0:70:Tom 1.wav
320,192,77025,1,2,0:0:0:0:
64,192,77355,128,8,77684:0:0:0:0:
192,192,77355,128,4,77684:0:0:0:0:
448,192,77684,1,2,0:0:0:0:
192,192,77849,1,2,0:0:0:0:
320,192,78014,128,8,78344:0:0:0:0:
448,192,78014,128,0,78344:0:0:0:70:Crash 2.wav
64,192,78344,128,2,78673:0:0:0:0:
192,192,78344,128,4,78673:0:0:0:0:
448,192,78673,1,8,0:0:0:0:
320,192,78783,1,8,0:0:0:0:
192,192,78893,1,8,0:0:0:0:
64,192,79003,128,0,79168:0:0:0:70:Tom 1.wav
448,192,79168,128,0,79333:0:0:0:0:
192,192,79333,128,0,79498:0:0:0:70:Tom 2.wav
320,192,79498,128,0,79662:0:0:0:0:
64,192,79662,128,2,80322:0:0:0:0:
448,192,79662,1,4,0:0:0:0:
192,192,80322,1,2,0:0:0:0:
320,192,80322,128,0,80816:0:0:0:70:Crash 2.wav
448,192,80651,1,8,0:0:0:0:
64,192,80816,1,2,0:0:0:0:
192,192,80816,1,0,0:0:0:70:Crash 2.wav
320,192,81146,1,8,0:0:0:0:
320,192,81311,1,8,0:0:0:0:
192,192,81476,1,8,0:0:0:0:
192,192,81640,1,8,0:0:0:0:
320,192,81805,1,2,0:0:0:0:
64,192,81970,1,8,0:0:0:0:
448,192,81970,1,0,0:0:0:70:Crash 2.wav
192,192,82300,128,2,82629:0:0:0:0:
320,192,82300,1,4,0:0:0:0:
448,192,82629,128,8,82794:0:0:0:0:
320,192,82794,128,2,82959:0:0:0:0:
64,192,82959,128,2,83124:0:0:0:0:
192,192,83124,128,2,83289:0:0:0:0:
448,192,83289,1,8,0:0:0:0:
320,192,83454,128,2,83618:0:0:0:0:
192,192,83618,128,2,83783:0:0:0:0:
448,192,83783,128,2,83948:0:0:0:0:
64,192,83948,128,8,84113:0:0:0:0:
320,192,84113,128,2,84278:0:0:0:0:
64,192,84443,1,8,0:0:0:0:
192,192,84443,1,0,0:0:0:0:
320,192,84607,1,8,0:0:0:0:
448,192,84607,1,0,0:0:0:0:
64,192,84772,1,8,0:0:0:0:
192,192,84772,1,0,0:0:0:0:
320,192,84937,1,2,0:0:0:0:
448,192,84937,1,4,0:0:0:0:
64,192,85596,1,2,0:0:0:0:
192,192,85596,1,0,0:0:0:70:Crash 2.wav
320,192,86091,1,2,0:0:0:0:
448,192,86091,1,0,0:0:0:70:Crash 2.wav
192,192,86421,1,8,0:0:0:0:
192,192,86585,1,8,0:0:0:0:
320,192,86750,1,8,0:0:0:0:
320,192,86915,1,8,0:0:0:0:
192,192,87080,1,2,0:0:0:0:
64,192,87245,1,8,0:0:0:0:
448,192,87245,1,4,0:0:0:0:
192,192,87574,1,2,0:0:0:0:
320,192,87574,1,4,0:0:0:0:
64,192,87904,1,2,0:0:0:0:
192,192,87904,1,4,0:0:0:0:
320,192,88069,1,2,0:0:0:0:
448,192,88069,128,0,88563:0:0:0:70:Crash 2.wav
