osu file format v14

[General]
AudioFilename: audio.mp3
AudioLeadIn: 0
PreviewTime: 55926
Countdown: 0
SampleSet: Soft
StackLeniency: 0.7
Mode: 3
LetterboxInBreaks: 0
SpecialStyle: 0
WidescreenStoryboard: 1

[Editor]
DistanceSpacing: 0.5
BeatDivisor: 4
GridSize: 32
TimelineZoom: 1.9

[Metadata]
Title:Yes! Yuyuyu * Yuruyuri (TV Size)
TitleUnicode:いぇす!ゆゆゆ☆ゆるゆり♪♪ (TV Size)
Artist:Nanamori-chu * Goraku-bu
ArtistUnicode:七森中☆ごらく部
Creator:SuzumeAyase
Version:Yes! Sya * Easy
Source:ゆるゆり♪♪
Tags:syadow- ferdixia- yuiazu- onii_ue 三上枝織 大坪由佳 津田美波 大久保瑠美 Mikami Shiori Otsubo Yuka Tsuda Minami Okubo Rumi 赤座あかり Akaza Akari 歳納京子 Toshino Kyoko 船見結衣 Funami Yui 吉川ちなつ Yoshikawa Chinatsu funta7 Seiichiro Sugiura 杉浦ラフィン誠一郎 pony canyon PCCG-01280 PCCG-70137 yryr yuru yuri yuri♪♪ YURUYURI♪2nd.Series BEST ALBUM ゆるゆりずむ♪2 Yuruyurizumi♪2 opening op season 2 s2 jpop j-pop japanese pop anime
BeatmapID:3516972
BeatmapSetID:1716339

[Difficulty]
HPDrainRate:7
CircleSize:4
OverallDifficulty:7
ApproachRate:5
SliderMultiplier:1.4
SliderTickRate:1

[Events]
//Background and Video events
0,0,"BG.png",0,0
Video,499,"VIDEO.mp4"
//Break Periods
//Storyboard Layer 0 (Background)
//Storyboard Layer 1 (Fail)
//Storyboard Layer 2 (Pass)
//Storyboard Layer 3 (Foreground)
//Storyboard Layer 4 (Overlay)
//Storyboard Sound Samples
Sample,24443,0,"Crash 2.wav",70
Sample,27080,0,"Crash 2.wav",70
Sample,29717,0,"Crash 2.wav",70
Sample,33673,0,"Crash 2.wav",70
Sample,34003,0,"Crash 2.wav",70
Sample,45047,0,"Crash 2.wav",70
Sample,56146,0,"Crash 2.wav",70
Sample,56805,0,"Crash 2.wav",70
Sample,58234,0,"Tom 1.wav",55
Sample,67629,0,"Crash 2.wav",70
Sample,67959,0,"Crash 2.wav",70
Sample,68783,0,"Tom 1.wav",55
Sample,80322,0,"Crash 2.wav",70
Sample,80816,0,"Crash 2.wav",70

[TimingPoints]
542,329.67032967033,4,2,1,70,1,0
24607,-100,4,2,1,50,0,0
26915,-100,4,2,1,70,0,0
27080,-100,4,2,1,50,0,0
29552,-100,4,2,1,70,0,0
29717,-100,4,2,1,50,0,0
32520,-100,4,2,1,70,0,0
58563,-100,4,2,1,70,0,1
79662,-100,4,2,1,70,0,0

[HitObjects]
448,192,542,128,0,2520:0:0:0:30:Hat open.wav
64,192,2520,1,8,0:0:0:0:
64,192,3179,1,2,0:0:0:0:
192,192,3179,128,4,3509:0:0:0:0:
448,192,3509,1,8,0:0:0:0:
64,192,4168,1,8,0:0:0:0:
448,192,4827,1,8,0:0:0:0:
192,192,5322,1,8,0:0:0:0:
448,192,5487,1,8,0:0:0:0:
320,192,5651,1,8,0:0:0:0:
64,192,5816,1,2,0:0:0:0:
192,192,5816,128,4,6146:0:0:0:0:
448,192,6146,1,8,0:0:0:0:
64,192,6805,1,8,0:0:0:0:
448,192,7465,1,8,0:0:0:0:
192,192,8124,1,8,0:0:0:0:
320,192,8454,128,2,8783:0:0:0:0:
448,192,8454,1,4,0:0:0:0:
64,192,8783,1,8,0:0:0:0:
448,192,9443,1,8,0:0:0:0:
64,192,10102,1,8,0:0:0:0:
320,192,10596,1,8,0:0:0:0:
64,192,10761,1,8,0:0:0:0:
192,192,10926,1,8,0:0:0:0:
320,192,11091,1,2,0:0:0:0:
448,192,11091,1,4,0:0:0:0:
64,192,11750,1,2,0:0:0:0:
192,192,11750,1,0,0:0:0:70:Crash 2.wav
320,192,12245,1,2,0:0:0:0:
448,192,12245,1,4,0:0:0:0:
64,192,12574,1,8,0:0:0:0:
192,192,12739,1,8,0:0:0:0:
320,192,12904,1,8,0:0:0:0:
448,192,13069,1,8,0:0:0:0:
64,192,13399,1,8,0:0:0:0:
192,192,13399,1,4,0:0:0:0:
64,192,13728,1,2,0:0:0:0:
448,192,13728,1,4,0:0:0:0:
320,192,14058,1,8,0:0:0:0:
192,192,14388,1,2,0:0:0:0:
320,192,14717,1,8,0:0:0:0:
64,192,15047,1,2,0:0:0:0:
192,192,15377,1,8,0:0:0:0:
320,192,15706,128,2,16036:0:0:0:0:
64,192,16036,128,8,16366:0:0:0:0:
448,192,16366,1,2,0:0:0:0:
320,192,16695,1,8,0:0:0:0:
192,192,17025,1,2,0:0:0:0:
448,192,17355,1,8,0:0:0:0:
64,192,17684,1,2,0:0:0:0:
448,192,17849,1,8,0:0:0:0:
320,192,18014,1,8,0:0:0:0:
64,192,18179,1,2,0:0:0:0:
192,192,18179,128,4,18673:0:0:0:0:
448,192,18673,1,8,0:0:0:0:
64,192,19003,1,2,0:0:0:0:
192,192,19333,1,8,0:0:0:0:
320,192,19662,1,2,0:0:0:0:
192,192,19992,1,8,0:0:0:0:
448,192,20322,1,2,0:0:0:0:
320,192,20651,1,8,0:0:0:0:
192,192,20981,128,2,21311:0:0:0:0:
448,192,21311,128,8,21640:0:0:0:0:
64,192,21640,1,2,0:0:0:0:
192,192,21640,1,4,0:0:0:0:
320,192,21970,1,8,0:0:0:0:
192,192,22300,1,0,0:0:0:70:Tom 1.wav
64,192,22629,1,0,0:0:0:70:Tom 3.wav
320,192,22794,1,2,0:0:0:0:
448,192,22794,1,4,0:0:0:0:
192,192,23124,1,8,0:0:0:0:
448,192,23289,1,8,0:0:0:0:
192,192,23454,1,8,0:0:0:0:
448,192,23618,1,8,0:0:0:0:
64,192,23948,1,2,0:0:0:0:
192,192,23948,1,0,0:0:0:70:Crash 2.wav
64,192,24278,1,2,0:0:0:0:
448,192,24278,1,4,0:0:0:0:
320,192,24443,1,2,0:0:0:0:
192,192,24607,1,8,0:0:0:0:
320,192,25267,1,8,0:0:0:0:
64,192,25926,1,8,0:0:0:0:
320,192,26585,1,8,0:0:0:0:
64,192,26915,1,2,0:0:0:0:
448,192,26915,1,4,0:0:0:0:
192,192,27080,1,2,0:0:0:0:
320,192,27245,1,8,0:0:0:0:
192,192,27904,1,8,0:0:0:0:
448,192,28563,1,8,0:0:0:0:
192,192,29223,1,8,0:0:0:0:
64,192,29552,1,2,0:0:0:0:
448,192,29552,1,4,0:0:0:0:
320,192,29717,1,2,0:0:0:0:
192,192,29882,1,8,0:0:0:0:
448,192,30542,1,8,0:0:0:0:
64,192,31201,1,8,0:0:0:0:
448,192,31860,1,8,0:0:0:0:
192,192,32190,1,2,0:0:0:0:
192,192,32520,1,8,0:0:0:0:
448,192,32520,1,4,0:0:0:0:
320,192,32849,1,2,0:0:0:0:
64,192,33179,1,8,0:0:0:0:
320,192,33344,128,2,33673:0:0:0:0:
448,192,33344,1,4,0:0:0:0:
192,192,33673,128,8,34003:0:0:0:0:
64,192,34003,128,8,34333:0:0:0:0:
448,192,34333,1,2,0:0:0:0:
320,192,34498,1,8,0:0:0:0:
192,192,34662,1,8,0:0:0:0:
64,192,34827,1,2,0:0:0:0:
448,192,34827,1,4,0:0:0:0:
320,192,35157,1,8,0:0:0:0:
192,192,35816,1,8,0:0:0:0:
320,192,36476,1,8,0:0:0:0:
192,192,37135,1,8,0:0:0:0:
64,192,37465,1,2,0:0:0:0:
320,192,37465,1,4,0:0:0:0:
448,192,37794,1,8,0:0:0:0:
192,192,38454,1,8,0:0:0:0:
448,192,39113,1,8,0:0:0:0:
192,192,39772,1,8,0:0:0:0:
320,192,39937,1,8,0:0:0:0:
192,192,40102,1,2,0:0:0:0:
448,192,40102,1,0,0:0:0:70:Crash 2.wav
64,192,40432,1,8,0:0:0:0:
320,192,41091,1,8,0:0:0:0:
64,192,41750,1,8,0:0:0:0:
448,192,41915,1,8,0:0:0:0:
192,192,42410,128,8,42739:0:0:0:0:
448,192,43069,1,8,0:0:0:0:
64,192,43234,1,8,0:0:0:0:
448,192,43728,1,8,0:0:0:0:
64,192,43893,1,8,0:0:0:0:
320,192,44223,1,8,0:0:0:0:
192,192,44388,1,8,0:0:0:0:
64,192,44552,1,8,0:0:0:0:
448,192,44717,128,6,45047:0:0:0:0:
192,192,45047,128,2,45377:0:0:0:0:
320,192,45377,1,2,0:0:0:0:
448,192,45377,1,4,0:0:0:0:
64,192,45706,1,8,0:0:0:0:
320,192,46036,1,2,0:0:0:0:
192,192,46366,1,8,0:0:0:0:
448,192,46695,1,0,0:0:0:0:
320,192,47025,1,8,0:0:0:0:
64,192,47355,1,2,0:0:0:0:
192,192,47684,1,8,0:0:0:0:
320,192,48014,1,2,0:0:0:0:
448,192,48014,1,0,0:0:0:70:Crash 2.wav
64,192,48344,1,8,0:0:0:0:
192,192,48673,1,2,0:0:0:0:
320,192,49003,1,8,0:0:0:0:
64,192,49333,1,8,0:0:0:0:
448,192,49498,1,2,0:0:0:0:
320,192,49662,1,2,0:0:0:0:
192,192,49827,1,8,0:0:0:0:
448,192,50157,1,2,0:0:0:0:
64,192,50322,1,0,0:0:0:70:Tom 2.wav
192,192,50487,1,0,0:0:0:70:Tom 1.wav
320,192,50651,1,2,0:0:0:0:
448,192,50651,128,4,51805:0:0:0:0:
64,192,51805,1,2,0:0:0:0:
192,192,51805,128,0,53289:0:0:0:70:Crash 2.wav
320,192,53289,128,2,54443:0:0:0:0:
448,192,53289,1,4,0:0:0:0:
64,192,54443,128,2,54937:0:0:0:0:
192,192,54443,1,0,0:0:0:70:Crash 2.wav
448,192,54937,1,8,0:0:0:0:
192,192,55267,1,2,0:0:0:0:
320,192,55596,1,0,0:0:0:70:Tom 3.wav
64,192,55926,1,2,0:0:0:0:
448,192,55926,1,4,0:0:0:0:
192,192,56146,1,2,0:0:0:0:
320,192,56366,1,8,0:0:0:0:
448,192,56585,1,6,0:0:0:0:
192,192,56805,1,2,0:0:0:0:
64,192,57025,1,8,0:0:0:0:
320,192,57245,1,2,0:0:0:0:
448,192,57245,1,4,0:0:0:0:
320,192,57574,1,8,0:0:0:0:
64,192,57904,1,8,0:0:0:0:
192,192,58069,1,8,0:0:0:0:
448,192,58234,1,8,0:0:0:0:
320,192,58399,1,0,0:0:0:60:Tom 2.wav
64,192,58563,1,2,0:0:0:0:
192,192,58563,1,4,0:0:0:0:
448,192,58893,1,8,0:0:0:0:
64,192,59223,1,2,0:0:0:0:
192,192,59552,1,8,0:0:0:0:
320,192,59882,1,0,0:0:0:0:
64,192,60212,1,8,0:0:0:0:
448,192,60542,1,2,0:0:0:0:
320,192,60871,1,8,0:0:0:0:
64,192,61201,1,2,0:0:0:0:
192,192,61201,1,0,0:0:0:70:Crash 2.wav
448,192,61531,1,8,0:0:0:0:
192,192,61860,1,2,0:0:0:0:
320,192,62190,1,8,0:0:0:0:
64,192,62520,1,0,0:0:0:0:
448,192,62849,1,8,0:0:0:0:
320,192,63179,1,2,0:0:0:0:
64,192,63509,1,8,0:0:0:0:
192,192,63673,1,8,0:0:0:0:
320,192,63838,1,2,0:0:0:0:
448,192,63838,128,4,64168:0:0:0:0:
64,192,64168,128,8,64498:0:0:0:0:
192,192,64498,128,2,64827:0:0:0:0:
320,192,64827,128,8,65157:0:0:0:0:
448,192,65157,128,2,65487:0:0:0:0:
192,192,65487,128,8,65816:0:0:0:0:
320,192,65816,128,2,66146:0:0:0:0:
64,192,66146,128,8,66476:0:0:0:0:
448,192,66476,128,6,67135:0:0:0:0:
192,192,66805,1,2,0:0:0:0:
64,192,67135,128,2,67465:0:0:0:0:
320,192,67465,1,8,0:0:0:0:
192,192,67629,1,2,0:0:0:0:
448,192,67959,1,2,0:0:0:0:
64,192,68289,1,8,0:0:0:0:
448,192,68618,1,8,0:0:0:0:
320,192,68783,1,8,0:0:0:0:
192,192,68948,1,0,0:0:0:60:Tom 3.wav
320,192,69113,1,2,0:0:0:0:
448,192,69113,1,4,0:0:0:0:
64,192,69443,1,8,0:0:0:0:
192,192,69772,1,2,0:0:0:0:
320,192,70102,1,8,0:0:0:0:
64,192,70267,1,2,0:0:0:0:
192,192,70267,1,0,0:0:0:70:Crash 2.wav
448,192,70761,1,8,0:0:0:0:
320,192,71091,1,2,0:0:0:0:
64,192,71421,1,8,0:0:0:0:
192,192,71750,1,2,0:0:0:0:
448,192,71750,1,4,0:0:0:0:
320,192,72080,1,8,0:0:0:0:
192,192,72410,1,2,0:0:0:0:
448,192,72739,1,8,0:0:0:0:
64,192,72904,1,2,0:0:0:0:
320,192,72904,1,0,0:0:0:70:Crash 2.wav
192,192,73399,1,8,0:0:0:0:
320,192,73728,1,2,0:0:0:0:
64,192,74058,1,8,0:0:0:0:
320,192,74388,1,2,0:0:0:0:
448,192,74388,128,4,74717:0:0:0:0:
192,192,74717,128,8,75047:0:0:0:0:
448,192,75047,1,2,0:0:0:0:
320,192,75212,1,2,0:0:0:0:
64,192,75377,128,8,75706:0:0:0:0:
320,192,75706,128,2,76036:0:0:0:0:
192,192,76036,1,8,0:0:0:0:
64,192,76366,1,2,0:0:0:0:
192,192,76531,1,2,0:0:0:0:
448,192,76695,1,8,0:0:0:0:
320,192,77025,1,2,0:0:0:0:
64,192,77355,1,8,0:0:0:0:
320,192,77355,1,4,0:0:0:0:
192,192,77684,1,2,0:0:0:0:
192,192,78014,1,8,0:0:0:0:
448,192,78014,1,0,0:0:0:70:Crash 2.wav
64,192,78344,1,2,0:0:0:0:
448,192,78344,128,4,79333:0:0:0:0:
192,192,79333,1,0,0:0:0:70:Tom 2.wav
64,192,79662,1,2,0:0:0:0:
192,192,79662,128,4,80322:0:0:0:0:
320,192,80322,128,2,80651:0:0:0:0:
64,192,80651,1,8,0:0:0:0:
448,192,80816,1,2,0:0:0:0:
192,192,81146,1,8,0:0:0:0:
320,192,81311,1,8,0:0:0:0:
192,192,81476,1,8,0:0:0:0:
320,192,81640,1,8,0:0:0:0:
64,192,81970,1,8,0:0:0:0:
192,192,81970,1,0,0:0:0:70:Crash 2.wav
64,192,82300,128,2,82629:0:0:0:0:
448,192,82300,1,4,0:0:0:0:
320,192,82629,1,8,0:0:0:0:
192,192,83289,1,8,0:0:0:0:
320,192,83948,1,8,0:0:0:0:
64,192,84443,1,8,0:0:0:0:
448,192,84607,1,8,0:0:0:0:
64,192,84772,1,8,0:0:0:0:
320,192,84937,1,2,0:0:0:0:
448,192,84937,1,4,0:0:0:0:
64,192,85596,1,2,0:0:0:0:
192,192,85596,1,0,0:0:0:70:Crash 2.wav
320,192,86091,1,2,0:0:0:0:
448,192,86091,1,0,0:0:0:70:Crash 2.wav
64,192,86421,1,8,0:0:0:0:
192,192,86585,1,8,0:0:0:0:
320,192,86750,1,8,0:0:0:0:
448,192,86915,1,8,0:0:0:0:
64,192,87245,1,8,0:0:0:0:
192,192,87245,1,4,0:0:0:0:
320,192,87574,1,6,0:0:0:0:
64,192,87904,1,6,0:0:0:0:
320,192,88069,1,2,0:0:0:0:
448,192,88069,1,0,0:0:0:70:Crash 2.wav
