osu file format v14

[General]
AudioFilename: yuruyuried.mp3
AudioLeadIn: 0
PreviewTime: 56318
Countdown: 0
SampleSet: Soft
StackLeniency: 0.7
Mode: 0
LetterboxInBreaks: 0
WidescreenStoryboard: 0

[Editor]
Bookmarks: 8950,17318,23476,29792,33503,38634,42424,43687,48108,53792,56318,61055,71476,78424,85371
DistanceSpacing: 1.1
BeatDivisor: 2
GridSize: 4
TimelineZoom: 1.099999

[Metadata]
Title:My Pace de Ikimashou
TitleUnicode:マイペースでいきましょう
Artist:Nanamori-chu * Goraku-bu
ArtistUnicode:七森中☆ごらく部
Creator:Lasse
Version:Normal
Source:ゆるゆり
Tags:Yuru Yuri Akaza Akari Toshinou Kyouko Funami Yui Yoshikawa Chinatsu Mikami Shiori Ootsubo Yuka Tsuda Minami Ookubo Rumi
BeatmapID:742522
BeatmapSetID:335145

[Difficulty]
HPDrainRate:3
CircleSize:3.2
OverallDifficulty:4
ApproachRate:5
SliderMultiplier:0.95
SliderTickRate:1

[Events]
//Background and Video events
0,0,"bg.jpg",0,0
//Break Periods
//Storyboard Layer 0 (Background)
//Storyboard Layer 1 (Fail)
//Storyboard Layer 2 (Pass)
//Storyboard Layer 3 (Foreground)
//Storyboard Sound Samples

[TimingPoints]
740,315.789473684211,4,2,1,50,1,0
2634,-100,4,2,1,60,0,0
5161,-100,4,2,1,70,0,0
7687,-100,4,2,1,80,0,0
8950,-100,4,2,1,85,0,0
9582,-100,4,2,1,90,0,0
10213,-100,4,2,1,90,0,0
10845,-100,4,2,1,90,0,0
12266,-100,4,2,1,75,0,0
13371,-100,4,2,1,90,0,0
33582,-100,4,2,1,80,0,0
47476,-100,4,2,1,85,0,0
48740,-100,4,2,1,80,0,0
53792,-100,4,2,1,82,0,0
57582,-100,4,2,1,85,0,0
58529,-100,4,2,1,88,0,0
59161,-100,4,2,1,91,0,0
60108,-100,4,2,1,94,0,0
60582,-100,4,2,1,97,0,0
61371,-100,4,2,1,100,0,1
80950,-100,4,2,1,97,0,0
81108,-100,4,2,1,95,0,0
81582,-100,4,2,1,90,0,0
82845,-100,4,2,1,85,0,0
84108,-100,4,2,1,80,0,0
87740,-100,4,2,2,80,0,0

[Colours]
Combo1 : 87,171,255
Combo2 : 255,128,192
Combo3 : 169,255,83
Combo4 : 245,218,90

[HitObjects]
301,311,2634,6,0,P|236:286|232:220,1,142.5,10|10,3:2|3:2,0:0:0:0:
259,176,3266,2,0,P|253:108|189:85,1,142.5,10|10,3:2|3:2,0:0:0:0:
96,131,4055,2,0,L|40:130,2,47.5
110,182,4529,2,0,P|146:211|154:256,1,95
139,360,5161,6,0,P|212:345|254:273,1,142.5,10|10,3:2|3:2,0:0:0:0:
260,241,5792,2,0,P|275:168|347:126,1,142.5,10|10,3:2|3:2,0:0:0:0:
431,116,6582,2,0,L|465:74,2,47.5
445,166,7055,2,0,P|439:227|408:269,1,95,0|0,0:2|0:0,0:0:0:0:
342,323,7687,6,0,B|247:339|210:242,2,142.5,10|0|0,3:2|0:0|0:0,0:0:0:0:
314,223,8950,1,10,3:2:0:0:
178,63,9582,2,0,L|262:47,2,47.5,10|10|8,3:2|3:2|2:2,0:0:0:0:
263,124,10213,2,0,L|199:137,2,47.5,10|10|0,3:2|3:2|2:0,0:0:0:0:
210,215,10845,5,10,3:2:0:0:
310,247,11161,1,10,3:2:0:0:
228,312,11476,2,0,B|204:364,1,47.5,10|10,3:1|3:2,3:2:0:0:
156,364,11792,2,0,L|102:343,1,47.5,0|0,3:0|3:2,0:3:0:0:
86,33,13371,6,0,P|48:58|40:104,1,95,6|10,0:0|0:0,0:0:0:0:
176,264,14318,1,10,0:0:0:0:
368,180,14950,1,8,0:0:0:0:
188,72,15582,1,10,0:0:0:0:
228,168,15897,6,0,P|276:195|293:232,1,95,14|10,3:3|3:2,3:2:0:0:
195,269,16529,2,0,P|217:309|259:330,1,95,10|10,3:3|3:2,3:2:0:0:
363,313,17161,1,2,3:2:0:0:
371,209,17476,1,2,3:2:0:0:
360,104,17792,2,0,P|344:57|307:21,1,95,2|10,3:1|3:2,0:0:0:0:
256,112,18424,5,6,0:0:0:0:
155,142,18740,1,10,0:0:0:0:
240,332,19371,1,10,0:0:0:0:
440,276,20003,1,10,0:0:0:0:
392,72,20635,1,10,0:0:0:0:
381,175,20950,6,0,P|319:145|296:111,1,95,14|10,3:3|3:2,3:2:0:0:
246,213,21582,2,0,P|300:255|315:293,1,95,10|10,3:3|3:2,3:2:0:0:
212,316,22213,1,8,0:0:0:0:
144,236,22529,2,0,L|44:236,2,95,10|2|10,3:2|3:3|3:3,0:0:0:0:
246,213,23476,5,6,0:0:0:0:
287,117,23792,1,10,0:0:0:0:
384,156,24108,2,0,P|436:108|444:56,1,95,2|10,0:0|0:0,0:0:0:0:
340,60,24740,1,2,0:0:0:0:
236,64,25056,1,10,0:0:0:0:
180,152,25371,2,0,P|153:208|156:272,1,95,2|10,0:0|0:0,0:0:0:0:
256,228,26003,6,0,P|288:260|344:260,1,95,2|10,0:0|0:0,0:0:0:0:
433,226,26634,1,2,0:0:0:0:
396,128,26950,1,10,0:0:0:0:
291,134,27266,2,0,P|299:79|343:43,1,95,10|0,3:2|3:2,3:2:0:0:
428,34,27897,1,10,3:2:0:0:
499,111,28213,1,2,2:2:0:0:
396,128,28529,5,4,0:0:0:0:
382,231,28845,1,10,0:0:0:0:
293,286,29161,2,0,P|207:296|171:274,1,95,2|10,0:0|0:0,0:0:0:0:
101,266,29792,1,2,0:0:0:0:
93,161,30108,1,8,0:0:0:0:
190,123,30424,2,0,P|275:117|310:141,1,95,2|10,0:0|0:0,0:0:0:0:
372,172,31055,5,2,0:0:0:0:
324,264,31371,1,10,0:0:0:0:
232,314,31687,2,0,P|148:322|108:298,1,95,2|10,0:0|0:0,0:0:0:0:
68,228,32318,2,0,B|36:188|36:188|36:128,2,95,10|0|0,3:2|3:2|3:2,3:2:0:0:
144,155,33266,1,10,0:0:0:0:
215,79,33582,6,0,B|247:119|247:119|247:179,1,95,6|10,2:2|2:2,2:2:0:0:
125,332,34529,1,10,2:2:0:0:
50,136,35161,1,10,2:2:0:0:
240,222,35792,1,10,2:2:0:0:
169,299,36108,6,0,P|140:260|138:209,1,95,10|10,3:2|3:2,3:2:0:0:
164,112,36740,2,0,P|203:83|253:81,1,95,10|10,3:2|3:2,3:2:0:0:
348,108,37371,1,2,3:2:0:0:
381,148,37529,1,8,3:2:0:0:
369,304,38003,1,2,3:2:0:0:
336,344,38161,1,8,3:2:0:0:
276,199,38634,5,6,0:0:0:0:
172,184,38950,1,10,0:0:0:0:
98,257,39266,2,0,P|81:304|90:347,1,95,2|10,0:0|0:0,0:0:0:0:
187,308,39898,1,2,0:0:0:0:
291,300,40214,1,10,0:0:0:0:
383,252,40529,2,0,P|400:205|391:162,1,95,2|10,0:0|0:0,0:0:0:0:
493,138,41161,6,0,P|471:92|435:68,1,95,2|10,0:0|0:0,0:0:0:0:
331,68,41792,1,2,0:0:0:0:
260,145,42108,1,10,0:0:0:0:
279,248,42424,2,0,B|258:274|258:274|214:275|214:275|190:300,2,95,10|0|0,3:3|3:0|3:0,3:2:0:0:
384,246,43371,1,10,0:0:0:0:
324,153,43687,5,6,0:0:0:0:
228,109,44003,1,10,0:0:0:0:
129,146,44319,2,0,P|83:178|70:222,1,95,2|10,0:0|0:0,0:0:0:0:
55,316,44950,1,2,0:0:0:0:
158,327,45266,1,10,0:0:0:0:
262,319,45582,2,0,P|311:306|349:264,1,95,2|10,0:0|0:0,0:0:0:0:
392,184,46213,5,2,0:0:0:0:
321,106,46529,1,10,0:0:0:0:
221,73,46845,2,0,P|168:70|129:105,1,95,2|10,0:0|0:0,0:0:0:0:
90,188,47476,2,0,L|28:272,2,95,6|0|0,3:2|3:2|3:2,3:2:0:0:
194,178,48424,1,10,3:1:0:0:
290,137,48740,6,0,P|333:145|356:189,1,95,10|2,0:0|0:0,0:0:0:0:
335,289,49371,1,6,2:2:0:0:
248,229,49687,1,10,0:0:0:0:
205,133,50003,2,0,P|168:100|125:90,1,95,10|2,0:0|0:0,0:0:0:0:
122,194,50634,1,2,0:0:0:0:
193,270,50950,1,10,0:0:0:0:
289,310,51267,6,0,P|298:263|283:219,1,95,4|10,0:0|0:0,0:0:0:0:
232,129,51897,2,0,P|265:94|307:73,1,95,2|10,0:0|0:0,0:0:0:0:
411,63,52529,2,0,P|464:144|414:213,1,190,4|2,0:0|0:0,0:0:0:0:
236,316,53792,5,6,0:0:0:0:
148,260,54108,1,10,0:0:0:0:
72,188,54424,2,0,P|20:124|16:100,1,95,2|10,0:0|0:0,0:0:0:0:
100,48,55055,1,2,0:0:0:0:
203,39,55371,1,2,0:0:0:0:
308,51,55687,2,0,P|384:82|405:128,1,95,2|10,0:0|0:0,0:0:0:0:
416,192,56318,5,10,3:2:0:0:
256,328,56950,1,10,3:2:0:0:
96,192,57582,1,10,3:2:0:0:
256,56,58213,1,10,3:2:0:0:
416,192,58845,5,10,3:1:0:0:
343,263,59161,1,10,3:1:0:0:
270,190,59476,1,10,3:1:0:0:
343,115,59792,1,10,3:1:0:0:
439,154,60108,6,0,L|475:190,2,47.5,4|0|8,3:3|3:3|3:3,0:0:0:0:
428,102,60582,2,0,P|376:39|303:40,1,142.5,4|2,3:3|3:3,0:3:0:0:
218,58,61371,5,6,0:1:0:0:
145,133,61687,2,0,P|128:177|146:236,1,95,10|2,0:0|0:0,0:0:0:0:
223,283,62318,1,10,0:0:0:0:
326,299,62634,1,2,0:1:0:0:
420,252,62950,2,0,P|440:192|428:148,1,95,10|2,0:0|0:0,0:0:0:0:
352,96,63582,1,10,0:0:0:0:
248,88,63897,6,0,P|195:104|138:86,1,95,2|10,0:1|0:0,0:0:0:0:
165,201,64529,2,0,P|218:185|275:203,1,95,2|10,0:0|0:0,0:0:0:0:
279,294,65161,2,0,L|242:329,1,47.5,2|0,0:1|0:0,0:0:0:0:
193,334,65476,2,0,L|158:300,1,47.5,10|0,0:1|0:0,0:0:0:0:
58,330,65950,6,0,P|40:295|37:241,1,95
54,189,66424,1,6,0:1:0:0:
130,117,66740,1,10,0:0:0:0:
225,75,67055,2,0,P|283:65|327:81,1,95,2|10,0:0|0:0,0:0:0:0:
270,169,67687,5,2,0:1:0:0:
366,209,68003,1,10,0:0:0:0:
455,263,68318,2,0,L|517:268,2,47.5,2|0|10,0:0|0:0|0:0,0:0:0:0:
360,308,68950,5,2,0:1:0:0:
255,308,69266,1,10,0:0:0:0:
255,203,69582,1,2,0:1:0:0:
359,203,69897,1,10,0:0:0:0:
305,112,70213,2,0,L|304:12,2,95,2|0|10,3:1|3:2|3:2,0:0:0:0:
200,108,71161,1,10,3:2:0:0:
120,40,71476,5,6,0:1:0:0:
70,133,71792,2,0,P|59:187|76:240,1,95,10|2,0:0|0:0,0:0:0:0:
162,180,72423,1,10,0:0:0:0:
162,285,72739,1,2,0:1:0:0:
232,362,73055,2,0,P|262:315|259:258,1,95,10|2,0:0|0:0,0:0:0:0:
248,173,73687,1,10,0:0:0:0:
300,82,74003,6,0,P|348:96|406:81,1,95,2|10,0:1|0:0,0:0:0:0:
416,189,74634,2,0,P|362:174|310:190,1,95,2|10,0:1|0:0,0:0:0:0:
364,279,75266,2,0,L|399:318,1,47.5,2|0,0:1|0:0,0:0:0:0:
369,359,75582,2,0,L|316:361,1,47.5,10|0,0:1|0:0,0:0:0:0:
256,280,76055,6,0,L|229:328,2,47.5,0|10|0,0:0|0:0|0:0,0:0:0:0:
282,234,76529,1,6,0:1:0:0:
310,133,76845,1,10,0:0:0:0:
375,51,77160,2,0,P|330:33|270:36,1,95,2|10,0:0|0:0,0:0:0:0:
181,56,77792,1,2,0:1:0:0:
80,84,78108,1,10,0:0:0:0:
80,188,78424,2,0,L|55:240,2,47.5,2|0|10,0:0|0:0|0:0,0:0:0:0:
160,121,79055,5,6,0:1:0:0:
213,30,79371,1,10,0:0:0:0:
300,87,79687,1,10,0:0:0:0:
378,155,80002,1,2,2:0:0:0:
316,240,80318,2,0,B|320:292|320:292|304:344,2,95,10|0|10,3:1|3:0|3:0,3:2:0:0:
212,240,81266,1,10,3:0:0:0:
169,144,81582,6,0,B|136:103|136:103|68:80,1,95,4|10,0:0|0:0,0:0:0:0:
73,297,82529,1,10,0:0:0:0:
211,141,83160,1,10,0:0:0:0:
331,311,83792,1,10,0:0:0:0:
430,279,84108,2,0,P|408:239|367:208,1,95,10|10,3:0|3:0,3:2:0:0:
313,120,84740,2,0,P|280:154|264:198,1,95,10|6,3:0|3:0,3:2:0:0:
256,192,85371,12,2,87740,3:2:0:0:
