osu file format v14

[General]
AudioFilename: yuruyuried.mp3
AudioLeadIn: 0
PreviewTime: 56318
Countdown: 0
SampleSet: Soft
StackLeniency: 0.7
Mode: 0
LetterboxInBreaks: 0
WidescreenStoryboard: 0

[Editor]
Bookmarks: 8950,17318,33503,38634,42424,43687,53792,56318,60266,61055,71476,78424,85371
DistanceSpacing: 1.7
BeatDivisor: 4
GridSize: 4
TimelineZoom: 1.799999

[Metadata]
Title:My Pace de Ikimashou
TitleUnicode:マイペースでいきましょう
Artist:Nanamori-chu * Goraku-bu
ArtistUnicode:七森中☆ごらく部
Creator:Lasse
Version:Mirakuru
Source:ゆるゆり
Tags:Yuru Yuri Akaza Akari Toshinou Kyouko Funami Yui Yoshikawa Chinatsu Mikami Shiori Ootsubo Yuka Tsuda Minami Ookubo Rumi
BeatmapID:816221
BeatmapSetID:335145

[Difficulty]
HPDrainRate:6
CircleSize:4.2
OverallDifficulty:8.5
ApproachRate:9.3
SliderMultiplier:1.6
SliderTickRate:1

[Events]
//Background and Video events
0,0,"bg.jpg",0,0
//Break Periods
//Storyboard Layer 0 (Background)
//Storyboard Layer 1 (Fail)
//Storyboard Layer 2 (Pass)
//Storyboard Layer 3 (Foreground)
//Storyboard Sound Samples

[TimingPoints]
740,315.789473684211,4,2,1,50,1,0
2634,-100,4,2,1,60,0,0
3740,-80,4,2,1,60,0,0
4055,-100,4,2,1,60,0,0
5161,-100,4,2,1,70,0,0
6266,-80,4,2,1,70,0,0
6582,-100,4,2,1,70,0,0
7687,-80,4,2,1,80,0,0
8003,-100,4,2,1,80,0,0
8950,-100,4,2,1,85,0,0
9582,-100,4,2,1,90,0,0
10213,-100,4,2,1,95,0,0
10845,-66.6666666666667,4,2,1,100,0,0
12266,-100,4,2,1,75,0,0
13371,-80,4,2,1,90,0,0
15897,-100,4,2,1,90,0,0
19055,-100,4,2,1,90,0,0
19687,-100,4,2,1,90,0,0
20319,-100,4,2,1,90,0,0
20950,-80,4,2,1,90,0,0
24108,-100,4,2,1,90,0,0
28213,-83.3333333333333,4,2,2,80,0,0
28529,-100,4,2,1,90,0,0
32950,-80,4,2,1,90,0,0
33187,-80,4,2,1,25,0,0
33266,-80,4,2,1,90,0,0
33582,-100,4,2,1,80,0,0
47476,-100,4,2,1,90,0,0
48740,-100,4,2,1,100,0,0
48897,-100,4,2,1,80,0,0
53792,-100,4,2,1,82,0,0
55055,-83.3333333333333,4,2,1,82,0,0
56318,-100,4,2,1,82,0,0
57582,-100,4,2,1,85,0,0
58529,-66.6666666666667,4,2,1,88,0,0
59161,-66.6666666666667,4,2,1,91,0,0
60108,-100,4,2,1,94,0,0
60582,-100,4,2,1,97,0,0
61371,-66.6666666666667,4,2,1,100,0,1
65950,-80,4,2,1,100,0,1
69582,-66.6666666666667,4,2,1,100,0,1
71476,-80,4,2,1,100,0,1
78424,-66.6666666666667,4,2,1,100,0,1
79055,-80,4,2,1,100,0,1
80950,-80,4,2,1,100,0,0
81108,-80,4,2,1,95,0,0
81582,-80,4,2,1,90,0,0
82845,-80,4,2,1,85,0,0
84108,-80,4,2,1,95,0,0
87424,-90.9090909090909,4,2,1,90,0,0
87740,-105.263157894737,4,2,2,80,0,0
87818,-105.263157894737,4,2,1,80,0,0
88213,-105.263157894737,4,2,1,60,0,0
88529,-105.263157894737,4,2,1,30,0,0

[Colours]
Combo1 : 87,171,255
Combo2 : 255,128,192
Combo3 : 169,255,83
Combo4 : 245,218,90

[HitObjects]
101,171,1529,5,0,0:0:0:0:
216,112,1687,1,0,0:0:0:0:
157,227,1845,1,0,0:0:0:0:
137,99,2003,2,0,P|94:92|47:107,1,80
228,191,2318,2,0,P|265:171|295:132,1,80
316,0,2634,5,10,3:2:0:0:
392,104,2792,1,10,3:2:0:0:
120,144,3108,5,10,3:2:0:0:
211,32,3266,1,10,3:2:0:0:
272,164,3424,1,10,3:2:0:0:
48,96,3740,2,0,B|32:149|52:196,1,100,10|0,3:3|0:0,0:0:0:0:
153,179,4055,5,0,0:0:0:0:
170,281,4213,1,0,0:0:0:0:
238,203,4371,1,0,0:0:0:0:
302,120,4529,2,0,P|331:158|342:212,1,80
277,271,4845,2,0,P|250:240|238:203,1,80
212,101,5161,5,10,3:2:0:0:
319,8,5318,1,10,3:2:0:0:
372,208,5634,5,10,3:2:0:0:
296,84,5792,1,10,3:2:0:0:
184,176,5950,1,10,3:2:0:0:
372,208,6266,2,0,B|356:260|356:260|320:292,1,100,10|0,3:3|2:2,3:2:0:0:
220,308,6582,5,0,0:0:0:0:
265,127,6740,1,0,0:0:0:0:
129,263,6897,1,0,0:0:0:0:
310,218,7055,2,0,B|350:191|370:143,1,80,0|0,2:2|0:0,0:0:0:0:
154,152,7371,2,0,B|108:168|77:209,1,80,0|0,2:2|0:0,0:0:0:0:
288,108,7687,6,0,B|254:57|254:57|195:37,1,100,10|10,3:2|3:3,0:0:0:0:
80,44,8003,1,0,0:0:0:0:
94,171,8161,1,0,0:0:0:0:
206,123,8318,1,0,0:0:0:0:
79,104,8476,1,0,0:0:0:0:
163,200,8634,1,0,0:0:0:0:
282,153,8792,1,0,0:0:0:0:
253,269,8950,5,10,3:2:0:0:
413,78,9108,1,10,3:2:0:0:
112,96,9582,5,10,3:2:0:0:
384,320,9740,1,10,3:2:0:0:
408,48,10213,5,10,3:2:0:0:
228,324,10371,1,10,3:2:0:0:
361,195,10845,5,10,3:2:0:0:
204,256,11003,1,0,3:2:0:0:
300,88,11161,1,10,3:2:0:0:
304,280,11319,1,0,3:2:0:0:
160,120,11476,5,10,3:1:0:0:
368,64,11634,1,10,3:2:0:0:
424,272,11792,1,10,3:2:0:0:
214,328,11950,1,10,3:3:0:0:
332,48,12266,6,0,B|339:101|300:121,1,80,2|0,0:1|0:0,0:0:0:0:
96,200,12582,2,0,B|138:168|175:191,1,80,2|0,0:1|0:0,0:0:0:0:
360,312,12897,2,0,B|311:291|313:248,1,80,2|0,0:1|0:0,0:0:0:0:
332,48,13371,5,6,0:0:0:0:
404,236,13529,1,0,0:0:0:0:
232,336,13687,2,0,L|132:283,1,100,10|0,0:0|0:0,0:0:0:0:
355,63,14003,5,2,0:0:0:0:
394,261,14161,1,0,0:0:0:0:
207,329,14319,2,0,L|118:260,1,100,8|0,0:0|0:0,0:0:0:0:
376,82,14634,5,6,0:0:0:0:
380,283,14792,1,0,0:0:0:0:
184,319,14950,2,0,L|108:235,1,100,10|0,0:0|0:0,0:0:0:0:
393,105,15266,5,2,0:0:0:0:
362,304,15424,1,0,0:0:0:0:
163,304,15582,2,0,L|103:208,1,100,10|0,0:0|0:0,0:0:0:0:
404,136,15897,5,12,3:3:0:0:
240,356,16213,1,8,3:2:0:0:
48,164,16529,1,10,3:2:0:0:
304,252,16845,1,8,3:2:0:0:
124,50,17161,6,0,B|166:52|166:52|199:69,1,80,6|2,3:2|2:2,2:2:0:0:
339,105,17476,2,0,P|362:135|334:121,1,80,10|0,0:0|0:0,0:0:0:0:
240,234,17792,2,0,B|223:234|223:234|224:252|224:252|211:264|211:264|214:332|132:350,1,160,2|0,0:0|0:0,0:0:0:0:
15,140,18424,5,6,0:0:0:0:
156,64,18582,1,0,0:0:0:0:
308,108,18740,2,0,L|263:199,1,80,10|0,0:0|0:0,0:0:0:0:
27,98,19055,5,2,0:0:0:0:
179,48,19213,1,0,0:0:0:0:
321,118,19371,2,0,L|261:200,1,80,10|0,0:0|0:0,0:0:0:0:
47,60,19687,5,6,0:0:0:0:
205,37,19845,1,0,0:0:0:0:
333,130,20003,2,0,L|260:201,1,80,10|0,0:0|0:0,0:0:0:0:
73,26,20318,5,2,0:0:0:0:
233,31,20476,1,0,0:0:0:0:
343,145,20634,2,0,L|258:202,1,80,10|0,0:0|0:0,0:0:0:0:
52,116,20950,5,14,3:2:0:0:
424,260,21266,1,10,3:2:0:0:
100,28,21582,1,10,3:2:0:0:
348,344,21897,1,10,3:2:0:0:
436,60,22371,5,2,3:1:0:0:
360,264,22529,1,10,3:2:0:0:
280,115,22845,5,2,3:3:0:0:
325,120,22924,1,0,3:3:0:0:
347,157,23002,1,0,3:3:0:0:
346,202,23081,1,0,3:3:0:0:
305,225,23161,1,10,3:3:0:0:
296,271,23239,1,0,3:3:0:0:
326,307,23318,1,0,3:3:0:0:
372,312,23397,1,0,3:3:0:0:
400,344,23476,5,6,0:3:0:0:
222,268,23634,1,0,0:0:0:0:
412,225,23792,1,2,0:0:0:0:
285,373,23950,1,0,0:0:0:0:
301,178,24108,2,0,P|264:152|208:148,1,80,2|0,0:0|0:0,0:0:0:0:
72,184,24424,2,0,P|67:139|93:88,1,80,10|0,0:0|0:0,0:0:0:0:
264,32,24740,5,6,0:0:0:0:
340,104,24897,1,0,0:0:0:0:
176,220,25055,1,10,0:0:0:0:
208,120,25213,1,0,0:0:0:0:
368,204,25371,1,2,0:0:0:0:
344,304,25529,1,0,0:0:0:0:
269,144,25687,1,10,0:0:0:0:
361,96,25845,1,0,0:0:0:0:
196,32,26003,6,0,P|144:36|104:80,1,80,2|0,0:0|0:0,0:0:0:0:
48,176,26318,1,10,0:0:0:0:
184,128,26476,1,0,0:0:0:0:
152,268,26634,2,0,B|194:346,1,80,2|0,0:0|0:0,0:0:0:0:
334,351,26950,2,2,L|288:264,1,80,10|2,0:0|0:0,0:0:0:0:
284,128,27266,5,10,3:3:0:0:
442,72,27424,1,0,3:2:0:0:
346,210,27582,1,10,3:2:0:0:
342,42,27740,1,0,3:2:0:0:
443,177,27897,1,10,3:2:0:0:
188,40,28213,6,0,P|211:66|206:31,1,95.9999970703126,2|0,2:2|0:0,0:0:0:0:
144,144,28529,5,6,0:0:0:0:
236,208,28687,1,0,0:0:0:0:
332,152,28845,1,10,0:0:0:0:
264,60,29003,1,0,0:0:0:0:
152,68,29161,2,0,P|112:76|80:104,1,80,2|0,0:0|0:0,0:0:0:0:
106,210,29476,2,0,P|116:171|144:143,1,80,10|0,0:0|0:0,0:0:0:0:
236,256,29792,5,2,0:0:0:0:
308,360,29950,1,0,0:0:0:0:
312,232,30108,1,8,0:0:0:0:
232,332,30266,1,0,0:0:0:0:
133,250,30424,1,2,0:0:0:0:
148,122,30582,1,0,0:0:0:0:
256,52,30740,2,0,P|300:64|324:108,1,80,10|0,0:0|0:0,0:0:0:0:
406,205,31055,6,0,P|362:193|338:149,1,80,6|0,0:0|0:0,0:0:0:0:
198,188,31371,2,0,P|224:158|262:151,1,80,10|0,0:0|0:0,0:0:0:0:
173,265,31687,2,0,P|136:246|120:211,2,80,2|0|10,0:0|0:0|0:0,0:0:0:0:
316,224,32161,5,0,3:3:0:0:
48,274,32318,1,10,3:2:0:0:
234,74,32476,1,0,3:2:0:0:
201,342,32634,1,10,3:2:0:0:
69,106,32792,1,0,3:2:0:0:
69,106,32950,2,0,B|88:86|88:86|112:88|112:88|124:68|124:68|144:44|180:52|180:108,1,150,10|0,3:2|0:2,0:2:0:0:
187,124,33266,6,0,B|200:184|280:176,1,100,10|0,0:0|0:0,0:0:0:0:
420,152,33582,5,6,2:2:0:0:
316,28,33740,1,0,2:2:0:0:
261,176,33897,2,0,B|281:220|281:220|309:252,1,80,10|0,2:2|2:0,2:2:0:0:
388,108,34213,5,2,2:2:0:0:
232,64,34371,1,0,2:2:0:0:
200,220,34529,2,0,B|220:264|220:264|248:296,1,80,10|0,2:2|2:0,2:2:0:0:
320,148,34845,5,2,2:2:0:0:
164,108,35003,1,0,2:2:0:0:
140,268,35161,2,2,L|176:348,1,80,10|0,2:2|2:0,2:2:0:0:
232,192,35476,5,2,2:2:0:0:
84,132,35634,1,0,2:2:0:0:
72,292,35792,2,0,L|108:376,1,80,10|0,2:2|2:0,2:2:0:0:
192,60,36108,5,14,3:2:0:0:
428,344,36424,1,10,3:2:0:0:
8,212,36740,1,10,3:2:0:0:
436,32,37055,1,10,3:2:0:0:
124,144,37371,5,2,3:2:0:0:
400,232,37529,1,8,3:2:0:0:
112,320,38003,5,2,3:2:0:0:
352,88,38161,1,8,3:2:0:0:
97,84,38634,5,4,0:0:0:0:
270,147,38792,1,0,0:0:0:0:
88,176,38950,1,10,0:0:0:0:
212,40,39108,1,0,0:0:0:0:
358,152,39266,2,0,P|348:190|324:222,1,80,2|0,0:0|0:0,0:0:0:0:
179,107,39582,1,2,0:0:0:0:
345,28,39740,1,0,0:0:0:0:
436,196,39897,5,2,0:0:0:0:
292,268,40055,1,0,0:0:0:0:
368,128,40213,2,0,P|397:100|436:95,1,80,10|0,0:0|0:0,0:0:0:0:
500,240,40529,2,0,P|472:267|429:275,1,80,2|0,0:0|0:0,0:0:0:0:
276,236,40845,1,10,0:0:0:0:
432,196,41003,1,0,0:0:0:0:
364,52,41161,5,6,0:0:0:0:
212,92,41318,1,0,0:0:0:0:
336,192,41476,2,0,B|388:276,1,80,10|0,0:0|0:0,0:0:0:0:
292,124,41792,2,0,B|258:152|252:204,1,80,2|0,0:0|0:0,0:0:0:0:
288,348,42108,1,10,0:0:0:0:
172,236,42266,1,0,0:0:0:0:
224,60,42424,5,10,3:2:0:0:
300,200,42582,1,0,3:2:0:0:
160,92,42740,1,10,3:2:0:0:
312,132,42897,1,0,3:2:0:0:
140,164,43055,2,0,P|98:187|77:228,1,80,10|0,3:0|0:0,0:0:0:0:
108,372,43371,2,0,P|149:348|170:307,1,80,10|0,0:0|0:0,0:0:0:0:
289,190,43687,5,6,0:0:0:0:
212,260,43845,1,0,0:0:0:0:
108,244,44003,1,10,0:0:0:0:
64,152,44161,1,0,0:0:0:0:
128,72,44318,2,0,B|209:31,1,80,2|0,0:0|0:0,0:0:0:0:
291,85,44634,2,0,L|202:132,1,80,10|2,0:0|0:0,0:0:0:0:
292,212,44950,6,0,P|264:268|236:292,1,80,2|0,0:0|0:0,0:0:0:0:
172,200,45266,1,10,0:0:0:0:
172,200,45424,1,0,0:0:0:0:
308,108,45582,5,2,0:0:0:0:
156,104,45740,1,0,0:0:0:0:
272,200,45897,1,10,0:0:0:0:
236,56,46055,1,2,0:0:0:0:
180,208,46213,6,0,P|196:260|224:292,1,80,6|0,0:0|0:0,0:0:0:0:
328,316,46529,1,10,0:0:0:0:
280,208,46687,1,0,0:0:0:0:
388,156,46845,2,0,P|354:113|316:93,1,80,2|0,0:0|0:0,0:0:0:0:
212,108,47161,1,10,0:0:0:0:
280,208,47318,1,0,0:0:0:0:
372,340,47476,6,0,L|276:288,1,80,6|0,3:2|3:0,0:0:0:0:
164,216,47792,2,0,L|260:164,1,80,10|0,3:2|3:2,0:0:0:0:
322,40,48108,5,2,3:0:0:0:
304,29,48186,1,0,3:0:0:0:
287,19,48266,1,0,3:0:0:0:
271,9,48345,1,0,3:0:0:0:
252,8,48424,5,10,3:1:0:0:
232,40,48503,1,0,3:1:0:0:
224,76,48582,1,0,3:1:0:0:
228,112,48661,1,0,3:1:0:0:
240,144,48740,5,6,2:3:0:0:
367,190,48897,1,0,0:0:0:0:
465,284,49055,2,0,P|432:314|390:322,1,80,10|0,0:0|0:0,0:0:0:0:
262,312,49371,2,0,P|219:299|190:266,1,80,2|0,0:0|0:0,0:0:0:0:
248,132,49687,5,10,0:0:0:0:
116,56,49845,1,0,0:0:0:0:
56,196,50003,2,0,P|96:244|144:248,1,80,2|0,0:0|0:0,0:0:0:0:
185,117,50318,2,0,P|151:136|133:171,1,80,10|0,0:0|0:0,0:0:0:0:
264,246,50634,2,0,P|244:212|210:194,1,80,2|0,0:0|0:0,0:0:0:0:
192,40,50950,5,10,0:0:0:0:
316,72,51108,1,0,0:0:0:0:
348,196,51266,2,0,B|331:215|331:215|332:247|332:247|317:265,1,80,4|0,0:0|0:0,0:0:0:0:
188,280,51582,2,0,B|172:261|172:261|172:229|172:229|153:205,1,80,10|0,0:0|0:0,0:0:0:0:
66,120,51897,2,0,P|61:159|78:194,1,80,2|0,0:0|0:0,0:0:0:0:
226,106,52213,2,0,P|201:76|164:64,1,80,10|0,0:0|0:0,0:0:0:0:
78,194,52529,6,0,B|83:232|83:232|111:264,1,80,4|0,0:0|0:0,0:0:0:0:
248,248,52845,2,0,B|276:216|276:216|284:148,1,80,10|0,0:0|0:0,0:0:0:0:
268,40,53161,1,2,0:0:0:0:
128,48,53318,1,0,0:0:0:0:
116,64,53397,1,0,0:0:0:0:
104,80,53476,2,0,B|79:114|79:114|78:183,1,80,10|0,0:0|0:0,0:0:0:0:
84,288,53792,5,4,0:0:0:0:
188,308,53950,1,0,0:0:0:0:
300,312,54108,2,0,B|337:313|337:313|391:286,1,80,10|0,0:0|0:0,0:0:0:0:
444,204,54424,2,0,B|445:166|445:166|418:112,1,80,2|0,0:0|0:0,0:0:0:0:
352,44,54740,1,10,0:0:0:0:
240,32,54897,1,2,0:0:0:0:
136,132,55055,6,0,P|117:175|129:220,1,95.9999970703126,10|0,0:0|0:0,0:0:0:0:
108,344,55371,2,0,P|154:353|195:330,1,95.9999970703126,2|0,0:0|0:0,0:0:0:0:
312,376,55687,2,0,P|330:332|318:287,1,95.9999970703126,10|0,0:0|0:0,0:0:0:0:
348,164,56003,2,0,P|301:154|260:177,1,95.9999970703126,2|0,0:0|0:0,0:0:0:0:
148,292,56318,5,10,3:2:0:0:
218,227,56950,1,10,3:2:0:0:
290,163,57582,1,10,3:2:0:0:
361,98,58213,1,10,3:2:0:0:
40,188,58529,5,2,3:2:0:0:
40,188,58687,1,0,3:2:0:0:
104,60,58845,5,10,3:3:0:0:
204,332,59161,1,10,3:2:0:0:
288,56,59476,1,10,3:2:0:0:
392,324,59792,1,10,3:2:0:0:
126,370,60108,5,10,3:3:0:0:
107,230,60266,1,0,3:2:0:0:
204,332,60424,1,0,3:2:0:0:
63,309,60582,1,0,3:2:0:0:
196,245,60740,5,2,3:3:0:0:
224,201,60818,1,0,3:1:0:0:
275,196,60897,1,0,3:1:0:0:
312,231,60976,1,0,3:0:0:0:
309,282,61055,1,10,3:3:0:0:
349,314,61134,1,0,3:3:0:0:
399,303,61213,1,0,3:0:0:0:
423,257,61292,1,0,3:0:0:0:
419,206,61371,6,0,P|393:146|331:127,1,120.000004577637,6|0,2:1|0:0,0:0:0:0:
200,148,61687,1,10,0:0:0:0:
250,285,61845,1,0,0:0:0:0:
272,142,62003,2,0,P|234:89|170:83,1,120.000004577637,2|0,2:2|0:0,0:0:0:0:
52,143,62319,1,10,0:0:0:0:
132,262,62477,1,0,0:0:0:0:
288,174,62634,5,2,0:1:0:0:
181,60,62792,1,0,0:0:0:0:
184,241,62950,1,10,0:0:0:0:
249,97,63108,1,0,0:0:0:0:
73,136,63266,1,2,0:0:0:0:
225,170,63424,1,0,0:0:0:0:
103,51,63582,1,10,0:0:0:0:
133,204,63740,1,0,0:0:0:0:
280,304,63897,6,0,L|416:280,1,120.000004577637,2|0,0:1|0:0,0:0:0:0:
496,143,64213,2,0,P|454:101|395:95,1,120.000004577637,2|0,0:2|0:2,0:2:0:0:
256,192,64529,2,0,L|388:200,1,120.000004577637,2|0,0:2|0:2,0:2:0:0:
236,104,64845,2,0,P|185:134|165:189,1,120.000004577637,10|0,0:2|0:2,0:2:0:0:
368,268,65161,5,2,0:1:0:0:
328,56,65319,1,0,0:0:0:0:
116,96,65477,1,10,0:0:0:0:
156,308,65634,2,0,P|162:350|159:306,1,120.000004577637
241,131,65950,6,0,P|325:101|358:199,1,200
286,316,66424,1,2,0:1:0:0:
299,165,66582,1,0,0:0:0:0:
174,249,66740,2,0,P|128:222|120:160,1,100,10|0,0:0|0:0,0:0:0:0:
163,37,67055,5,2,0:0:0:0:
303,89,67213,1,0,0:0:0:0:
185,182,67371,1,10,0:0:0:0:
240,42,67529,1,0,0:0:0:0:
287,184,67687,6,0,P|331:208|403:180,1,100,2|0,0:1|0:0,0:0:0:0:
452,68,68003,2,0,P|408:44|336:72,1,100,10|0,0:2|0:0,0:0:0:0:
216,190,68318,1,0,0:0:0:0:
330,287,68476,1,0,0:0:0:0:
230,113,68634,1,10,0:0:0:0:
138,231,68792,1,0,0:0:0:0:
296,108,68950,6,0,L|156:116,1,100,6|0,0:1|0:1,0:0:0:0:
76,124,69266,1,10,0:0:0:0:
352,104,69582,6,0,L|192:112,1,120.000004577637,2|0,0:1|0:0,0:0:0:0:
76,124,69897,1,10,0:0:0:0:
232,109,70055,1,0,0:0:0:0:
104,252,70213,5,2,3:1:0:0:
151,116,70371,1,0,3:2:0:0:
147,332,70529,1,10,3:2:0:0:
212,203,70687,1,0,3:2:0:0:
368,212,70845,5,4,3:1:0:0:
376,184,70924,1,0,3:0:0:0:
396,160,71003,1,0,0:0:0:0:
396,132,71082,1,0,3:0:0:0:
412,108,71161,2,0,B|415:75|439:42|439:42|348:44,1,120.000004577637,8|0,3:1|3:2,0:0:0:0:
188,56,71476,5,2,0:1:0:0:
96,208,71634,1,0,0:0:0:0:
256,92,71792,1,2,0:0:0:0:
80,136,71950,1,0,0:0:0:0:
244,252,72108,1,10,0:0:0:0:
148,100,72266,1,0,0:0:0:0:
152,300,72424,1,2,0:0:0:0:
276,168,72582,1,0,0:0:0:0:
76,192,72740,6,0,B|56:240|56:240|61:290,1,100,6|0,0:0|0:0,0:0:0:0:
208,356,73055,1,10,0:0:0:0:
164,200,73213,1,0,0:0:0:0:
272,80,73371,2,0,L|168:16,1,100,2|0,0:0|0:0,0:0:0:0:
236,180,73687,1,10,0:0:0:0:
92,108,73845,1,0,0:0:0:0:
24,276,74003,6,0,P|70:305|119:301,1,100,6|0,0:1|0:0,0:0:0:0:
252,156,74318,2,0,P|200:171|169:208,1,100,10|0,0:0|0:0,0:0:0:0:
308,352,74634,2,0,B|360:332|360:332|392:292,1,100,2|0,0:0|0:0,0:0:0:0:
331,101,74950,2,0,B|279:121|279:121|247:161,1,100,10|0,0:0|0:0,0:0:0:0:
388,304,75266,5,2,0:1:0:0:
324,180,75424,1,0,0:0:0:0:
312,280,75582,1,10,0:0:0:0:
420,188,75740,2,0,B|460:156|460:156|484:108,1,100,0|2,0:0|0:0,0:0:0:0:
296,36,76055,5,0,0:0:0:0:
204,192,76213,1,10,0:0:0:0:
360,280,76371,1,0,0:0:0:0:
252,112,76529,5,6,0:1:0:0:
132,216,76687,1,0,0:0:0:0:
280,272,76845,1,10,0:0:0:0:
244,116,77003,1,0,0:0:0:0:
124,220,77161,2,0,P|114:282|128:324,1,100,2|0,0:0|0:0,0:0:0:0:
280,228,77476,5,2,0:0:0:0:
420,308,77634,1,0,0:0:0:0:
416,128,77792,5,2,0:0:0:0:
348,272,77950,1,0,0:0:0:0:
500,176,78108,5,10,0:0:0:0:
340,176,78266,1,0,0:0:0:0:
212,336,78424,6,0,B|185:325|172:299|172:299|136:296|104:268,1,120.000004577637,6|0,0:1|0:0,0:0:0:0:
152,60,78740,1,10,0:0:0:0:
212,176,78897,1,0,0:0:0:0:
368,84,79055,6,0,P|388:56|360:80,1,100,2|0,0:1|0:0,0:0:0:0:
336,256,79371,2,0,P|350:287|343:251,1,100,10|0,0:0|0:0,0:0:0:0:
172,216,79687,2,0,P|139:228|176:223,1,100,10|0,0:0|0:0,0:0:0:0:
336,112,80003,5,4,2:1:0:0:
276,216,80161,1,0,2:0:0:0:
308,20,80318,1,10,3:1:0:0:
252,124,80476,1,0,3:0:0:0:
452,132,80634,1,10,3:0:0:0:
420,248,80792,1,0,3:0:0:0:
380,52,80950,1,10,3:0:0:0:
288,228,81108,5,0,3:0:0:0:
272,248,81187,1,0,3:0:0:0:
256,268,81266,2,0,B|240:288|240:288|208:264|152:264,1,100,10|0,3:0|3:0,3:0:0:0:
52,100,81582,5,6,0:0:0:0:
192,48,81740,1,0,0:0:0:0:
308,140,81897,2,0,B|264:172|264:172|192:184,1,100,10|0,0:0|0:0,0:0:0:0:
35,155,82213,5,2,0:0:0:0:
156,69,82371,1,0,0:0:0:0:
292,128,82529,2,0,B|258:170|258:170|192:200,1,100,10|0,0:0|0:0,0:0:0:0:
33,214,82845,5,6,0:0:0:0:
128,99,83003,1,0,0:0:0:0:
275,120,83160,2,0,B|252:170|252:170|196:217,1,100,10|0,0:0|0:0,0:0:0:0:
46,271,83476,5,2,0:0:0:0:
108,135,83634,1,0,0:0:0:0:
256,118,83792,2,0,B|247:172|247:172|205:231,1,100,10|0,0:0|0:0,0:0:0:0:
92,336,84108,5,10,3:0:0:0:
440,244,84424,1,10,3:0:0:0:
92,152,84740,1,10,3:0:0:0:
448,104,85055,1,14,3:0:0:0:
56,236,85529,5,2,3:1:0:0:
249,294,85687,1,10,3:1:0:0:
298,60,86003,5,2,3:2:0:0:
180,220,86161,1,10,3:2:0:0:
176,48,86476,5,2,3:3:0:0:
292,212,86634,1,10,3:3:0:0:
325,67,86950,5,2,3:1:0:0:
144,152,87108,1,10,3:1:0:0:
256,244,87424,5,10,3:1:0:0:
241,94,87582,1,10,3:1:0:0:
388,124,87740,2,0,B|363:180|398:227|398:227|352:189|316:212|316:212|324:235|328:258|323:290|288:327|238:318|213:295,1,379.999989852906,2|0,2:2|0:0,0:0:0:0:
