osu file format v14

[General]
AudioFilename: yuruyuried.mp3
AudioLeadIn: 0
PreviewTime: 56318
Countdown: 0
SampleSet: Soft
StackLeniency: 0.7
Mode: 0
LetterboxInBreaks: 0
WidescreenStoryboard: 0

[Editor]
Bookmarks: 8950,10687,17318,23476,33503,38634,43687,48108,50634,53792,56318,58292,61055,78424,85371
DistanceSpacing: 1.4
BeatDivisor: 4
GridSize: 4
TimelineZoom: 2.699999

[Metadata]
Title:My Pace de Ikimashou
TitleUnicode:マイペースでいきましょう
Artist:Nanamori-chu * Goraku-bu
ArtistUnicode:七森中☆ごらく部
Creator:Lasse
Version:Insane
Source:ゆるゆり
Tags:Yuru Yuri Akaza Akari Toshinou Kyouko Funami Yui Yoshikawa Chinatsu Mikami Shiori Ootsubo Yuka Tsuda Minami Ookubo Rumi
BeatmapID:757567
BeatmapSetID:335145

[Difficulty]
HPDrainRate:6
CircleSize:3.8
OverallDifficulty:8
ApproachRate:9
SliderMultiplier:1.45
SliderTickRate:1

[Events]
//Background and Video events
0,0,"bg.jpg",0,0
//Break Periods
//Storyboard Layer 0 (Background)
//Storyboard Layer 1 (Fail)
//Storyboard Layer 2 (Pass)
//Storyboard Layer 3 (Foreground)
//Storyboard Sound Samples

[TimingPoints]
740,315.789473684211,4,2,1,50,1,0
2634,-100,4,2,1,60,0,0
3740,-80,4,2,1,60,0,0
4055,-100,4,2,1,60,0,0
6266,-80,4,2,1,70,0,0
6582,-100,4,2,1,70,0,0
7687,-80,4,2,1,80,0,0
8003,-100,4,2,1,80,0,0
13213,-100,4,2,1,40,0,0
13371,-80,4,2,1,80,0,0
15897,-100,4,2,1,80,0,0
17713,-100,4,2,1,10,0,0
17792,-80,4,2,1,80,0,0
18424,-100,4,2,1,80,0,0
22371,-80,4,2,1,80,0,0
23476,-100,4,2,1,80,0,0
28213,-80,4,2,2,80,0,0
28529,-100,4,2,1,80,0,0
31055,-100,4,2,1,80,0,0
33187,-100,4,2,1,10,0,0
33266,-80,4,2,1,80,0,0
33582,-100,4,2,1,80,0,0
35713,-100,4,2,1,10,0,0
35792,-80,4,2,1,80,0,0
36108,-100,4,2,1,80,0,0
43371,-80,4,2,1,80,0,0
43687,-100,4,2,1,80,0,0
52529,-80,4,2,1,80,0,0
53792,-100,4,2,1,82,0,0
57582,-100,4,2,1,85,0,0
58529,-100,4,2,1,88,0,0
59161,-100,4,2,1,91,0,0
60108,-100,4,2,1,94,0,0
60582,-100,4,2,1,97,0,0
60740,-71.4285714285714,4,2,1,97,0,0
61371,-71.4285714285714,4,2,1,100,0,1
79055,-71.4285714285714,4,2,1,100,0,1
80950,-71.4285714285714,4,2,1,100,0,0
81108,-100,4,2,1,90,0,0
81582,-100,4,2,1,80,0,0
84266,-100,4,2,1,20,0,0
84424,-100,4,2,1,80,0,0
84582,-100,4,2,1,20,0,0
84740,-100,4,2,1,80,0,0
84897,-100,4,2,1,20,0,0
85055,-100,4,2,1,80,0,0
85213,-100,4,2,1,20,0,0
85529,-100,4,2,1,70,0,0
87740,-100,4,2,2,60,0,0
87818,-100,4,2,1,60,0,0
88529,-100,4,2,2,30,0,0

[Colours]
Combo1 : 87,171,255
Combo2 : 255,128,192
Combo3 : 169,255,83
Combo4 : 245,218,90

[HitObjects]
132,144,1529,5,0,0:0:0:0:
160,228,1687,1,0,0:0:0:0:
236,272,1845,1,0,0:0:0:0:
320,244,2003,2,0,P|352:212|364:168,1,72.5,0|0,0:0|0:0,0:0:0:0:
276,164,2318,2,0,P|239:136|194:131,1,72.5,0|0,0:0|0:0,0:0:0:0:
96,136,2634,5,10,3:2:0:0:
204,204,2792,1,10,3:2:0:0:
388,324,3108,1,10,3:2:0:0:
280,292,3266,1,10,3:2:0:0:
204,204,3424,1,10,3:2:0:0:
268,36,3740,6,0,B|268:88|292:88|292:136,1,90.625,10|0,3:3|0:0,0:0:0:0:
212,128,4055,5,0,0:0:0:0:
224,208,4213,1,0,0:0:0:0:
280,264,4371,1,0,0:0:0:0:
360,248,4529,2,0,B|393:231|393:231|414:189,1,72.5
332,172,4845,2,0,L|272:116,1,72.5
212,56,5161,6,0,L|160:120,2,72.5,10|10|0,3:2|3:2|0:0,0:0:0:0:
256,120,5634,1,10,3:2:0:0:
300,56,5792,2,0,L|352:120,2,72.5,10|10|0,3:2|3:2|0:0,0:0:0:0:
256,120,6266,6,0,L|256:248,1,90.625,10|0,3:3|2:2,0:0:0:0:
256,300,6582,5,0,0:0:0:0:
180,228,6740,1,0,0:0:0:0:
172,136,6897,1,0,0:0:0:0:
208,48,7055,2,0,P|245:41|280:51,1,72.5
276,144,7371,2,0,P|313:151|348:141,1,72.5
308,60,7687,6,0,B|293:34|293:34|380:44,1,90.625,10|10,3:2|3:3,0:0:0:0:
448,48,8003,5,0,0:0:0:0:
432,140,8161,1,0,0:0:0:0:
396,224,8318,2,0,P|372:252|320:248,1,72.5,0|2,0:0|0:0,0:0:0:0:
324,162,8634,1,0,0:0:0:0:
263,89,8792,1,0,0:0:0:0:
184,132,8950,5,10,3:2:0:0:
184,132,9108,1,10,3:2:0:0:
392,292,9582,1,10,3:2:0:0:
392,292,9740,1,10,3:2:0:0:
140,352,10213,1,10,3:2:0:0:
140,352,10371,1,10,3:2:0:0:
224,104,10845,5,10,3:2:0:0:
420,196,11161,1,10,3:2:0:0:
243,319,11476,1,10,3:1:0:0:
232,232,11634,5,10,3:2:0:0:
312,272,11792,1,10,3:2:0:0:
243,319,11950,1,10,3:3:0:0:
256,192,12108,12,0,13213,0:0:0:0:
243,262,13371,5,6,0:0:0:0:
267,128,13529,1,0,0:0:0:0:
373,216,13687,2,0,P|409:198|371:175,1,90.625,10|0,0:0|0:0,0:0:0:0:
244,127,14003,1,2,0:0:0:0:
268,260,14161,1,0,0:0:0:0:
156,184,14318,2,0,P|120:202|157:224,1,90.625,10|0,0:0|0:0,0:0:0:0:
272,288,14634,6,0,L|404:268,1,90.625,2|0,0:0|0:0,0:0:0:0:
272,168,14950,2,0,P|196:180|140:188,1,90.625,8|0,0:0|0:0,0:0:0:0:
196,320,15266,2,0,L|328:300,1,90.625,2|0,0:0|0:0,0:0:0:0:
196,200,15582,2,0,P|120:212|64:220,1,90.625,10|0,0:0|0:0,0:0:0:0:
80,108,15897,5,14,3:3:0:0:
336,56,16213,1,10,3:2:0:0:
304,332,16529,1,10,3:2:0:0:
212,236,16687,1,0,0:0:0:0:
308,148,16845,1,10,3:2:0:0:
404,188,17161,6,0,B|381:173|416:129|458:170|475:215|433:254|390:292|348:275|311:227,1,253.75,2|0,3:2|0:0,0:0:0:0:
300,216,17792,6,0,B|286:197|285:169|285:169|263:266|177:260,1,181.25,2|2,3:1|2:2,0:0:0:0:
116,252,18424,5,6,0:0:0:0:
364,100,18740,1,10,0:0:0:0:
444,376,19055,1,2,0:0:0:0:
320,304,19213,1,0,0:0:0:0:
236,188,19371,1,10,0:0:0:0:
364,100,19687,5,2,0:0:0:0:
286,156,19845,1,0,0:0:0:0:
172,44,20003,1,10,0:0:0:0:
128,128,20160,1,0,0:0:0:0:
181,278,20318,2,0,B|286:342|286:342|281:314,1,145,2|8,0:0|0:0,0:0:0:0:
344,36,20950,6,0,L|284:104,1,72.5,14|0,3:3|0:0,0:0:0:0:
192,120,21266,2,0,L|252:188,1,72.5,10|0,3:2|0:0,0:0:0:0:
344,212,21582,2,0,L|284:280,1,72.5,10|0,3:2|0:0,0:0:0:0:
192,296,21898,2,0,L|252:364,1,72.5,10|0,3:2|0:0,0:0:0:0:
376,292,22371,6,0,P|412:324|468:320,2,90.625,2|10|0,3:1|3:2|0:0,0:0:0:0:
344,216,22845,1,2,3:3:0:0:
328,194,22923,1,0,3:3:0:0:
305,183,23002,1,0,3:3:0:0:
280,184,23081,1,0,3:3:0:0:
257,196,23160,1,10,3:3:0:0:
244,218,23239,1,0,3:3:0:0:
243,244,23318,1,0,3:3:0:0:
248,268,23397,1,0,3:3:0:0:
260,288,23476,6,0,B|296:320|344:308,1,72.5,6|0,0:0|0:0,0:0:0:0:
420,296,23792,1,10,0:0:0:0:
364,220,23950,1,0,0:0:0:0:
448,180,24108,2,0,P|424:144|368:136,1,72.5,2|0,0:0|0:0,0:0:0:0:
368,44,24424,2,0,P|329:64|316:119,1,72.5,10|0,0:0|0:0,0:0:0:0:
308,200,24740,6,0,P|289:234|229:263,1,72.5,2|0,0:0|0:0,0:0:0:0:
152,260,25056,1,10,0:0:0:0:
128,156,25214,1,0,0:0:0:0:
236,176,25372,2,0,L|212:104,1,72.5,2|0,0:0|0:0,0:0:0:0:
312,152,25688,2,0,L|340:224,1,72.5,10|0,0:0|0:0,0:0:0:0:
400,312,26003,6,0,B|366:328|366:328|306:320,1,72.5,2|0,0:0|0:0,0:0:0:0:
272,260,26318,1,10,0:0:0:0:
192,296,26476,1,0,0:0:0:0:
124,244,26634,2,0,L|32:216,1,72.5,2|10,0:0|0:0,0:0:0:0:
36,216,26871,1,0,0:0:0:0:
24,204,26950,2,0,P|12:160|20:104,1,72.5
84,48,27266,5,10,3:2:0:0:
152,112,27424,1,2,3:2:0:0:
220,44,27582,1,8,3:2:0:0:
292,104,27740,1,2,3:2:0:0:
352,32,27897,2,0,L|440:32,1,72.5,10|0,0:0|0:0,0:0:0:0:
432,212,28213,6,0,B|422:218|422:218|417:165|384:150,1,90.625,2|2,2:2|0:0,0:0:0:0:
280,152,28529,5,6,0:0:0:0:
204,256,28687,1,0,0:0:0:0:
328,220,28845,1,10,0:0:0:0:
204,176,29003,1,0,0:0:0:0:
276,284,29161,5,2,0:0:0:0:
320,144,29319,1,0,0:0:0:0:
184,188,29476,1,10,0:0:0:0:
328,220,29634,1,0,0:0:0:0:
388,132,29792,6,0,P|362:89|317:72,1,72.5,2|0,0:0|0:0,0:0:0:0:
292,176,30108,2,0,P|286:211|298:245,1,72.5,8|0,0:0|0:0,0:0:0:0:
400,200,30424,2,0,P|447:186|492:204,1,72.5,2|0,0:0|0:0,0:0:0:0:
440,297,30740,2,0,P|405:306|369:300,1,72.5,10|0,0:0|0:0,0:0:0:0:
268,264,31055,6,0,B|200:232,1,72.5,2|0,0:0|0:0,0:0:0:0:
148,328,31371,2,0,B|72:292,1,72.5,10|0,0:0|0:0,0:0:0:0:
100,188,31687,2,0,B|129:177|129:177|128:148|128:148|152:136|152:136|128:100|149:64|179:42|221:75,1,217.5,2|0,0:0|3:3,0:0:0:0:
212,69,32318,5,10,3:2:0:0:
304,181,32476,1,0,3:2:0:0:
164,141,32634,1,10,3:2:0:0:
300,89,32792,1,0,3:2:0:0:
216,209,32950,2,0,P|200:281|156:313,1,108.75,10|0,3:2|0:2,0:0:0:0:
156,316,33266,6,0,B|128:328|128:328|132:284|112:272|128:252,1,90.625,10|0,0:0|0:0,0:0:0:0:
148,164,33582,5,6,2:2:0:0:
264,76,33740,1,0,2:2:0:0:
288,216,33897,2,0,L|296:320,1,72.5,10|0,2:2|2:0,0:0:0:0:
175,246,34213,5,2,2:2:0:0:
63,152,34371,1,0,2:2:0:0:
194,97,34529,2,0,L|293:65,1,72.5,10|0,2:2|2:0,0:0:0:0:
384,44,34845,5,2,2:2:0:0:
452,80,35003,1,0,2:0:0:0:
336,104,35161,1,10,2:2:0:0:
448,152,35318,1,0,2:2:0:0:
372,176,35476,2,0,B|324:216|260:207,1,108.75,2|0,2:2|0:0,0:0:0:0:
248,216,35792,6,0,B|224:204|224:204|256:284,1,90.625,10|0,2:2|2:0,0:0:0:0:
368,344,36108,5,14,3:2:0:0:
412,56,36424,1,10,3:2:0:0:
292,320,36740,1,10,3:2:0:0:
474,92,37055,1,10,3:2:0:0:
368,200,37371,5,2,3:2:0:0:
260,100,37529,1,8,3:2:0:0:
264,196,38003,5,2,3:2:0:0:
380,108,38161,1,8,3:2:0:0:
108,289,38634,5,6,0:0:0:0:
63,189,38792,1,0,0:0:0:0:
132,104,38950,1,10,0:0:0:0:
236,132,39108,1,0,0:0:0:0:
272,236,39266,2,0,P|288:268|328:292,1,72.5,2|0,0:0|0:0,0:0:0:0:
368,188,39582,2,0,P|400:172|424:132,1,72.5,2|0,0:0|0:0,0:0:0:0:
432,40,39897,5,2,0:0:0:0:
328,92,40055,1,0,0:0:0:0:
212,96,40213,2,0,L|116:84,1,72.5,10|0,0:0|0:0,0:0:0:0:
256,196,40529,1,2,0:0:0:0:
145,278,40687,1,0,0:0:0:0:
283,278,40845,1,10,0:0:0:0:
170,199,41003,1,0,0:0:0:0:
214,328,41161,5,2,0:0:0:0:
256,196,41318,1,0,0:0:0:0:
364,120,41476,2,0,P|368:80|328:52,1,72.5,10|0,0:0|0:0,0:0:0:0:
216,40,41792,1,2,0:0:0:0:
108,112,41950,1,0,0:0:0:0:
108,244,42108,2,0,P|144:276|188:252,1,72.5,10|0,0:0|0:0,0:0:0:0:
284,324,42424,5,10,3:2:0:0:
177,146,42582,1,0,3:2:0:0:
367,227,42740,1,10,3:2:0:0:
166,273,42897,1,0,3:2:0:0:
301,118,43055,1,10,3:0:0:0:
240,220,43371,6,0,P|205:182|141:135,1,90.625,10|0,0:0|0:0,0:0:0:0:
77,95,43687,1,6,0:0:0:0:
181,43,43845,1,0,0:0:0:0:
268,124,44003,1,10,0:0:0:0:
376,84,44161,1,0,0:0:0:0:
440,172,44318,2,0,L|420:256,1,72.5,2|0,0:0|0:0,0:0:0:0:
329,302,44634,2,0,L|353:210,1,72.5,10|2,0:0|0:0,0:0:0:0:
256,192,44950,5,2,0:0:0:0:
160,240,45108,1,0,0:0:0:0:
256,288,45266,1,10,0:0:0:0:
352,240,45424,1,0,0:0:0:0:
324,134,45582,2,0,L|297:58,1,72.5,2|0,0:0|0:0,0:0:0:0:
188,134,45897,2,0,L|215:58,1,72.5,10|2,0:0|0:0,0:0:0:0:
256,192,46213,6,0,L|256:273,1,72.5,2|0,0:0|0:0,0:1:0:0:
258,359,46529,1,10,0:0:0:0:
335,305,46687,1,0,0:0:0:0:
400,236,46845,2,0,B|400:151,1,72.5,2|0,0:0|0:0,0:0:0:0:
400,68,47161,1,10,0:0:0:0:
312,28,47319,1,2,0:0:0:0:
168,20,47476,6,0,L|97:37,1,72.5,6|0,3:2|3:0,0:0:0:0:
140,176,47792,2,0,L|102:238,1,72.5,10|0,3:2|3:0,0:0:0:0:
236,176,48108,5,2,3:0:0:0:
243,191,48186,1,0,3:0:0:0:
252,206,48265,1,0,3:0:0:0:
260,222,48344,1,0,3:0:0:0:
269,238,48424,2,0,L|299:296,2,36.25,10|0|0,3:1|3:1|3:1,0:0:0:0:
228,316,48740,5,6,2:3:0:0:
96,264,48897,1,0,0:0:0:0:
212,180,49055,2,0,P|243:163|254:129,1,72.5,10|0,0:0|0:0,0:0:0:0:
116,92,49371,2,0,P|84:108|73:142,1,72.5,2|0,0:0|0:0,0:0:0:0:
68,288,49687,1,10,0:0:0:0:
180,264,49845,1,0,0:0:0:0:
112,188,50003,6,0,L|72:104,1,72.5,2|0,0:0|0:0,0:0:0:0:
180,108,50318,2,0,L|185:35,1,72.5,10|0,0:0|0:0,0:0:0:0:
272,88,50634,2,0,L|338:6,1,72.5,2|0,0:0|0:0,0:0:0:0:
391,102,50950,1,10,0:0:0:0:
471,164,51108,1,0,0:0:0:0:
432,260,51266,6,0,P|416:304|368:328,1,72.5,6|0,0:0|0:0,0:0:0:0:
332,240,51582,1,10,0:0:0:0:
256,172,51740,1,0,0:0:0:0:
158,144,51897,2,0,P|180:102|225:75,1,72.5,2|0,0:0|0:0,0:0:0:0:
292,44,52213,1,10,0:0:0:0:
392,68,52371,1,0,0:0:0:0:
420,188,52529,6,0,B|433:202|433:202|362:204,1,90.625,6|0,0:0|0:0,0:0:0:0:
334,292,52845,2,0,B|326:309|326:309|294:246,1,90.625,10|2,0:0|0:0,0:0:0:0:
182,292,53161,2,0,B|188:309|188:309|220:246,1,90.625,2|0,0:0|0:0,0:0:0:0:
96,188,53476,2,0,B|82:202|82:202|153:204,1,90.625,10|8,0:0|0:0,0:0:0:0:
256,192,53792,5,6,0:0:0:0:
184,120,53950,1,0,0:0:0:0:
276,76,54108,2,0,P|309:54|350:46,1,72.5,10|0,0:0|0:0,0:0:0:0:
413,116,54424,2,0,P|379:137|338:145,1,72.5,2|0,0:0|0:0,0:0:0:0:
244,140,54740,1,10,0:0:0:0:
180,216,54897,1,2,0:0:0:0:
280,228,55055,5,2,0:0:0:0:
196,64,55371,1,2,0:0:0:0:
32,147,55687,1,2,0:0:0:0:
115,309,56003,1,10,0:0:0:0:
120,136,56318,5,10,3:2:0:0:
428,300,56950,1,10,3:2:0:0:
100,188,57582,1,10,3:2:0:0:
444,248,58213,1,10,3:2:0:0:
280,188,58529,2,0,B|284:159|257:168|244:121,1,72.5,2|0,3:2|3:2,0:0:0:0:
348,84,58845,5,10,3:1:0:0:
200,244,59161,1,10,3:1:0:0:
236,32,59476,1,10,3:1:0:0:
320,232,59792,1,10,3:1:0:0:
224,160,60108,5,4,3:3:0:0:
276,40,60266,1,0,3:3:0:0:
408,36,60424,1,8,3:3:0:0:
460,156,60582,1,0,3:3:0:0:
318,155,60740,5,4,3:3:0:0:
312,163,60818,1,0,3:1:0:0:
305,170,60897,1,8,3:1:0:0:
298,178,60976,1,0,3:1:0:0:
292,185,61055,1,2,3:3:0:0:
285,193,61134,1,0,3:2:0:0:
278,200,61213,1,0,3:2:0:0:
272,208,61293,1,0,3:2:0:0:
266,216,61371,6,0,P|216:216|172:193,1,101.499996902466,6|0,0:1|0:0,0:0:0:0:
240,91,61687,1,10,0:0:0:0:
266,216,61845,1,0,0:0:0:0:
363,289,62003,2,0,L|419:193,1,101.499996902466,2|0,0:0|0:0,0:0:0:0:
487,297,62318,1,10,0:0:0:0:
363,289,62476,1,0,0:0:0:0:
271,223,62634,6,0,P|214:223|170:251,1,101.499996902466,2|0,0:1|0:0,0:0:0:0:
251,343,62950,1,10,0:0:0:0:
271,223,63108,1,0,0:0:0:0:
343,123,63266,5,2,0:0:0:0:
343,123,63424,1,0,0:0:0:0:
235,67,63582,1,10,0:0:0:0:
235,67,63740,1,0,0:0:0:0:
88,108,63897,6,0,P|71:113|89:107,1,101.499996902466,6|0,0:1|0:0,0:0:0:0:
93,292,64213,2,0,P|95:304|88:286,1,101.499996902466,10|0,0:0|0:0,0:0:0:0:
283,282,64529,2,0,P|300:277|282:283,1,101.499996902466,2|0,0:0|0:0,0:0:0:0:
277,97,64845,2,0,P|275:85|282:103,1,101.499996902466,10|0,0:0|0:0,0:0:0:0:
132,28,65161,5,2,0:1:0:0:
160,188,65318,1,0,0:0:0:0:
320,164,65476,1,10,0:0:0:0:
284,4,65634,1,0,0:0:0:0:
180,116,65792,5,2,0:0:0:0:
180,116,65871,1,0,0:0:0:0:
180,116,65950,2,0,P|152:164|92:176,1,101.499996902466
80,60,66266,1,0,0:0:0:0:
200,40,66424,5,6,0:1:0:0:
300,108,66582,1,0,0:0:0:0:
212,192,66740,2,0,P|184:244|212:296,1,101.499996902466,10|0,0:0|0:0,0:0:0:0:
316,256,67055,1,2,0:0:0:0:
392,160,67213,1,0,0:0:0:0:
328,56,67371,1,10,0:0:0:0:
212,100,67529,1,0,0:0:0:0:
253,220,67687,6,0,B|313:275|313:275|316:244,1,101.499996902466,2|0,0:1|0:0,0:0:0:0:
436,216,68003,2,0,B|454:211|454:211|391:159,1,101.499996902466,10|0,0:2|0:0,0:0:0:0:
276,92,68318,5,2,0:0:0:0:
259,212,68476,1,0,0:0:0:0:
200,104,68634,1,10,0:0:0:0:
308,160,68792,1,0,0:0:0:0:
408,36,68950,5,6,0:1:0:0:
364,344,69266,1,10,0:0:0:0:
332,40,69582,1,2,0:1:0:0:
453,316,69897,1,10,0:0:0:0:
200,148,70213,5,2,3:1:0:0:
220,268,70371,1,0,3:2:0:0:
116,144,70529,1,10,3:2:0:0:
208,64,70687,1,0,3:2:0:0:
364,104,70845,6,0,L|420:72,1,50.749998451233,4|0,3:0|3:0,3:0:0:0:
380,160,71003,2,0,L|464:148,1,50.749998451233,0|0,3:2|3:2,3:2:0:0:
376,224,71161,2,0,L|444:244,1,50.749998451233,10|0,3:2|3:2,3:2:0:0:
344,272,71318,2,0,L|364:320,1,50.749998451233,0|0,3:2|3:2,3:2:0:0:
287,280,71476,6,0,L|155:220,1,101.499996902466,6|0,0:1|0:0,0:0:0:0:
192,84,71792,2,0,L|284:41,1,101.499996902466,10|0,0:0|0:0,0:0:0:0:
404,119,72108,2,0,P|420:169|476:182,1,101.499996902466,2|0,0:0|0:0,0:0:0:0:
419,321,72424,2,0,P|402:270|346:257,1,101.499996902466,10|0,0:0|0:0,0:0:0:0:
220,280,72740,5,2,0:1:0:0:
108,196,72897,1,0,0:0:0:0:
160,64,73055,1,10,0:0:0:0:
300,40,73213,1,0,0:0:0:0:
408,132,73371,2,0,L|452:228,1,101.499996902466,2|0,0:0|0:0,0:0:0:0:
362,337,73687,2,0,L|317:240,1,101.499996902466,10|0,0:0|0:0,0:0:0:0:
164,112,74003,5,6,0:2:0:0:
448,220,74318,1,10,0:2:0:0:
148,156,74634,1,2,0:2:0:0:
452,172,74950,1,10,0:2:0:0:
248,204,75266,5,2,0:1:0:0:
368,111,75424,1,0,0:0:0:0:
269,228,75582,1,10,0:0:0:0:
340,92,75740,1,0,0:0:0:0:
52,240,76055,5,0,0:0:0:0:
96,124,76213,1,10,0:0:0:0:
140,300,76371,1,0,0:0:0:0:
180,184,76529,2,0,P|225:162|275:165,1,101.499996902466,6|0,0:1|0:0,0:0:0:0:
232,356,76845,1,10,0:0:0:0:
240,236,77003,1,0,0:0:0:0:
168,48,77161,2,0,P|213:26|263:29,1,101.499996902466,2|0,0:1|0:0,0:0:0:0:
108,164,77476,5,10,0:0:0:0:
148,292,77634,1,0,0:0:0:0:
240,196,77792,2,0,P|280:172|275:101,1,101.499996902466,2|0,0:1|0:0,0:0:0:0:
154,88,78108,2,0,P|114:112|118:182,1,101.499996902466,10|0,0:0|0:0,0:0:0:0:
148,292,78424,2,0,P|172:332|242:327,1,101.499996902466,2|0,0:0|0:0,0:0:0:0:
256,206,78740,2,0,P|232:166|161:170,1,101.499996902466,10|0,0:0|0:0,0:0:0:0:
56,200,79055,5,6,0:1:0:0:
232,300,79371,1,10,0:0:0:0:
216,96,79687,1,10,0:0:0:0:
439,116,80003,5,2,2:0:0:0:
360,134,80161,1,0,2:0:0:0:
396,206,80318,1,10,3:0:0:0:
313,195,80476,1,0,3:0:0:0:
317,278,80634,1,10,3:0:0:0:
244,240,80791,1,0,3:0:0:0:
240,324,80950,1,10,3:0:0:0:
164,268,81108,5,0,3:0:0:0:
144,240,81187,1,0,3:0:0:0:
124,212,81266,2,0,B|104:192|120:168|108:140,1,72.5,10|0,3:0|3:0,0:0:0:0:
56,72,81582,5,6,0:0:0:0:
142,58,81740,1,0,0:0:0:0:
109,142,81897,1,10,0:0:0:0:
45,304,82213,1,2,0:0:0:0:
131,311,82371,1,0,0:0:0:0:
211,277,82529,2,0,L|294:222,1,72.5,10|0,0:0|0:0,0:0:0:0:
345,189,82845,5,2,0:0:0:0:
397,119,83003,1,0,0:0:0:0:
310,106,83161,1,10,0:0:0:0:
136,106,83476,1,2,0:0:0:0:
124,192,83634,1,0,0:0:0:0:
135,278,83792,2,0,L|183:364,1,72.5,10|0,0:0|0:0,0:0:0:0:
256,328,84108,6,0,L|256:224,1,72.5,10|0,3:0|0:0,0:0:0:0:
124,192,84424,2,0,L|228:192,1,72.5,10|0,3:0|0:0,0:0:0:0:
256,60,84740,2,0,L|256:164,1,72.5,10|0,3:0|0:0,0:0:0:0:
388,196,85055,2,0,L|284:195,1,72.5,14|0,3:0|0:0,0:0:0:0:
174,123,85529,5,2,3:1:0:0:
174,123,85687,1,10,3:1:0:0:
361,233,86003,1,2,3:2:0:0:
361,233,86161,1,10,3:2:0:0:
400,20,86476,5,2,3:0:0:0:
319,94,86634,1,10,3:0:0:0:
116,20,86950,1,2,3:1:0:0:
197,94,87108,1,10,3:1:0:0:
259,279,87424,5,10,3:1:0:0:
305,222,87582,1,10,3:1:0:0:
215,221,87740,2,0,P|187:268|286:211,1,362.5,2|0,2:2|2:2,0:0:0:0:
