osu file format v14

[General]
AudioFilename: yuruyuried.mp3
AudioLeadIn: 0
PreviewTime: 56318
Countdown: 0
SampleSet: Soft
StackLeniency: 0.7
Mode: 0
LetterboxInBreaks: 0
WidescreenStoryboard: 0

[Editor]
Bookmarks: 8950,17318,33503,38634,42424,43687,48108,53792,56318,61055,78424,85371
DistanceSpacing: 1
BeatDivisor: 2
GridSize: 4
TimelineZoom: 1.299999

[Metadata]
Title:My Pace de Ikimashou
TitleUnicode:マイペースでいきましょう
Artist:Nanamori-chu * Goraku-bu
ArtistUnicode:七森中☆ごらく部
Creator:Lasse
Version:Easy
Source:ゆるゆり
Tags:Yuru Yuri Akaza Akari Toshinou Kyouko Funami Yui Yoshikawa Chinatsu Mikami Shiori Ootsubo Yuka Tsuda Minami Ookubo Rumi
BeatmapID:742368
BeatmapSetID:335145

[Difficulty]
HPDrainRate:2
CircleSize:2.7
OverallDifficulty:2
ApproachRate:3
SliderMultiplier:0.8
SliderTickRate:1

[Events]
//Background and Video events
0,0,"bg.jpg",0,0
//Break Periods
//Storyboard Layer 0 (Background)
//Storyboard Layer 1 (Fail)
//Storyboard Layer 2 (Pass)
//Storyboard Layer 3 (Foreground)
//Storyboard Sound Samples

[TimingPoints]
740,315.789473684211,4,2,1,50,1,0
2634,-100,4,2,1,60,0,0
5161,-100,4,2,1,70,0,0
7687,-100,4,2,1,80,0,0
8950,-100,4,2,1,85,0,0
9582,-100,4,2,1,90,0,0
10213,-100,4,2,1,85,0,0
10845,-100,4,2,1,80,0,0
12266,-100,4,2,1,75,0,0
13371,-100,4,2,1,90,0,0
48740,-100,4,2,1,85,0,0
53792,-100,4,2,1,82,0,0
57582,-100,4,2,1,85,0,0
59161,-100,4,2,1,91,0,0
60108,-100,4,2,1,94,0,0
60582,-100,4,2,1,97,0,0
61371,-100,4,2,1,100,0,1
80950,-100,4,2,1,97,0,0
81582,-100,4,2,1,90,0,0
82845,-100,4,2,1,85,0,0
84108,-100,4,2,1,80,0,0
87740,-100,4,2,2,80,0,0

[Colours]
Combo1 : 87,171,255
Combo2 : 255,128,192
Combo3 : 169,255,83
Combo4 : 245,218,90

[HitObjects]
80,80,2634,6,0,B|97:98|97:98|85:121|85:121|98:141|98:141|58:190|61:245|97:295|149:301,1,280,8|8,3:2|3:2,3:2:0:0:
432,80,5161,2,0,B|414:98|414:98|426:121|426:121|413:141|413:141|453:190|450:245|414:295|362:301,1,280,8|8,3:2|3:2,3:2:0:0:
16,196,7687,6,0,L|12:108,2,80,10|0|0,3:2|0:0|0:0,0:0:0:0:
11,357,8950,1,10,3:2:0:0:
115,235,9582,2,0,P|188:212|264:249,1,160,10|10,3:2|3:2,0:0:0:0:
385,345,10845,6,0,P|405:291|398:259,1,80,10|10,3:2|3:2,0:0:0:0:
388,192,11476,2,0,P|353:131|301:96,1,120,10|10,3:1|3:2,3:2:0:0:
110,46,13371,5,6,0:0:0:0:
176,92,13687,2,0,B|208:124|228:164|216:204|160:248,1,160,10|10,0:0|0:0,0:0:0:0:
109,270,14634,1,2,0:0:0:0:
158,333,14950,2,0,B|230:349|250:281|314:287,1,160,8|10,0:0|0:0,0:0:0:0:
384,306,15897,5,14,3:3:0:0:
469,170,16529,1,10,3:2:0:0:
376,40,17161,2,0,B|292:8|220:44,1,160,2|2,3:2|3:1,3:0:0:0:
300,184,18424,5,6,2:2:0:0:
348,248,18740,2,0,P|413:190|409:113,1,160,10|10,2:2|2:2,0:0:0:0:
374,51,19687,1,2,0:0:0:0:
294,64,20003,2,0,P|228:121|232:198,1,160,10|10,2:2|2:2,0:0:0:0:
303,215,20950,6,0,P|280:248|243:268,1,80,2|10,3:1|0:0,0:0:0:0:
226,345,21582,2,0,P|191:325|169:292,1,80,2|10,3:1|0:0,0:0:0:0:
100,148,22529,2,0,L|39:209,2,80,10|0|6,3:1|3:2|3:1,2:0:0:0:
174,118,23476,6,0,P|246:152|327:99,1,160,6|2,0:0|0:0,0:0:0:0:
361,272,24740,2,0,P|289:238|207:290,1,160,6|2,0:0|0:0,0:0:0:0:
61,285,26003,6,0,P|98:207|54:131,1,160,2|2,0:0|0:0,0:0:0:0:
227,174,27266,2,0,P|219:209|227:270,2,80,10|10|10,3:2|3:2|3:2,3:2:0:0:
261,101,28213,1,2,2:2:0:0:
337,75,28529,6,0,P|428:83|478:164,1,160,6|2,0:0|0:0,0:0:0:0:
464,291,29792,2,0,P|381:329|296:284,1,160,2|2,0:0|0:0,0:0:0:0:
216,186,31055,6,0,P|169:177|105:201,2,80,2|10|2,0:0|0:0|0:0,0:3:0:0:
363,247,32318,2,0,P|409:246|468:210,2,80,10|0|10,3:2|3:2|3:2,0:3:0:0:
308,188,33266,1,10,0:0:0:0:
256,127,33582,5,6,2:2:0:0:
208,191,33897,2,0,P|141:247|65:231,1,160,10|10,2:2|2:2,0:0:0:0:
10,188,34845,1,2,0:0:0:0:
24,109,35161,2,0,P|96:59|170:83,1,160,10|10,2:2|2:2,0:0:0:0:
238,97,36108,6,0,P|218:131|185:153,1,80,2|10,3:1|0:0,0:0:0:0:
107,174,36740,2,0,P|126:208|159:230,1,80,2|10,3:1|0:0,0:0:0:0:
134,306,37371,2,0,B|215:327|215:254|286:268,1,160,0|2,2:2|3:2,2:0:0:0:
440,238,38634,6,0,P|484:187|431:120,1,160,6|2,0:0|0:0,0:0:0:0:
282,80,39897,1,2,0:0:0:0:
127,37,40529,1,2,0:0:0:0:
170,191,41161,2,0,P|141:260|68:249,1,160,2|2,0:0|0:0,0:0:0:0:
15,98,42424,5,10,3:3:0:0:
89,67,42740,1,0,3:0:0:0:
168,69,43055,2,0,P|216:92|231:133,1,80,0|10,3:0|0:0,3:2:0:0:
245,192,43687,6,0,P|285:253|389:240,1,160,6|2,0:0|0:0,0:0:0:0:
503,173,44950,1,2,0:0:0:0:
375,75,45582,1,2,0:0:0:0:
269,195,46213,2,0,P|275:271|341:311,1,160,6|2,0:0|0:0,0:0:0:0:
501,321,47476,5,6,3:2:0:0:
478,243,47793,1,10,3:2:0:0:
431,178,48108,2,0,P|394:149|359:143,1,80,2|10,3:0|3:1,3:2:0:0:
364,223,48740,6,0,P|359:262|334:292,1,80,6|10,2:3|2:3,2:3:0:0:
261,327,49371,1,2,0:0:0:0:
109,279,50003,2,0,P|84:248|80:208,1,80,2|10,2:2|2:2,2:2:0:0:
110,134,50634,1,2,0:0:0:0:
238,228,51266,6,0,B|259:269|308:275,2,80,4|10|2,0:0|0:0|0:0,0:0:0:0:
317,88,52529,2,0,B|296:47|247:41,2,80,4|10|2,0:0|0:0|0:0,0:0:0:0:
367,239,53792,6,0,P|327:251|287:243,1,80,6|10,0:0|0:0,0:0:0:0:
224,198,54424,1,2,0:0:0:0:
119,77,55055,2,0,P|88:102|72:140,1,80,2|2,0:0|0:0,0:0:0:0:
151,151,55686,1,2,0:0:0:0:
280,57,56318,5,10,3:2:0:0:
374,187,56950,1,10,3:2:0:0:
244,281,57582,1,10,3:2:0:0:
150,152,58213,1,10,3:2:0:0:
269,45,58845,6,0,P|297:77|317:113,2,80,10|10|10,3:1|3:1|3:1,3:2:0:0:
190,33,59792,1,10,3:1:0:0:
126,81,60108,2,0,B|80:121|77:189|119:242|195:243,1,200,4|2,3:3|3:1,0:1:0:0:
281,253,61371,6,0,P|356:285|374:373,1,160,6|2,0:1|0:0,0:0:0:0:
494,245,62634,1,2,0:1:0:0:
397,117,63266,1,2,0:0:0:0:
334,264,63897,2,0,B|301:266|266:232|246:190|196:185,1,160,2|2,0:1|0:0,0:0:0:0:
63,103,65161,6,0,P|34:177|73:267,1,160,2|2,0:1|0:0,0:0:0:0:
200,176,66424,1,6,0:1:0:0:
326,78,67056,1,2,0:0:0:0:
434,195,67687,6,0,P|398:231|342:239,2,80,2|10|2,0:1|0:0|0:0,0:0:0:0:
326,78,68950,1,2,0:1:0:0:
190,162,69582,1,2,0:0:0:0:
72,270,70213,2,0,P|108:306|164:314,2,80,2|10|2,0:1|0:0|0:0,0:0:0:0:
63,110,71476,6,0,P|115:62|203:74,1,160,6|2,0:1|0:0,0:0:0:0:
333,157,72739,1,2,0:1:0:0:
476,85,73371,1,2,0:0:0:0:
404,228,74003,6,0,P|331:253|256:220,1,160,2|2,0:1|0:0,0:0:0:0:
183,80,75266,2,0,P|256:55|331:88,1,160,2|2,0:1|0:0,0:0:0:0:
403,228,76529,5,6,0:1:0:0:
253,172,77161,1,2,0:0:0:0:
396,101,77792,2,0,L|460:29,2,80,2|10|2,0:1|0:0|0:0,0:0:0:0:
286,218,79055,5,6,0:1:0:0:
162,115,79687,1,10,0:0:0:0:
140,273,80318,2,0,L|92:337,2,80,10|10|10,3:1|3:0|3:0,0:0:0:0:
33,152,81582,5,6,0:0:0:0:
93,99,81897,2,0,B|141:75|173:123|210:100|255:82,1,160,10|10,0:0|0:0,0:0:0:0:
401,36,83161,2,0,B|425:84|377:116|400:153|418:198,1,160,10|10,0:0|0:0,0:0:0:0:
439,267,84108,6,0,B|433:312|433:312|407:337,1,80,10|10,3:0|3:0,3:2:0:0:
328,331,84740,2,0,B|303:306|303:306|298:261,1,80,10|10,3:0|3:0,3:2:0:0:
256,192,85371,12,2,87740,3:2:0:0:
