osu file format v14

[General]
AudioFilename: yuruyuried.mp3
AudioLeadIn: 0
PreviewTime: 56318
Countdown: 0
SampleSet: Soft
StackLeniency: 0.7
Mode: 0
LetterboxInBreaks: 0
WidescreenStoryboard: 0

[Editor]
Bookmarks: 8950,17318,23476,29792,33503,38634,42424,43687,48108,53792,56318,61055,71476,78424,85371
DistanceSpacing: 1.2
BeatDivisor: 4
GridSize: 4
TimelineZoom: 1.299999

[Metadata]
Title:My Pace de Ikimashou
TitleUnicode:マイペースでいきましょう
Artist:Nanamori-chu * Goraku-bu
ArtistUnicode:七森中☆ごらく部
Creator:Lasse
Version:Advanced
Source:ゆるゆり
Tags:Yuru Yuri Akaza Akari Toshinou Kyouko Funami Yui Yoshikawa Chinatsu Mikami Shiori Ootsubo Yuka Tsuda Minami Ookubo Rumi
BeatmapID:776774
BeatmapSetID:335145

[Difficulty]
HPDrainRate:4
CircleSize:3.4
OverallDifficulty:6
ApproachRate:7
SliderMultiplier:1.3
SliderTickRate:1

[Events]
//Background and Video events
0,0,"bg.jpg",0,0
//Break Periods
//Storyboard Layer 0 (Background)
//Storyboard Layer 1 (Fail)
//Storyboard Layer 2 (Pass)
//Storyboard Layer 3 (Foreground)
//Storyboard Sound Samples

[TimingPoints]
740,315.789473684211,4,2,1,50,1,0
2634,-100,4,2,1,60,0,0
5161,-100,4,2,1,70,0,0
7687,-100,4,2,1,80,0,0
8950,-100,4,2,1,85,0,0
9582,-100,4,2,1,90,0,0
10213,-100,4,2,1,90,0,0
10845,-100,4,2,1,90,0,0
12266,-100,4,2,1,75,0,0
13371,-100,4,2,1,90,0,0
33582,-100,4,2,1,80,0,0
47476,-100,4,2,1,85,0,0
48740,-100,4,2,1,90,0,0
48897,-100,4,2,1,80,0,0
53792,-100,4,2,1,82,0,0
57582,-100,4,2,1,85,0,0
58529,-100,4,2,1,88,0,0
59161,-100,4,2,1,91,0,0
60108,-100,4,2,1,94,0,0
60582,-100,4,2,1,97,0,0
61371,-100,4,2,1,100,0,1
80950,-100,4,2,1,97,0,0
81108,-100,4,2,1,95,0,0
81582,-100,4,2,1,90,0,0
82845,-100,4,2,1,85,0,0
84108,-100,4,2,1,80,0,0
87740,-100,4,2,2,80,0,0

[Colours]
Combo1 : 87,171,255
Combo2 : 255,128,192
Combo3 : 169,255,83
Combo4 : 245,218,90

[HitObjects]
256,260,2634,6,0,P|228:230|209:178,1,65,10|10,3:2|3:2,0:0:0:0:
240,52,3108,1,10,3:2:0:0:
276,120,3266,2,0,P|291:156|291:212,1,65,10|10,3:2|3:2,0:0:0:0:
140,204,3740,1,10,3:3:0:0:
232,328,4055,6,0,L|160:312,2,65
232,248,4529,2,0,L|304:232,1,65
296,156,4845,2,0,L|359:171,1,65,0|0,0:0|0:0,0:0:0:0:
360,92,5161,5,10,3:2:0:0:
360,92,5318,1,10,3:2:0:0:
472,200,5635,1,10,3:2:0:0:
448,276,5793,2,0,P|433:312|393:351,1,65,10|10,3:2|3:2,0:0:0:0:
262,311,6266,1,10,3:3:0:0:
107,332,6582,6,0,P|71:332|35:316,2,65
87,256,7055,2,0,P|61:230|47:193,1,65
127,188,7371,2,0,P|127:152|143:116,1,65
208,171,7687,5,10,3:2:0:0:
208,171,7845,1,10,3:2:0:0:
424,320,8950,6,0,B|444:288|444:288|440:248,1,65,10|10,3:2|3:2,0:0:0:0:
340,48,9582,1,10,3:2:0:0:
340,48,9740,1,10,3:2:0:0:
140,168,10213,2,0,B|136:200|136:200|157:227,1,65,10|10,3:2|3:2,0:0:0:0:
352,356,10845,5,10,3:2:0:0:
252,236,11161,1,10,3:2:0:0:
213,85,11476,1,10,3:1:0:0:
157,29,11634,1,10,3:2:0:0:
102,84,11792,1,10,3:2:0:0:
157,140,11950,1,10,3:3:0:0:
307,98,12266,6,0,L|377:144,1,65
352,212,12582,2,0,L|276:204,1,65
244,272,12897,2,0,L|288:340,1,65
133,269,13371,5,4,0:0:0:0:
49,137,13687,2,0,L|161:65,1,130,2|0,0:0|0:0,0:0:0:0:
196,218,14318,2,0,L|326:189,1,130,10|0,0:0|0:0,0:0:0:0:
351,36,14950,2,0,L|481:64,1,130,2|0,0:0|0:0,0:0:0:0:
359,166,15582,1,10,0:0:0:0:
353,317,15897,6,0,B|408:284|408:284|427:203,1,130,14|10,3:3|3:2,0:0:0:0:
343,85,16529,2,0,B|287:117|287:117|272:181,1,130,10|10,3:2|3:2,0:0:0:0:
244,334,17161,2,0,B|274:353|274:353|319:351,2,65,2|0|10,3:2|3:0|3:0,0:0:0:0:
145,212,17792,2,0,B|177:180|177:180|217:180|217:180|265:140,1,130,2|10,3:1|3:2,0:0:0:0:
370,49,18424,5,4,0:0:0:0:
403,201,18740,2,0,B|403:267|403:267|459:331,1,130,2|0,0:0|0:0,0:0:0:0:
289,317,19371,2,0,B|242:270|242:270|157:264,1,130,10|0,0:0|0:0,0:0:0:0:
209,112,20003,2,0,B|275:112|275:112|339:56,1,130,2|0,0:0|0:0,0:0:0:0:
459,146,20634,1,10,0:0:0:0:
312,196,20950,6,0,P|320:256|276:312,1,130,14|10,3:3|3:2,0:0:0:0:
132,360,21582,1,10,3:2:0:0:
176,212,21897,1,10,3:2:0:0:
336,40,22371,6,0,L|376:103,1,65,2|10,3:1|3:2,0:0:0:0:
436,236,22845,2,0,L|480:280,2,32.5,2|0|0,3:3|3:3|3:3,0:0:0:0:
360,212,23161,2,0,L|320:172,2,32.5,10|0|0,3:3|3:3|3:3,0:0:0:0:
376,288,23476,5,6,0:0:0:0:
220,276,23792,1,10,0:0:0:0:
92,188,24108,1,2,0:0:0:0:
104,112,24266,1,0,0:0:0:0:
158,56,24424,2,0,P|186:40|226:32,1,65,10|0,0:0|0:0,0:0:0:0:
296,36,24740,5,2,0:0:0:0:
424,124,25055,1,10,0:0:0:0:
275,170,25371,2,0,P|288:213|320:238,1,65,2|0,0:0|0:0,0:0:0:0:
379,225,25687,2,0,P|366:268|334:293,1,65,10|0,0:0|0:0,0:0:0:0:
290,335,26003,5,2,0:0:0:0:
221,298,26161,1,0,0:0:0:0:
154,258,26318,2,0,L|83:238,1,65,10|0,0:0|0:0,0:0:0:0:
73,163,26634,2,0,L|129:131,1,65,2|0,0:0|0:0,0:0:0:0:
161,59,26950,6,0,P|197:91|204:132,1,65,10|0,0:0|0:0,0:0:0:0:
229,179,27266,1,6,3:2:0:0:
307,179,27424,1,0,3:2:0:0:
335,106,27582,2,0,P|350:77|376:59,1,65,10|0,3:2|3:2,3:2:0:0:
408,129,27897,1,2,3:3:0:0:
408,285,28213,1,2,2:2:0:0:
257,325,28529,6,0,P|221:330|190:318,1,65,6|0,0:0|0:0,0:0:0:0:
127,280,28845,1,10,0:0:0:0:
83,215,29003,1,0,0:0:0:0:
100,138,29161,2,0,P|120:107|149:91,1,65,2|0,0:0|0:0,0:0:0:0:
173,165,29476,2,0,P|200:147|217:120,1,65,10|0,0:0|0:0,0:0:0:0:
244,46,29792,5,2,0:0:0:0:
298,102,29950,1,0,0:0:0:0:
325,29,30108,2,0,P|352:45|370:72,1,65,8|0,0:0|0:0,0:0:0:0:
443,100,30424,2,0,P|424:126|398:145,1,65,2|0,0:0|0:0,0:0:0:0:
326,178,30740,1,10,0:0:0:0:
249,189,30897,1,0,0:0:0:0:
175,165,31055,5,2,0:0:0:0:
43,248,31371,1,10,0:0:0:0:
187,307,31687,2,0,P|250:295|285:228,1,130,2|2,0:0|0:0,0:0:0:0:
308,168,32161,1,0,3:3:0:0:
340,96,32318,6,0,P|353:66|352:34,1,65,10|0,3:2|3:2,0:0:0:0:
276,52,32634,1,10,3:2:0:0:
224,112,32793,1,0,3:2:0:0:
221,189,32950,2,0,P|185:181|153:137,1,65,10|0,3:2|0:0,0:0:0:0:
125,94,33266,1,10,0:0:0:0:
152,248,33582,5,10,0:0:0:0:
245,371,33897,1,10,2:2:0:0:
304,228,34213,1,2,2:2:0:0:
304,228,34371,1,0,2:2:0:0:
304,228,34529,1,10,2:2:0:0:
172,140,34845,5,2,2:2:0:0:
32,72,35160,1,10,2:2:0:0:
45,227,35476,2,0,L|4:280,2,65,2|0|10,2:2|0:0|2:2,0:0:0:0:
180,304,36108,6,0,P|240:328|332:320,1,130,14|10,3:2|3:2,0:0:0:0:
288,172,36740,2,0,P|228:148|136:156,1,130,10|10,3:2|3:2,0:0:0:0:
32,232,37371,5,2,3:2:0:0:
32,232,37529,1,8,3:2:0:0:
248,324,38003,1,2,3:2:0:0:
248,324,38161,1,8,3:2:0:0:
480,300,38634,5,6,0:0:0:0:
420,156,38950,1,10,0:0:0:0:
308,48,39266,1,2,0:0:0:0:
228,44,39424,1,0,0:0:0:0:
152,64,39582,2,0,P|122:77|92:104,1,65,0|0,0:0|0:0,0:0:0:0:
52,164,39898,5,2,0:0:0:0:
76,320,40214,1,10,0:0:0:0:
228,356,40529,2,0,P|259:362|292:360,1,65,2|0,0:0|0:0,0:0:0:0:
368,340,40845,2,0,P|394:321|416:297,1,65,10|0,0:0|0:0,0:0:0:0:
344,264,41161,5,2,0:0:0:0:
400,208,41319,1,0,0:0:0:0:
463,163,41476,2,0,P|435:139|387:131,1,65,10|0,0:0|0:0,0:0:0:0:
400,52,41792,2,0,P|369:62|345:84,1,65,2|0,0:0|0:0,0:0:0:0:
267,90,42108,6,0,P|283:134|319:154,1,65,10|0,0:0|0:0,0:0:0:0:
361,188,42424,1,2,3:2:0:0:
409,249,42582,1,0,3:2:0:0:
465,303,42740,2,0,P|423:328|382:325,1,65,10|0,3:2|3:2,0:0:0:0:
330,334,43055,1,10,3:0:0:0:
187,269,43371,1,10,0:0:0:0:
100,140,43687,6,0,P|141:76|216:72,1,130,6|10,0:0|0:0,0:0:0:0:
180,144,44161,1,0,0:0:0:0:
180,221,44318,2,0,P|219:269|284:273,1,130,6|10,0:0|0:0,0:0:0:0:
257,199,44792,1,2,0:0:0:0:
259,121,44950,6,0,L|297:57,1,65,2|0,0:0|0:0,0:0:0:0:
352,116,45266,2,0,L|425:99,1,65,10|0,0:0|0:0,0:0:0:0:
408,180,45582,2,0,L|472:220,1,65,2|0,0:0|0:0,0:0:0:0:
416,276,45898,2,0,L|432:349,1,65,10|0,0:0|0:0,0:0:0:0:
352,328,46213,5,2,0:0:0:0:
317,257,46371,1,0,0:0:0:0:
254,303,46529,2,0,P|221:320|166:304,1,65,10|0,0:0|0:0,0:0:0:0:
208,241,46845,2,0,P|190:208|206:153,1,65,10|0,0:0|0:0,0:0:0:0:
269,192,47161,1,10,0:0:0:0:
334,150,47318,1,0,0:0:0:0:
383,211,47476,6,0,B|411:203|411:203|435:171,1,65,6|0,3:2|3:0,0:0:0:0:
436,95,47792,2,0,B|428:67|428:67|396:43,1,65,10|0,3:2|3:2,0:0:0:0:
320,42,48108,2,0,L|292:22,2,32.5,2|0|0,3:0|3:0|3:0,0:0:0:0:
260,94,48424,2,0,L|232:74,2,32.5,10|0|0,3:1|3:1|3:1,0:0:0:0:
332,126,48740,6,0,P|312:151|285:169,1,65,6|0,2:3|0:0,0:0:0:0:
208,186,49055,1,10,0:0:0:0:
53,164,49371,1,2,0:0:0:0:
184,80,49687,1,10,0:0:0:0:
108,56,49845,1,0,0:0:0:0:
124,132,50003,5,2,0:0:0:0:
72,280,50318,1,10,0:0:0:0:
228,256,50634,1,2,0:0:0:0:
80,200,50950,1,10,0:0:0:0:
158,201,51108,1,0,0:0:0:0:
223,159,51266,6,0,P|256:101|327:91,1,130,4|10,0:0|0:0,0:0:0:0:
357,236,51897,2,0,P|324:294|253:304,1,130,2|10,0:0|0:0,0:0:0:0:
112,276,52529,2,0,P|76:248|64:208,1,65,4|0,0:0|0:0,0:0:0:0:
140,196,52845,2,0,P|134:150|154:113,1,65,10|0,0:0|0:0,0:0:0:0:
212,164,53161,2,0,P|240:128|280:116,1,65,2|0,0:0|0:0,0:0:0:0:
292,192,53477,2,0,P|337:186|374:206,1,65,10|0,0:0|0:0,0:0:0:0:
320,264,53792,6,0,P|356:292|368:332,2,65,6|0|10,0:0|0:0|0:0,0:0:0:0:
184,340,54424,1,2,0:0:0:0:
44,276,54740,2,0,P|8:248|-4:208,1,65,10|2,0:0|0:0,0:0:0:0:
72,202,55055,5,2,0:0:0:0:
121,55,55371,1,2,0:0:0:0:
269,103,55687,1,2,0:0:0:0:
221,250,56003,1,10,0:0:0:0:
119,132,56318,5,10,3:2:0:0:
420,212,56950,1,10,3:2:0:0:
129,326,57582,1,10,3:2:0:0:
315,75,58213,1,10,3:2:0:0:
373,219,58529,2,0,P|361:255|339:278,1,65,2|0,3:2|3:2,0:0:0:0:
293,214,58845,5,10,3:1:0:0:
145,160,59161,1,10,3:1:0:0:
198,13,59476,1,10,3:1:0:0:
345,67,59792,1,10,3:1:0:0:
190,88,60108,2,0,P|152:74|125:43,1,65,4|0,3:3|3:3,0:0:0:0:
72,104,60424,2,0,P|89:140|85:180,1,65,8|0,3:3|3:3,0:0:0:0:
139,225,60740,6,0,L|191:257,6,32.5,4|0|8|0|2|0|0,3:3|3:1|3:1|3:1|3:3|3:2|3:2,0:0:0:0:
92,163,61371,6,0,P|133:146|177:160,1,65,6|0,0:1|0:0,0:0:0:0:
230,161,61687,1,10,0:0:0:0:
302,189,61845,1,0,0:0:0:0:
358,137,62003,2,0,P|380:175|373:221,1,65,2|0,0:0|0:0,0:0:0:0:
350,265,62318,1,10,0:0:0:0:
282,305,62476,1,0,0:0:0:0:
206,321,62634,6,0,B|166:325|166:325|126:297,1,65,2|0,0:1|0:0,0:0:0:0:
178,237,62950,2,0,B|157:222|157:222|117:226,1,65,10|0,0:0|0:0,0:0:0:0:
66,285,63266,2,0,B|34:259|34:259|26:211,1,65,2|0,0:0|0:0,0:0:0:0:
42,157,63582,2,0,B|67:125|67:125|115:117,1,65,10|0,0:0|0:0,0:0:0:0:
168,115,63897,5,2,0:1:0:0:
322,95,64213,1,10,0:0:0:0:
383,241,64529,1,2,0:0:0:0:
260,339,64845,1,10,0:0:0:0:
123,264,65161,6,0,P|137:234|162:215,1,65,2|0,0:1|0:0,0:0:0:0:
128,145,65476,2,0,P|158:134|190:138,1,65,10|0,0:0|0:0,0:0:0:0:
346,155,65950,6,0,P|384:149|412:126,2,65
268,149,66424,1,6,0:1:0:0:
228,216,66582,1,0,0:0:0:0:
175,274,66740,2,0,P|208:291|244:289,1,65,10|0,0:0|0:0,0:0:0:0:
247,368,67055,2,0,P|283:356|306:330,1,65,2|0,0:0|0:0,0:0:0:0:
340,269,67371,5,10,0:0:0:0:
338,190,67529,1,0,0:0:0:0:
300,121,67687,2,0,P|272:93|244:85,1,65,2|0,0:1|0:0,0:0:0:0:
232,162,68003,2,0,P|192:161|166:176,1,65,10|0,0:0|0:0,0:0:0:0:
213,237,68318,1,2,0:0:0:0:
153,287,68476,1,0,0:0:0:0:
139,363,68634,2,0,P|178:363|204:348,1,65,10|0,0:0|0:0,0:0:0:0:
258,298,68950,5,2,0:1:0:0:
375,194,69266,1,10,0:0:0:0:
272,76,69582,2,0,P|209:46|150:70,1,130,2|10,0:1|0:0,0:0:0:0:
207,122,70055,1,10,0:0:0:0:
257,181,70213,2,0,L|301:261,1,65,2|0,3:1|3:2,0:0:0:0:
216,272,70529,2,0,L|184:328,1,65,10|0,3:2|3:2,0:0:0:0:
260,352,70845,2,0,L|300:392,6,32.5,4|0|0|0|0|0|0,3:0|0:0|0:0|0:0|0:0|0:0|0:0,0:0:0:0:
316,296,71476,5,6,0:1:0:0:
364,236,71634,1,0,0:0:0:0:
410,298,71792,2,0,P|434:269|441:218,1,65,10|0,0:0|0:0,0:0:0:0:
452,168,72108,1,2,0:0:0:0:
414,99,72266,1,0,0:0:0:0:
414,20,72424,2,0,P|377:28|341:65,1,65,10|0,0:0|0:0,0:0:0:0:
302,102,72740,6,0,L|242:170,1,65,2|0,0:1|0:0,0:0:0:0:
196,104,73055,2,0,L|105:109,1,65,10|0,0:0|0:0,0:0:0:0:
156,184,73371,2,0,L|204:227,1,65,2|0,0:0|0:0,0:0:0:0:
148,280,73687,2,0,L|104:328,1,65,10|0,0:0|0:0,0:0:0:0:
176,364,74003,5,2,0:1:0:0:
284,252,74318,1,10,0:0:0:0:
380,376,74634,1,2,0:0:0:0:
236,316,74950,1,10,0:0:0:0:
380,260,75266,5,2,0:1:0:0:
452,231,75424,1,0,0:0:0:0:
424,156,75582,1,10,0:0:0:0:
352,184,75740,1,0,0:0:0:0:
200,220,76055,6,0,P|164:211|139:184,2,65,0|10|0,0:0|0:0|0:0,0:0:0:0:
206,141,76529,2,0,P|214:105|241:80,1,65,6|6,0:1|0:0,0:0:0:0:
281,146,76845,1,10,0:0:0:0:
352,184,77003,1,0,0:0:0:0:
429,189,77161,2,0,P|420:224|393:249,1,65,2|0,0:0|0:0,0:0:0:0:
336,288,77476,5,10,0:0:0:0:
260,300,77634,1,0,0:0:0:0:
184,288,77792,2,0,B|147:280|147:280|116:240,1,65,6|0,0:1|0:0,0:0:0:0:
187,203,78108,2,0,B|166:171|166:171|171:120,1,65,10|0,0:0|0:0,0:0:0:0:
247,147,78424,2,0,B|254:110|254:110|294:79,1,65,2|0,0:0|0:0,0:0:0:0:
331,150,78740,1,10,0:0:0:0:
395,111,78897,1,0,0:0:0:0:
432,44,79055,6,0,P|464:76|472:116,1,65,6|0,0:1|0:0,0:0:0:0:
448,168,79371,2,0,P|448:213|470:247,1,65,10|0,0:0|0:0,0:0:0:0:
480,304,79687,2,0,P|480:349|457:383,1,65,10|0,0:0|0:0,0:0:0:0:
404,324,80003,2,0,P|372:356|332:364,1,65,2|0,2:0|2:0,0:0:0:0:
280,344,80318,5,10,3:1:0:0:
216,296,80476,1,0,3:0:0:0:
184,224,80634,1,10,3:0:0:0:
184,144,80792,1,0,3:0:0:0:
240,88,80950,2,0,L|240:48,2,32.5,10|0|0,3:0|3:0|3:0,0:0:0:0:
320,80,81266,2,0,L|356:36,2,32.5,10|2|0,3:0|3:0|3:0,0:0:0:0:
384,124,81582,6,0,L|468:136,2,65,6|0|10,0:0|0:0|0:0,0:0:0:0:
236,172,82214,1,2,0:0:0:0:
208,244,82371,1,0,0:0:0:0:
244,312,82529,1,10,0:0:0:0:
400,324,82845,6,0,L|460:384,2,65,2|0|10,0:0|0:0|0:0,0:0:0:0:
308,196,83476,1,2,0:0:0:0:
320,120,83634,1,0,0:0:0:0:
384,76,83792,1,10,0:0:0:0:
436,224,84108,5,10,3:0:0:0:
476,72,84424,1,10,3:0:0:0:
356,172,84740,1,10,3:0:0:0:
512,152,85055,1,14,3:0:0:0:
256,192,85371,12,2,87740,3:2:0:0:
