osu file format v14

[General]
AudioFilename: audio.mp3
AudioLeadIn: 0
PreviewTime: 74548
Countdown: 0
SampleSet: Soft
StackLeniency: 0.7
Mode: 0
LetterboxInBreaks: 0
WidescreenStoryboard: 1

[Editor]
DistanceSpacing: 1.2
BeatDivisor: 3
GridSize: 16
TimelineZoom: 2.5

[Metadata]
Title:Kimi ga Kureta Shiny Story
TitleUnicode:きみがくれたシャイ二ーストーリー
Artist:Nanamori-chu * Goraku-bu
ArtistUnicode:七森中☆ごらく部
Creator:Miyako
Version:Shining*
Source:ゆるゆりさん☆ハイ!
Tags:ゆるゆり さんはい アニメ マンガ ごらく部七森中 nanamori chu goraku bu yuruyuri yuru yuri anime miyako storyboard
BeatmapID:1101984
BeatmapSetID:518649

[Difficulty]
HPDrainRate:5
CircleSize:4
OverallDifficulty:5
ApproachRate:6
SliderMultiplier:1.6
SliderTickRate:1

[Events]
//Background and Video events
0,0,"BG.png",0,0
//Break Periods
2,14343,29457
//Storyboard Layer 0 (Background)
//Storyboard Layer 1 (Fail)
//Storyboard Layer 2 (Pass)
//Storyboard Layer 3 (Foreground)
//Storyboard Sound Samples

[TimingPoints]
962.02859563741,454.545454545455,4,2,1,60,1,0
8279,-100,4,2,1,60,0,0
14143,-100,4,2,1,60,0,0
15530,-100,4,2,1,60,0,0
22782,-100,4,2,1,60,0,0
30260,-100,4,2,1,60,0,0
30940,-100,4,2,1,60,0,0
36875,454.232606721163,4,2,1,60,1,0
37556,-100,4,2,1,60,0,0
37656,-100,4,2,1,60,0,0
40224,-133.333333333333,4,2,1,60,0,0
41360,-100,4,2,1,60,0,0
44824,-100,4,2,1,60,0,0
52292,-100,4,2,1,60,0,0
58678,-100,4,2,1,60,0,0
65718,-100,4,2,1,60,0,0
69466,-100,4,2,1,60,0,0
73667,-100,4,2,1,60,0,0
74122,-100,4,2,1,60,0,0
74579,454.435748353395,4,2,1,60,1,0
74692,-100,4,2,1,60,0,1
75487,-100,4,2,1,60,0,1
82758,-100,4,2,1,60,0,1
90029,-100,4,2,1,60,0,1
97300,-100,4,2,1,60,0,1
100481,-100,4,2,1,60,0,1
103208,-100,4,2,1,60,0,0
104117,-100,4,2,1,60,0,0
107639,-100,4,2,1,5,0,0
109570,-100,4,2,1,60,0,0

[HitObjects]
208,288,962,5,0,0:0:0:0:
296,244,1189,1,0,0:0:0:0:
216,200,1416,2,0,P|204:168|184:108,2,80
104,48,2325,5,0,0:0:0:0:
40,120,2552,1,0,0:0:0:0:
128,144,3007,1,0,0:0:0:0:
60,216,3234,2,0,P|52:276|68:296,2,80
240,352,4143,6,0,L|324:328,1,80
256,268,4599,1,0,0:0:0:0:
344,240,4826,1,0,0:0:0:0:
284,184,5053,1,0,0:0:0:0:
364,148,5279,1,0,0:0:0:0:
300,104,5507,2,0,P|232:80|200:76,1,80
160,36,5962,1,0,0:0:0:0:
148,120,6189,2,0,P|80:144|28:216,1,160
124,216,6870,1,0,0:0:0:0:
192,340,7552,5,0,0:0:0:0:
288,356,7779,2,0,P|304:308|292:276,1,80
216,252,8234,1,0,0:0:0:0:
300,196,8462,2,0,P|284:148|304:108,2,80
380,152,9143,1,0,0:0:0:0:
168,104,9599,5,0,0:0:0:0:
96,48,9826,1,0,0:0:0:0:
80,144,10280,2,0,L|-4:96,2,80
144,240,10962,1,0,0:0:0:0:
384,80,11416,6,0,L|328:144,1,80
416,192,11871,1,0,0:0:0:0:
336,240,12098,1,0,0:0:0:0:
368,320,12325,2,0,L|452:268,2,80
272,320,13008,1,0,0:0:0:0:
304,240,13235,1,0,0:0:0:0:
224,224,13461,2,0,L|88:324,1,160
32,224,14143,1,0,0:0:0:0:
260,44,30507,5,0,0:0:0:0:
328,116,30733,1,0,0:0:0:0:
208,132,30962,1,0,0:0:0:0:
272,192,31189,2,0,L|208:264,1,80
240,336,31643,1,0,0:0:0:0:
320,288,31871,1,0,0:0:0:0:
460,272,32212,2,0,B|424:256|392:236|360:196|360:196,1,120
200,52,33462,5,0,0:0:0:0:
312,68,33688,1,0,0:0:0:0:
248,164,34143,1,0,0:0:0:0:
340,184,34598,6,0,L|356:276,2,80
400,96,35280,1,0,0:0:0:0:
80,128,37783,6,0,L|16:192,2,80
144,208,38464,1,0,0:0:0:0:
48,272,38691,1,0,0:0:0:0:
128,352,38919,2,0,L|208:288,1,80
260,224,39486,1,0,0:0:0:0:
304,320,39827,1,0,0:0:0:0:
352,244,40281,2,0,P|396:196|396:196,2,60.0000022888184
320,144,40963,1,0,0:0:0:0:
224,64,41417,6,0,L|152:136,1,80
80,80,41871,1,0,0:0:0:0:
64,176,42098,2,0,L|16:240,2,80
512,272,45051,5,8,0:0:0:0:
420,272,45278,2,0,L|460:192,1,80
356,196,45732,1,0,0:0:0:0:
320,112,45959,1,8,0:0:0:0:
256,192,46186,1,0,0:0:0:0:
336,288,46413,2,0,L|172:300,1,160,0|8,0:0|0:0,0:0:0:0:
96,320,47095,1,0,0:0:0:0:
96,224,47322,2,0,L|36:164,2,80,0|0|8,0:0|0:0|0:0,0:0:0:0:
136,132,48003,1,0,0:0:0:0:
68,72,48230,5,0,0:0:0:0:
152,36,48457,2,0,L|240:72,1,80,0|8,0:0|0:0,0:0:0:0:
304,48,48912,1,0,0:0:0:0:
280,148,49139,1,0,0:0:0:0:
380,104,49366,2,0,L|360:184,2,80,0|8|0,0:0|0:0|0:0,0:0:0:0:
456,184,50047,1,0,0:0:0:0:
372,252,50274,6,0,L|372:336,2,80,0|8|0,0:0|0:0|0:0,0:0:0:0:
256,272,50956,1,0,0:0:0:0:
144,256,51183,2,0,L|144:352,2,80,0|8|0,0:0|0:0|0:0,0:0:0:0:
256,272,51864,1,4,0:0:0:0:
72,64,52318,5,8,0:0:0:0:
48,172,52546,2,0,L|124:144,2,80
120,248,53227,1,8,0:0:0:0:
44,288,53454,1,0,0:0:0:0:
140,336,53681,2,0,P|224:364|296:336,1,160,0|8,0:0|0:0,0:0:0:0:
216,276,54362,1,0,0:0:0:0:
312,240,54590,1,0,0:0:0:0:
392,288,54817,2,0,L|452:236,1,80,0|8,0:0|0:0,0:0:0:0:
464,348,55271,1,0,0:0:0:0:
332,356,55498,1,0,0:0:0:0:
240,44,55952,6,0,L|160:72,1,80,8|0,0:0|0:0,0:0:0:0:
208,144,56406,1,0,0:0:0:0:
116,160,56634,1,0,0:0:0:0:
176,228,56861,1,8,0:0:0:0:
64,272,57088,2,0,L|-4:324,1,80
96,96,58678,5,0,0:0:0:0:
160,160,59132,2,0,B|112:192|48:176|48:176|64:240|16:304,1,240
128,336,60040,1,0,0:0:0:0:
224,304,60495,1,8,0:0:0:0:
320,320,60949,6,0,B|368:288|432:304|432:304|416:240|464:176,1,240
384,144,61857,1,0,0:0:0:0:
320,208,62312,1,8,0:0:0:0:
288,96,62766,5,0,0:0:0:0:
208,48,63447,1,0,0:0:0:0:
224,144,63674,2,0,B|196:160|116:172|68:176|52:172,1,160,0|8,0:0|0:0,0:0:0:0:
32,256,64356,1,0,0:0:0:0:
128,288,64583,1,0,0:0:0:0:
320,36,65718,5,0,0:0:0:0:
232,100,65945,1,0,0:0:0:0:
328,140,66173,1,0,0:0:0:0:
432,132,66400,2,0,L|472:220,1,80
392,296,66854,1,8,0:0:0:0:
296,240,67081,1,0,0:0:0:0:
236,336,67308,2,0,L|156:360,1,80
56,304,67762,1,8,0:0:0:0:
152,256,67989,5,0,0:0:0:0:
56,208,68217,2,0,L|12:140,2,80,0|0|8,0:0|0:0|0:0,0:0:0:0:
120,128,68898,1,0,0:0:0:0:
280,164,69352,5,0,0:0:0:0:
192,204,69579,1,0,0:0:0:0:
264,276,69806,2,0,P|352:300|416:280,1,160
336,216,70488,5,8,0:0:0:0:
400,160,70715,2,0,L|464:112,1,80
352,64,71169,1,0,0:0:0:0:
272,128,71396,2,0,P|240:64|208:48,1,80,8|0,0:0|0:0,0:0:0:0:
128,48,71850,1,0,0:0:0:0:
32,112,72305,5,0,0:0:0:0:
112,176,72532,2,0,P|128:224|112:272,1,80
16,224,72986,1,0,0:0:0:0:
64,304,73213,1,0,0:0:0:0:
164,144,73667,5,2,0:0:0:0:
272,64,73894,1,2,0:0:0:0:
296,200,74122,1,2,0:0:0:0:
120,152,75487,5,0,0:0:0:0:
28,216,75715,1,0,0:0:0:0:
56,316,75942,2,0,L|124:260,2,80,8|0|0,0:0|0:0|0:0,0:0:0:0:
168,352,76623,1,0,0:0:0:0:
208,256,76851,1,8,0:0:0:0:
288,320,77078,2,0,B|368:272|384:252|376:200,1,160
276,212,77760,1,8,0:0:0:0:
260,112,77987,1,0,0:0:0:0:
176,164,78214,1,0,0:0:0:0:
88,56,78668,6,0,L|36:128,1,80,8|0,0:0|0:0,0:0:0:0:
128,144,79123,2,0,L|64:240,1,80
176,240,79577,1,8,0:0:0:0:
32,352,79805,2,0,L|112:352,2,80
64,272,80486,1,8,0:0:0:0:
128,208,80713,1,0,0:0:0:0:
176,304,80941,1,0,0:0:0:0:
224,384,81168,2,0,L|304:356,1,80,0|8,0:0|0:0,0:0:0:0:
176,68,82077,6,0,L|196:152,1,80
272,80,82531,1,0,0:0:0:0:
320,172,82758,1,0,0:0:0:0:
376,88,82986,2,0,L|448:32,2,80,0|8|0,0:0|0:0|0:0,0:0:0:0:
448,164,83667,1,0,0:0:0:0:
136,192,84122,5,8,0:0:0:0:
88,284,84350,2,0,B|40:224|32:180|48:136,1,160
136,192,85031,1,8,0:0:0:0:
192,112,85258,1,0,0:0:0:0:
256,184,85485,1,0,0:0:0:0:
424,212,85939,6,0,L|472:276,1,80,8|0,0:0|0:0,0:0:0:0:
384,304,86394,1,0,0:0:0:0:
320,384,86621,1,0,0:0:0:0:
288,288,86848,1,8,0:0:0:0:
224,368,87075,1,0,0:0:0:0:
192,288,87303,2,0,L|132:228,1,80
224,208,87757,1,8,0:0:0:0:
192,112,87984,1,0,0:0:0:0:
96,144,88212,2,0,L|8:100,2,80,0|0|8,0:0|0:0|0:0,0:0:0:0:
308,144,89348,5,0,0:0:0:0:
404,124,89576,2,0,L|440:204,1,80
352,220,90030,1,0,0:0:0:0:
432,292,90257,1,0,0:0:0:0:
344,344,90485,1,8,0:0:0:0:
272,288,90712,2,0,L|188:252,1,80
348,100,91393,5,8,0:0:0:0:
448,56,91620,1,0,0:0:0:0:
484,192,91848,2,0,L|412:140,2,80,0|0|8,0:0|0:0|0:0,0:0:0:0:
372,248,92529,1,0,0:0:0:0:
328,152,92756,1,0,0:0:0:0:
92,84,93210,6,0,L|40:160,1,80,8|0,0:0|0:0,0:0:0:0:
144,184,93665,1,0,0:0:0:0:
52,248,93892,1,0,0:0:0:0:
148,288,94119,2,0,L|236:276,2,80,8|0|0,0:0|0:0|0:0,0:0:0:0:
204,368,94801,1,0,0:0:0:0:
340,368,95028,1,8,0:0:0:0:
312,272,95255,1,0,0:0:0:0:
436,332,95483,2,0,L|404:256,1,80
368,176,95937,1,8,0:0:0:0:
48,192,96619,5,0,0:0:0:0:
124,244,96846,2,0,L|204:276,1,80
184,364,97300,1,0,0:0:0:0:
276,324,97528,1,0,0:0:0:0:
364,368,97755,2,0,L|416:304,1,80,8|0,0:0|0:0,0:0:0:0:
352,248,98209,1,0,0:0:0:0:
184,48,98664,6,0,L|108:88,1,80,8|0,0:0|0:0,0:0:0:0:
16,176,99345,1,0,0:0:0:0:
96,224,99572,1,8,0:0:0:0:
16,272,99799,1,0,0:0:0:0:
96,320,100027,1,0,0:0:0:0:
224,208,100481,5,8,0:0:0:0:
272,120,100709,2,0,L|320:184,1,80
316,272,101163,1,0,0:0:0:0:
400,344,101390,1,8,0:0:0:0:
412,256,101617,2,0,L|460:172,2,80
336,160,102299,5,8,0:0:0:0:
272,64,102526,1,0,0:0:0:0:
176,128,102981,1,0,0:0:0:0:
240,224,103208,1,8,0:0:0:0:
48,268,104117,2,0,L|144:308,1,80
256,192,104571,12,4,106389,0:0:0:0:
