osu file format v14

[General]
AudioFilename: audio.mp3
AudioLeadIn: 0
PreviewTime: 99443
Countdown: 1
SampleSet: Normal
StackLeniency: 0.7
Mode: 1
LetterboxInBreaks: 0
WidescreenStoryboard: 0

[Editor]
Bookmarks: 160125
DistanceSpacing: 0.1
BeatDivisor: 4
GridSize: 32
TimelineZoom: 1.400002

[Metadata]
Title:Kimi ga Kureta Shiny Story
TitleUnicode:きみがくれたシャイニーストーリー
Artist:Nanamori-chu * Goraku-bu
ArtistUnicode:七森中☆ごらく部
Creator:[Belajar-Osu]
Version:A Shining Story
Source:ゆるゆり さん☆ハイ!
Tags:yuru yuri san hai ootsubo yuka tsuda minami okubo rumi mikami shiori ed ending
BeatmapID:1973812
BeatmapSetID:945194

[Difficulty]
HPDrainRate:5
CircleSize:5
OverallDifficulty:6
ApproachRate:5
SliderMultiplier:1.4
SliderTickRate:1

[Events]
//Background and Video events
0,0,"background.jpg",0,0
//Break Periods
//Storyboard Layer 0 (Background)
//Storyboard Layer 1 (Fail)
//Storyboard Layer 2 (Pass)
//Storyboard Layer 3 (Foreground)
//Storyboard Sound Samples

[TimingPoints]
-1191,666.666666666667,4,1,0,30,1,0
24671,454.545454545455,4,1,0,30,1,8
24671,-100,4,1,0,30,0,0
25580,454.545454545455,4,1,0,40,1,0
25580,-100,4,1,0,80,0,0
26489,-100,4,1,0,70,0,0
27398,-100,4,1,0,60,0,0
28307,-100,4,1,0,50,0,0
29216,-100,4,1,0,60,0,0
30125,-100,4,1,0,50,0,0
31034,-100,4,1,0,40,0,0
31943,-100,4,1,0,30,0,0
32852,-100,4,1,0,50,0,0
39670,-95.2380952380952,4,1,0,60,0,1
54443,-97.5609756097561,4,1,0,60,0,1
54670,-100,4,1,0,40,0,0
71034,-100,4,1,0,80,0,0
71489,-100,4,1,0,40,0,0
72852,-100,4,1,0,80,0,0
73307,-100,4,1,0,40,0,0
74670,-100,4,1,0,80,0,0
75125,-100,4,1,0,40,0,0
75807,-100,4,1,0,80,0,0
77398,-100,4,1,0,40,0,0
78307,-100,4,1,0,80,0,0
78761,-100,4,1,0,40,0,0
80125,-100,4,1,0,80,0,0
80580,-100,4,1,0,40,0,0
81943,-100,4,1,0,80,0,0
82170,-100,4,1,0,40,0,0
82625,-100,4,1,0,80,0,0
83761,-100,4,1,0,50,0,0
86943,-100,4,1,0,80,0,0
87398,-100,4,1,0,50,0,0
90580,-99.009900990099,4,1,0,50,0,0
90693,-98.0392156862745,4,1,0,50,0,0
90807,-97.0873786407767,4,1,0,50,0,0
90920,-96.1538461538461,4,1,0,50,0,0
91034,-95.2380952380952,4,1,0,50,0,0
100125,-90.9090909090909,4,1,0,60,0,1
131034,-100,4,1,0,60,0,0
144670,-102.040816326531,4,1,0,60,0,0
144898,-104.166666666667,4,1,0,60,0,0
145125,-106.382978723404,4,1,0,60,0,0
145352,-108.695652173913,4,1,0,60,0,0
145580,-111.111111111111,4,1,0,40,0,0
160580,-100,4,1,0,40,0,0
161944,-100,4,1,0,80,0,0
162399,-100,4,1,0,40,0,0
163762,-100,4,1,0,80,0,0
164217,-100,4,1,0,40,0,0
165580,-100,4,1,0,80,0,0
165807,-100,4,1,0,40,0,0
166717,-100,4,1,0,80,0,0
166943,-100,4,1,0,40,0,0
167399,-100,4,1,0,80,0,0
167853,-100,4,1,0,40,0,0
169217,-100,4,1,0,80,0,0
169671,-100,4,1,0,40,0,0
171035,-100,4,1,0,80,0,0
171490,-100,4,1,0,40,0,0
172852,-100,4,1,0,80,0,0
173080,-100,4,1,0,40,0,0
173989,-100,4,1,0,80,0,0
174670,-95.2380952380952,4,1,0,50,0,0
177853,-95.2380952380952,4,1,0,80,0,0
178308,-95.2380952380952,4,1,0,50,0,0
181490,-94.3396226415094,4,1,0,50,0,0
181603,-93.4579439252336,4,1,0,50,0,0
181717,-92.5925925925926,4,1,0,50,0,0
181830,-91.743119266055,4,1,0,50,0,0
181943,-90.9090909090909,4,1,0,50,0,0
191034,-86.9565217391304,4,1,0,60,0,1
221943,-100,4,1,0,40,0,0
225580,-100,4,1,0,70,0,0
226034,-100,4,1,0,40,0,0
226489,-100,4,1,0,80,0,0
226943,-100,4,1,0,40,0,0
227398,-100,4,1,0,80,0,0
227852,-100,4,1,0,40,0,0
231034,-100,4,1,0,80,0,0
231489,-100,4,1,0,40,0,0
232852,-100,4,1,0,80,0,0
233080,-100,4,1,0,40,0,0
233761,-100,4,1,0,80,0,0
233989,-100,4,1,0,40,0,0
234670,-100,4,1,0,80,0,0
235125,-100,4,1,0,40,0,0
252852,-100,4,1,0,80,0,0
253761,-100,4,1,0,70,0,0
254670,-100,4,1,0,60,0,0
255580,-100,4,1,0,50,0,0
256489,-100,4,1,0,60,0,0
257398,-100,4,1,0,50,0,0
258307,-100,4,1,0,40,0,0
259216,-100,4,1,0,30,0,0
260125,-100,4,1,0,50,0,0
269216,-86.9565217391304,4,1,0,60,0,1
285580,-100,4,1,0,40,0,0
299670,512.820512820513,4,1,0,50,1,8
299670,-88.495575221239,4,1,0,50,0,8
299926,555.555555555556,4,1,0,40,1,8
299926,-81.9672131147541,4,1,0,40,0,8
300203,566.037735849057,4,1,0,40,1,0
300203,-80,4,1,0,40,0,8
300486,594.059405940594,4,1,0,40,1,8
300486,-76.3358778625954,4,1,0,40,0,8
300783,714.285714285714,4,1,0,40,1,8
300783,-63.6942675159236,4,1,0,40,0,8
301140,750,4,1,0,40,1,8
301140,-60.6060606060606,4,1,0,40,0,8
301515,833.333333333333,4,1,0,40,1,8
301515,-54.6448087431694,4,1,0,70,0,8
301931,882.352941176471,4,1,0,40,1,8
301931,-51.5463917525773,4,1,0,40,0,8
302372,1428.57142857143,4,1,0,40,1,0
302372,-31.8471337579618,4,1,0,40,0,0
303800,1200,4,1,0,40,1,8
303800,-37.8787878787879,4,1,0,40,0,8

[HitObjects]
257,198,475,5,0,0:0:0:0:
257,198,809,1,8,0:0:0:0:
257,198,1142,1,0,0:0:0:0:
257,198,1475,1,8,0:0:0:0:
257,198,1809,1,8,0:0:0:0:
257,198,2142,1,8,0:0:0:0:
257,198,2475,1,8,0:0:0:0:
257,198,2809,1,0,0:0:0:0:
257,198,3475,1,8,0:0:0:0:
257,198,4142,1,8,0:0:0:0:
257,198,4809,1,0,0:0:0:0:
257,198,5475,1,8,0:0:0:0:
257,198,6809,1,0,0:0:0:0:
257,198,7142,1,0,0:0:0:0:
257,198,7475,1,8,0:0:0:0:
257,198,7809,1,0,0:0:0:0:
257,198,8142,1,8,0:0:0:0:
257,198,8809,1,0,0:0:0:0:
257,198,9475,1,8,0:0:0:0:
257,198,10142,1,8,0:0:0:0:
257,198,10809,1,0,0:0:0:0:
257,198,11475,1,0,0:0:0:0:
257,198,12142,1,0,0:0:0:0:
257,198,12475,1,8,0:0:0:0:
257,198,12809,1,0,0:0:0:0:
257,198,13142,1,8,0:0:0:0:
257,198,13475,1,0,0:0:0:0:
257,198,14142,1,0,0:0:0:0:
257,198,14809,1,8,0:0:0:0:
257,198,15475,1,0,0:0:0:0:
257,198,16142,1,8,0:0:0:0:
257,198,16809,1,0,0:0:0:0:
257,198,17475,1,8,0:0:0:0:
257,198,17809,1,0,0:0:0:0:
257,198,18142,1,0,0:0:0:0:
257,198,18475,1,8,0:0:0:0:
257,198,19142,1,0,0:0:0:0:
257,198,19475,1,8,0:0:0:0:
257,198,19809,1,0,0:0:0:0:
256,192,20142,12,0,24475,0:0:0:0:
174,169,24898,5,0,0:0:0:0:
174,169,25125,1,0,0:0:0:0:
174,169,25352,1,8,0:0:0:0:
174,169,25580,1,0,0:0:0:0:
174,169,26489,1,0,0:0:0:0:
174,169,27398,1,0,0:0:0:0:
174,169,28307,1,0,0:0:0:0:
174,169,29216,1,0,0:0:0:0:
174,169,30125,1,0,0:0:0:0:
174,169,31034,1,0,0:0:0:0:
174,169,31943,1,0,0:0:0:0:
174,169,32852,1,0,0:0:0:0:
174,169,33307,1,0,0:0:0:0:
174,169,33761,1,8,0:0:0:0:
174,169,34216,1,0,0:0:0:0:
174,169,34670,1,8,0:0:0:0:
174,169,35125,1,0,0:0:0:0:
174,169,35580,1,8,0:0:0:0:
174,169,36034,1,0,0:0:0:0:
174,169,36489,1,8,0:0:0:0:
174,169,36943,1,0,0:0:0:0:
174,169,37398,1,8,0:0:0:0:
174,169,37852,1,0,0:0:0:0:
174,169,38307,1,8,0:0:0:0:
174,169,38534,1,8,0:0:0:0:
174,169,38761,1,0,0:0:0:0:
174,169,38989,1,0,0:0:0:0:
174,169,39216,1,0,0:0:0:0:
174,169,39330,1,0,0:0:0:0:
174,169,39443,1,0,0:0:0:0:
174,169,39670,1,12,0:0:0:0:
174,169,40125,1,4,0:0:0:0:
174,169,40580,1,8,0:0:0:0:
174,169,41034,1,0,0:0:0:0:
174,169,41261,1,0,0:0:0:0:
174,169,41489,1,8,0:0:0:0:
174,169,41716,1,8,0:0:0:0:
174,169,41830,1,0,0:0:0:0:
174,169,41943,1,0,0:0:0:0:
174,169,42398,1,8,0:0:0:0:
174,169,42852,1,0,0:0:0:0:
174,169,43080,1,0,0:0:0:0:
174,169,43307,1,8,0:0:0:0:
174,169,43761,1,0,0:0:0:0:
174,169,43989,1,8,0:0:0:0:
174,169,44216,1,8,0:0:0:0:
174,169,44670,1,8,0:0:0:0:
174,169,44898,1,0,0:0:0:0:
174,169,45125,1,8,0:0:0:0:
174,169,45352,1,0,0:0:0:0:
174,169,45466,1,0,0:0:0:0:
174,169,45580,1,8,0:0:0:0:
174,169,45807,1,8,0:0:0:0:
174,169,46034,1,0,0:0:0:0:
174,169,46489,1,8,0:0:0:0:
174,169,46716,1,0,0:0:0:0:
174,169,46943,1,8,0:0:0:0:
174,169,47170,1,8,0:0:0:0:
174,169,47398,1,4,0:0:0:0:
174,169,47852,1,8,0:0:0:0:
174,169,48307,1,0,0:0:0:0:
174,169,48534,1,0,0:0:0:0:
174,169,48761,1,8,0:0:0:0:
174,169,48989,1,0,0:0:0:0:
174,169,49102,1,0,0:0:0:0:
174,169,49216,1,8,0:0:0:0:
174,169,49670,1,8,0:0:0:0:
174,169,50125,1,8,0:0:0:0:
174,169,50352,1,0,0:0:0:0:
174,169,50580,1,8,0:0:0:0:
174,169,50807,1,0,0:0:0:0:
174,169,51034,1,0,0:0:0:0:
174,169,51489,1,8,0:0:0:0:
174,169,51943,1,0,0:0:0:0:
174,169,52170,1,0,0:0:0:0:
174,169,52398,1,8,0:0:0:0:
174,169,52625,1,0,0:0:0:0:
174,169,52739,1,0,0:0:0:0:
174,169,52852,1,0,0:0:0:0:
174,169,53080,1,0,0:0:0:0:
174,169,53307,1,8,0:0:0:0:
174,169,53761,1,0,0:0:0:0:
174,169,54102,1,0,0:0:0:0:
174,169,54216,1,8,0:0:0:0:
174,169,54443,1,0,0:0:0:0:
174,169,54670,1,12,0:0:0:0:
174,169,55125,1,0,0:0:0:0:
174,169,55580,1,8,0:0:0:0:
174,169,56034,1,0,0:0:0:0:
174,169,56261,1,0,0:0:0:0:
174,169,56489,1,8,0:0:0:0:
174,169,56943,1,8,0:0:0:0:
174,169,57398,1,0,0:0:0:0:
174,169,57852,1,8,0:0:0:0:
174,169,58080,1,0,0:0:0:0:
174,169,58307,1,8,0:0:0:0:
174,169,58761,1,0,0:0:0:0:
174,169,59216,1,8,0:0:0:0:
174,169,59670,1,0,0:0:0:0:
174,169,59898,1,0,0:0:0:0:
174,169,60125,1,8,0:0:0:0:
174,169,60580,1,0,0:0:0:0:
174,169,61034,1,0,0:0:0:0:
174,169,61261,1,8,0:0:0:0:
174,169,61489,1,8,0:0:0:0:
174,169,61943,1,0,0:0:0:0:
174,169,62398,1,8,0:0:0:0:
174,169,62852,1,0,0:0:0:0:
174,169,63307,1,0,0:0:0:0:
174,169,63534,1,0,0:0:0:0:
174,169,63761,1,8,0:0:0:0:
174,169,64216,1,0,0:0:0:0:
174,169,64670,1,8,0:0:0:0:
174,169,64898,1,8,0:0:0:0:
174,169,65125,1,0,0:0:0:0:
174,169,65352,1,0,0:0:0:0:
174,169,65580,1,8,0:0:0:0:
174,169,66034,1,0,0:0:0:0:
174,169,66489,1,8,0:0:0:0:
174,169,66943,1,0,0:0:0:0:
174,169,67170,1,0,0:0:0:0:
174,169,67398,1,8,0:0:0:0:
174,169,67625,1,0,0:0:0:0:
174,169,67852,1,8,0:0:0:0:
174,169,68080,1,0,0:0:0:0:
174,169,68307,1,0,0:0:0:0:
174,169,68534,1,8,0:0:0:0:
174,169,68761,1,8,0:0:0:0:
174,169,68989,1,0,0:0:0:0:
174,169,69216,1,4,0:0:0:0:
174,169,69670,1,8,0:0:0:0:
174,169,70125,1,0,0:0:0:0:
174,169,70580,1,8,0:0:0:0:
174,169,70807,1,0,0:0:0:0:
174,169,71034,1,0,0:0:0:0:
174,169,71489,1,8,0:0:0:0:
174,169,71943,1,0,0:0:0:0:
174,169,72398,1,0,0:0:0:0:
174,169,72625,1,0,0:0:0:0:
174,169,72852,1,0,0:0:0:0:
174,169,73307,1,8,0:0:0:0:
174,169,73761,1,0,0:0:0:0:
174,169,74216,1,8,0:0:0:0:
174,169,74443,1,0,0:0:0:0:
174,169,74670,1,8,0:0:0:0:
174,169,75125,1,8,0:0:0:0:
174,169,75580,1,0,0:0:0:0:
174,169,75807,1,8,0:0:0:0:
174,169,76034,1,0,0:0:0:0:
174,169,76489,1,8,0:0:0:0:
174,169,76943,1,8,0:0:0:0:
174,169,77398,1,0,0:0:0:0:
174,169,77852,1,8,0:0:0:0:
174,169,78080,1,0,0:0:0:0:
174,169,78307,1,0,0:0:0:0:
174,169,78761,1,8,0:0:0:0:
174,169,79216,1,0,0:0:0:0:
174,169,79443,1,8,0:0:0:0:
174,169,79670,1,0,0:0:0:0:
174,169,79898,1,0,0:0:0:0:
174,169,80125,1,8,0:0:0:0:
174,169,80580,1,8,0:0:0:0:
174,169,81034,1,0,0:0:0:0:
174,169,81489,1,8,0:0:0:0:
174,169,81716,1,0,0:0:0:0:
174,169,81943,1,8,0:0:0:0:
174,169,82170,1,0,0:0:0:0:
174,169,82398,1,0,0:0:0:0:
174,169,82625,1,8,0:0:0:0:
174,169,83080,1,8,0:0:0:0:
174,169,83307,1,8,0:0:0:0:
174,169,83761,1,4,0:0:0:0:
174,169,84443,1,0,0:0:0:0:
174,169,84670,1,0,0:0:0:0:
174,169,85807,1,0,0:0:0:0:
174,169,86261,1,0,0:0:0:0:
174,169,86489,1,0,0:0:0:0:
174,169,86943,1,8,0:0:0:0:
174,169,87398,1,4,0:0:0:0:
174,169,88080,1,0,0:0:0:0:
174,169,88307,1,0,0:0:0:0:
174,169,89443,1,0,0:0:0:0:
174,169,89898,1,0,0:0:0:0:
174,169,90125,1,0,0:0:0:0:
174,169,90580,1,0,0:0:0:0:
174,169,90693,1,0,0:0:0:0:
174,169,90807,1,8,0:0:0:0:
174,169,90920,1,8,0:0:0:0:
174,169,91034,1,0,0:0:0:0:
174,169,91261,1,0,0:0:0:0:
174,169,91489,1,8,0:0:0:0:
174,169,91943,1,0,0:0:0:0:
174,169,92170,1,0,0:0:0:0:
174,169,92398,1,8,0:0:0:0:
174,169,92852,1,0,0:0:0:0:
174,169,93080,1,8,0:0:0:0:
174,169,93307,1,0,0:0:0:0:
174,169,93534,1,0,0:0:0:0:
174,169,93761,1,8,0:0:0:0:
174,169,94216,1,8,0:0:0:0:
174,169,94443,1,0,0:0:0:0:
174,169,94557,1,0,0:0:0:0:
174,169,94670,1,0,0:0:0:0:
174,169,94898,1,0,0:0:0:0:
174,169,95125,1,8,0:0:0:0:
174,169,95580,1,0,0:0:0:0:
174,169,96034,1,8,0:0:0:0:
174,169,96489,1,0,0:0:0:0:
174,169,96716,1,0,0:0:0:0:
174,169,96943,1,8,0:0:0:0:
174,169,97170,1,0,0:0:0:0:
174,169,97398,1,8,0:0:0:0:
174,169,97625,1,0,0:0:0:0:
174,169,97852,1,8,0:0:0:0:
174,169,98080,1,0,0:0:0:0:
174,169,98307,1,12,0:0:0:0:
174,169,98534,1,12,0:0:0:0:
174,169,98761,1,12,0:0:0:0:
174,169,100125,1,4,0:0:0:0:
174,169,100580,1,8,0:0:0:0:
174,169,101034,1,0,0:0:0:0:
174,169,101261,1,0,0:0:0:0:
174,169,101489,1,8,0:0:0:0:
174,169,101943,1,0,0:0:0:0:
174,169,102398,1,8,0:0:0:0:
174,169,102852,1,0,0:0:0:0:
174,169,103080,1,8,0:0:0:0:
174,169,103307,1,8,0:0:0:0:
174,169,103534,1,0,0:0:0:0:
174,169,103761,1,0,0:0:0:0:
174,169,104216,1,8,0:0:0:0:
174,169,104670,1,0,0:0:0:0:
174,169,104898,1,0,0:0:0:0:
174,169,105125,1,8,0:0:0:0:
174,169,105352,1,0,0:0:0:0:
174,169,105466,1,0,0:0:0:0:
174,169,105580,1,8,0:0:0:0:
174,169,106034,1,8,0:0:0:0:
174,169,106261,1,8,0:0:0:0:
174,169,106375,1,0,0:0:0:0:
174,169,106489,1,8,0:0:0:0:
174,169,106716,1,0,0:0:0:0:
174,169,106943,1,8,0:0:0:0:
174,169,107170,1,8,0:0:0:0:
174,169,107398,1,4,0:0:0:0:
174,169,107852,1,8,0:0:0:0:
174,169,108307,1,0,0:0:0:0:
174,169,108534,1,0,0:0:0:0:
174,169,108761,1,8,0:0:0:0:
174,169,108989,1,8,0:0:0:0:
174,169,109216,1,0,0:0:0:0:
174,169,109670,1,8,0:0:0:0:
174,169,110125,1,8,0:0:0:0:
174,169,110352,1,0,0:0:0:0:
174,169,110580,1,8,0:0:0:0:
174,169,111034,1,0,0:0:0:0:
174,169,111489,1,8,0:0:0:0:
174,169,111716,1,8,0:0:0:0:
174,169,111943,1,0,0:0:0:0:
174,169,112170,1,8,0:0:0:0:
174,169,112398,1,0,0:0:0:0:
174,169,112852,1,8,0:0:0:0:
174,169,113080,1,0,0:0:0:0:
174,169,113307,1,0,0:0:0:0:
174,169,113534,1,8,0:0:0:0:
174,169,113989,1,0,0:0:0:0:
174,169,114216,1,8,0:0:0:0:
174,169,114443,1,0,0:0:0:0:
174,169,114670,1,12,0:0:0:0:
174,169,115125,1,8,0:0:0:0:
174,169,115580,1,8,0:0:0:0:
174,169,115807,1,0,0:0:0:0:
174,169,116034,1,8,0:0:0:0:
174,169,116489,1,0,0:0:0:0:
174,169,116943,1,8,0:0:0:0:
174,169,117398,1,0,0:0:0:0:
174,169,117625,1,8,0:0:0:0:
174,169,117852,1,8,0:0:0:0:
174,169,118080,1,0,0:0:0:0:
174,169,118307,1,0,0:0:0:0:
174,169,118761,1,8,0:0:0:0:
174,169,119216,1,8,0:0:0:0:
174,169,119443,1,0,0:0:0:0:
174,169,119670,1,0,0:0:0:0:
174,169,119898,1,0,0:0:0:0:
174,169,120011,1,0,0:0:0:0:
174,169,120125,1,8,0:0:0:0:
174,169,120580,1,8,0:0:0:0:
174,169,120807,1,8,0:0:0:0:
174,169,120920,1,0,0:0:0:0:
174,169,121034,1,8,0:0:0:0:
174,169,121261,1,0,0:0:0:0:
174,169,121489,1,8,0:0:0:0:
174,169,121943,1,4,0:0:0:0:
174,169,122398,1,8,0:0:0:0:
174,169,122852,1,0,0:0:0:0:
174,169,123080,1,0,0:0:0:0:
174,169,123307,1,8,0:0:0:0:
174,169,123761,1,0,0:0:0:0:
174,169,124216,1,8,0:0:0:0:
174,169,124670,1,8,0:0:0:0:
174,169,124898,1,0,0:0:0:0:
174,169,125125,1,8,0:0:0:0:
174,169,125352,1,0,0:0:0:0:
174,169,125580,1,0,0:0:0:0:
174,169,126034,1,8,0:0:0:0:
174,169,126261,1,0,0:0:0:0:
174,169,126375,1,0,0:0:0:0:
174,169,126489,1,8,0:0:0:0:
174,169,126716,1,0,0:0:0:0:
174,169,126943,1,8,0:0:0:0:
174,169,127398,1,0,0:0:0:0:
174,169,127625,1,0,0:0:0:0:
174,169,127852,1,8,0:0:0:0:
174,169,128080,1,8,0:0:0:0:
174,169,128193,1,0,0:0:0:0:
174,169,128307,1,0,0:0:0:0:
174,169,128534,1,0,0:0:0:0:
174,169,128761,1,8,0:0:0:0:
174,169,128989,1,8,0:0:0:0:
174,169,129216,1,4,0:0:0:0:
174,169,130125,1,12,0:0:0:0:
174,169,131034,1,0,0:0:0:0:
174,169,131489,1,8,0:0:0:0:
174,169,131716,1,0,0:0:0:0:
174,169,131943,1,0,0:0:0:0:
174,169,132398,1,8,0:0:0:0:
174,169,132625,1,0,0:0:0:0:
174,169,132739,1,0,0:0:0:0:
174,169,132852,1,8,0:0:0:0:
174,169,133080,1,0,0:0:0:0:
174,169,133307,1,8,0:0:0:0:
174,169,133761,1,0,0:0:0:0:
174,169,133989,1,0,0:0:0:0:
174,169,134216,1,8,0:0:0:0:
174,169,134443,1,8,0:0:0:0:
174,169,134670,1,0,0:0:0:0:
174,169,135125,1,8,0:0:0:0:
174,169,135352,1,8,0:0:0:0:
174,169,135580,1,0,0:0:0:0:
174,169,135807,1,0,0:0:0:0:
174,169,136034,1,8,0:0:0:0:
174,169,136261,1,0,0:0:0:0:
174,169,136375,1,0,0:0:0:0:
174,169,136489,1,0,0:0:0:0:
174,169,136716,1,0,0:0:0:0:
174,169,136943,1,8,0:0:0:0:
174,169,137398,1,0,0:0:0:0:
174,169,137625,1,0,0:0:0:0:
174,169,137852,1,8,0:0:0:0:
174,169,138080,1,8,0:0:0:0:
174,169,138307,1,0,0:0:0:0:
174,169,138761,1,8,0:0:0:0:
174,169,138989,1,8,0:0:0:0:
174,169,139216,1,0,0:0:0:0:
174,169,139443,1,0,0:0:0:0:
174,169,139670,1,8,0:0:0:0:
174,169,139898,1,8,0:0:0:0:
174,169,140011,1,0,0:0:0:0:
174,169,140125,1,0,0:0:0:0:
174,169,140352,1,0,0:0:0:0:
174,169,140580,1,8,0:0:0:0:
174,169,141034,1,8,0:0:0:0:
174,169,141261,1,0,0:0:0:0:
174,169,141489,1,8,0:0:0:0:
174,169,141716,1,0,0:0:0:0:
174,169,141943,1,0,0:0:0:0:
174,169,142170,1,0,0:0:0:0:
174,169,142398,1,8,0:0:0:0:
174,169,142852,1,0,0:0:0:0:
174,169,143080,1,0,0:0:0:0:
174,169,143307,1,8,0:0:0:0:
174,169,143534,1,0,0:0:0:0:
174,169,143648,1,0,0:0:0:0:
174,169,143761,1,8,0:0:0:0:
174,169,143989,1,0,0:0:0:0:
174,169,144216,1,8,0:0:0:0:
174,169,144443,1,0,0:0:0:0:
174,169,144670,1,8,0:0:0:0:
174,169,144898,1,0,0:0:0:0:
174,169,145125,1,8,0:0:0:0:
174,169,145352,1,0,0:0:0:0:
174,169,145580,1,0,0:0:0:0:
174,169,146034,1,0,0:0:0:0:
174,169,146489,1,0,0:0:0:0:
174,169,146943,1,0,0:0:0:0:
174,169,147398,1,8,0:0:0:0:
174,169,147852,1,0,0:0:0:0:
174,169,148307,1,0,0:0:0:0:
174,169,148761,1,0,0:0:0:0:
174,169,149216,1,8,0:0:0:0:
174,169,149670,1,0,0:0:0:0:
174,169,150125,1,0,0:0:0:0:
174,169,150580,1,0,0:0:0:0:
174,169,151034,1,8,0:0:0:0:
174,169,151261,1,0,0:0:0:0:
174,169,151375,1,0,0:0:0:0:
174,169,151489,1,8,0:0:0:0:
174,169,151716,1,0,0:0:0:0:
174,169,151943,1,0,0:0:0:0:
174,169,152170,1,4,0:0:0:0:
174,169,152625,1,0,0:0:0:0:
174,169,152852,1,4,0:0:0:0:
174,169,153307,1,8,0:0:0:0:
174,169,153761,1,0,0:0:0:0:
174,169,154216,1,8,0:0:0:0:
174,169,154443,1,0,0:0:0:0:
174,169,154670,1,8,0:0:0:0:
174,169,154898,1,8,0:0:0:0:
174,169,155125,1,0,0:0:0:0:
174,169,155580,1,8,0:0:0:0:
174,169,155807,1,0,0:0:0:0:
174,169,156034,1,0,0:0:0:0:
174,169,156261,1,0,0:0:0:0:
174,169,156489,1,8,0:0:0:0:
174,169,156943,1,8,0:0:0:0:
174,169,157170,1,0,0:0:0:0:
174,169,157398,1,8,0:0:0:0:
174,169,157852,1,0,0:0:0:0:
174,169,158080,1,0,0:0:0:0:
174,169,158307,1,8,0:0:0:0:
174,169,158534,1,8,0:0:0:0:
174,169,158761,1,0,0:0:0:0:
174,169,159216,1,0,0:0:0:0:
174,169,159443,1,8,0:0:0:0:
174,169,159670,1,8,0:0:0:0:
174,169,160125,1,4,0:0:0:0:
174,169,160580,1,8,0:0:0:0:
174,169,160807,1,8,0:0:0:0:
174,169,161035,1,0,0:0:0:0:
174,169,161490,1,8,0:0:0:0:
174,169,161717,1,0,0:0:0:0:
174,169,161944,1,0,0:0:0:0:
174,169,162399,1,8,0:0:0:0:
174,169,162853,1,0,0:0:0:0:
174,169,163080,1,8,0:0:0:0:
174,169,163308,1,0,0:0:0:0:
174,169,163535,1,0,0:0:0:0:
174,169,163762,1,0,0:0:0:0:
174,169,164217,1,8,0:0:0:0:
174,169,164443,1,0,0:0:0:0:
174,169,164671,1,0,0:0:0:0:
174,169,165126,1,0,0:0:0:0:
174,169,165353,1,0,0:0:0:0:
174,169,165580,1,8,0:0:0:0:
174,169,165807,1,0,0:0:0:0:
174,169,166035,1,8,0:0:0:0:
174,169,166490,1,0,0:0:0:0:
174,169,166717,1,8,0:0:0:0:
174,169,166943,1,0,0:0:0:0:
174,169,167399,1,8,0:0:0:0:
174,169,167853,1,8,0:0:0:0:
174,169,168080,1,0,0:0:0:0:
174,169,168308,1,0,0:0:0:0:
174,169,168762,1,8,0:0:0:0:
174,169,168990,1,0,0:0:0:0:
174,169,169217,1,8,0:0:0:0:
174,169,169671,1,8,0:0:0:0:
174,169,170126,1,0,0:0:0:0:
174,169,170352,1,8,0:0:0:0:
174,169,170580,1,0,0:0:0:0:
174,169,170808,1,0,0:0:0:0:
174,169,171035,1,8,0:0:0:0:
174,169,171490,1,8,0:0:0:0:
174,169,171716,1,8,0:0:0:0:
174,169,171944,1,0,0:0:0:0:
174,169,172399,1,8,0:0:0:0:
174,169,172626,1,0,0:0:0:0:
174,169,172852,1,8,0:0:0:0:
174,169,173080,1,0,0:0:0:0:
174,169,173308,1,0,0:0:0:0:
174,169,173535,1,8,0:0:0:0:
174,169,173761,1,0,0:0:0:0:
174,169,173989,1,8,0:0:0:0:
174,169,174217,1,8,0:0:0:0:
174,169,174670,1,4,0:0:0:0:
174,169,175353,1,0,0:0:0:0:
174,169,175580,1,0,0:0:0:0:
174,169,176717,1,0,0:0:0:0:
174,169,177171,1,0,0:0:0:0:
174,169,177399,1,0,0:0:0:0:
174,169,177853,1,8,0:0:0:0:
174,169,178308,1,4,0:0:0:0:
174,169,178990,1,0,0:0:0:0:
174,169,179217,1,0,0:0:0:0:
174,169,180353,1,0,0:0:0:0:
174,169,180808,1,0,0:0:0:0:
174,169,181035,1,0,0:0:0:0:
174,169,181490,1,0,0:0:0:0:
174,169,181603,1,0,0:0:0:0:
174,169,181717,1,8,0:0:0:0:
174,169,181830,1,8,0:0:0:0:
174,169,181943,1,0,0:0:0:0:
174,169,182170,1,0,0:0:0:0:
174,169,182399,1,8,0:0:0:0:
174,169,182625,1,0,0:0:0:0:
174,169,183080,1,8,0:0:0:0:
174,169,183308,1,8,0:0:0:0:
174,169,183534,1,0,0:0:0:0:
174,169,183761,1,8,0:0:0:0:
174,169,183989,1,0,0:0:0:0:
174,169,184217,1,0,0:0:0:0:
174,169,184443,1,8,0:0:0:0:
174,169,184898,1,0,0:0:0:0:
174,169,185126,1,8,0:0:0:0:
174,169,185353,1,0,0:0:0:0:
174,169,185467,1,0,0:0:0:0:
174,169,185580,1,8,0:0:0:0:
174,169,185807,1,0,0:0:0:0:
174,169,186035,1,8,0:0:0:0:
174,169,186261,1,8,0:0:0:0:
174,169,186490,1,0,0:0:0:0:
174,169,186716,1,8,0:0:0:0:
174,169,186943,1,0,0:0:0:0:
174,169,187170,1,8,0:0:0:0:
174,169,187853,1,8,0:0:0:0:
174,169,188080,1,0,0:0:0:0:
174,169,188308,1,8,0:0:0:0:
174,169,188535,1,0,0:0:0:0:
174,169,188762,1,8,0:0:0:0:
174,169,188990,1,0,0:0:0:0:
174,169,189217,1,12,0:0:0:0:
174,169,189444,1,12,0:0:0:0:
174,169,189671,1,12,0:0:0:0:
174,169,191034,1,4,0:0:0:0:
174,169,191489,1,8,0:0:0:0:
174,169,191716,1,8,0:0:0:0:
174,169,191943,1,0,0:0:0:0:
174,169,192398,1,0,0:0:0:0:
174,169,192625,1,0,0:0:0:0:
174,169,192852,1,8,0:0:0:0:
174,169,193080,1,0,0:0:0:0:
174,169,193307,1,8,0:0:0:0:
174,169,193534,1,8,0:0:0:0:
174,169,193761,1,0,0:0:0:0:
174,169,194216,1,8,0:0:0:0:
174,169,194443,1,0,0:0:0:0:
174,169,194670,1,8,0:0:0:0:
174,169,194898,1,8,0:0:0:0:
174,169,195125,1,0,0:0:0:0:
174,169,195580,1,8,0:0:0:0:
174,169,195807,1,8,0:0:0:0:
174,169,196034,1,0,0:0:0:0:
174,169,196261,1,0,0:0:0:0:
174,169,196375,1,0,0:0:0:0:
174,169,196489,1,8,0:0:0:0:
174,169,196716,1,0,0:0:0:0:
174,169,196943,1,8,0:0:0:0:
174,169,197170,1,8,0:0:0:0:
174,169,197284,1,0,0:0:0:0:
174,169,197398,1,8,0:0:0:0:
174,169,197625,1,0,0:0:0:0:
174,169,197852,1,8,0:0:0:0:
174,169,198307,1,4,0:0:0:0:
174,169,198534,1,8,0:0:0:0:
174,169,198761,1,8,0:0:0:0:
174,169,198989,1,0,0:0:0:0:
174,169,199216,1,0,0:0:0:0:
174,169,199670,1,0,0:0:0:0:
174,169,199898,1,8,0:0:0:0:
174,169,200352,1,8,0:0:0:0:
174,169,200579,1,0,0:0:0:0:
174,169,200807,1,0,0:0:0:0:
174,169,201034,1,8,0:0:0:0:
174,169,201489,1,8,0:0:0:0:
174,169,201716,1,8,0:0:0:0:
174,169,201943,1,0,0:0:0:0:
174,169,202170,1,0,0:0:0:0:
174,169,202398,1,8,0:0:0:0:
174,169,202625,1,8,0:0:0:0:
174,169,202852,1,8,0:0:0:0:
174,169,203080,1,0,0:0:0:0:
174,169,203307,1,8,0:0:0:0:
174,169,203761,1,8,0:0:0:0:
174,169,203989,1,0,0:0:0:0:
174,169,204216,1,0,0:0:0:0:
174,169,204443,1,8,0:0:0:0:
174,169,204898,1,0,0:0:0:0:
174,169,205011,1,0,0:0:0:0:
174,169,205125,1,8,0:0:0:0:
174,169,205239,1,8,0:0:0:0:
174,169,205352,1,0,0:0:0:0:
174,169,205579,1,12,0:0:0:0:
174,169,205807,1,8,0:0:0:0:
174,169,206034,1,0,0:0:0:0:
174,169,206261,1,0,0:0:0:0:
174,169,206489,1,8,0:0:0:0:
174,169,206943,1,8,0:0:0:0:
174,169,207170,1,8,0:0:0:0:
174,169,207625,1,0,0:0:0:0:
174,169,207852,1,8,0:0:0:0:
174,169,208080,1,8,0:0:0:0:
174,169,208307,1,0,0:0:0:0:
174,169,208761,1,0,0:0:0:0:
174,169,208989,1,0,0:0:0:0:
174,169,209216,1,8,0:0:0:0:
174,169,209443,1,0,0:0:0:0:
174,169,209670,1,8,0:0:0:0:
174,169,210125,1,8,0:0:0:0:
174,169,210352,1,0,0:0:0:0:
174,169,210579,1,8,0:0:0:0:
174,169,210807,1,0,0:0:0:0:
174,169,210920,1,0,0:0:0:0:
174,169,211034,1,8,0:0:0:0:
174,169,211261,1,0,0:0:0:0:
174,169,211489,1,8,0:0:0:0:
174,169,211716,1,8,0:0:0:0:
174,169,211829,1,0,0:0:0:0:
174,169,211943,1,8,0:0:0:0:
174,169,212170,1,0,0:0:0:0:
174,169,212398,1,8,0:0:0:0:
174,169,212852,1,4,0:0:0:0:
174,169,213080,1,8,0:0:0:0:
174,169,213307,1,0,0:0:0:0:
174,169,213534,1,8,0:0:0:0:
174,169,213761,1,0,0:0:0:0:
174,169,214216,1,8,0:0:0:0:
174,169,214443,1,0,0:0:0:0:
174,169,214670,1,0,0:0:0:0:
174,169,214898,1,0,0:0:0:0:
174,169,215125,1,8,0:0:0:0:
174,169,215352,1,0,0:0:0:0:
174,169,215579,1,8,0:0:0:0:
174,169,216034,1,8,0:0:0:0:
174,169,216261,1,8,0:0:0:0:
174,169,216489,1,0,0:0:0:0:
174,169,216716,1,0,0:0:0:0:
174,169,216943,1,8,0:0:0:0:
174,169,217170,1,0,0:0:0:0:
174,169,217284,1,0,0:0:0:0:
174,169,217398,1,8,0:0:0:0:
174,169,217625,1,0,0:0:0:0:
174,169,217852,1,8,0:0:0:0:
174,169,218307,1,0,0:0:0:0:
174,169,218534,1,8,0:0:0:0:
174,169,218761,1,8,0:0:0:0:
174,169,218989,1,8,0:0:0:0:
174,169,219102,1,0,0:0:0:0:
174,169,219216,1,0,0:0:0:0:
174,169,219443,1,0,0:0:0:0:
174,169,219670,1,8,0:0:0:0:
174,169,219898,1,8,0:0:0:0:
174,169,220125,1,4,0:0:0:0:
174,169,221034,1,12,0:0:0:0:
174,169,221943,1,0,0:0:0:0:
174,169,222398,1,8,0:0:0:0:
174,169,222852,1,0,0:0:0:0:
174,169,223080,1,0,0:0:0:0:
174,169,223307,1,8,0:0:0:0:
174,169,223534,1,8,0:0:0:0:
174,169,223648,1,0,0:0:0:0:
174,169,223761,1,0,0:0:0:0:
174,169,223989,1,0,0:0:0:0:
174,169,224216,1,8,0:0:0:0:
174,169,224670,1,8,0:0:0:0:
174,169,224898,1,0,0:0:0:0:
174,169,225125,1,8,0:0:0:0:
174,169,225352,1,8,0:0:0:0:
174,169,225580,1,0,0:0:0:0:
174,169,226034,1,0,0:0:0:0:
174,169,226261,1,0,0:0:0:0:
174,169,226489,1,8,0:0:0:0:
174,169,226943,1,0,0:0:0:0:
174,169,227170,1,8,0:0:0:0:
174,169,227398,1,0,0:0:0:0:
174,169,227852,1,8,0:0:0:0:
174,169,228080,1,0,0:0:0:0:
174,169,228193,1,0,0:0:0:0:
174,169,228307,1,8,0:0:0:0:
174,169,228534,1,0,0:0:0:0:
174,169,228761,1,8,0:0:0:0:
174,169,228989,1,8,0:0:0:0:
174,169,229216,1,4,0:0:0:0:
174,169,229670,1,8,0:0:0:0:
174,169,229898,1,0,0:0:0:0:
174,169,230125,1,8,0:0:0:0:
174,169,230352,1,0,0:0:0:0:
174,169,230580,1,8,0:0:0:0:
174,169,230807,1,0,0:0:0:0:
174,169,231034,1,0,0:0:0:0:
174,169,231489,1,8,0:0:0:0:
174,169,231716,1,0,0:0:0:0:
174,169,231943,1,0,0:0:0:0:
174,169,232057,1,0,0:0:0:0:
174,169,232170,1,0,0:0:0:0:
174,169,232398,1,8,0:0:0:0:
174,169,232625,1,8,0:0:0:0:
174,169,232852,1,0,0:0:0:0:
174,169,233080,1,0,0:0:0:0:
174,169,233307,1,8,0:0:0:0:
174,169,233534,1,8,0:0:0:0:
174,169,233648,1,0,0:0:0:0:
174,169,233761,1,0,0:0:0:0:
174,169,233989,1,0,0:0:0:0:
174,169,234216,1,8,0:0:0:0:
174,169,234443,1,8,0:0:0:0:
174,169,234670,1,0,0:0:0:0:
174,169,235125,1,8,0:0:0:0:
174,169,235352,1,0,0:0:0:0:
174,169,235466,1,0,0:0:0:0:
174,169,235580,1,8,0:0:0:0:
174,169,235920,1,0,0:0:0:0:
174,169,236034,1,8,0:0:0:0:
174,169,236261,1,8,0:0:0:0:
174,169,236489,1,4,0:0:0:0:
174,169,236716,1,0,0:0:0:0:
174,169,236943,1,8,0:0:0:0:
174,169,237398,1,0,0:0:0:0:
174,169,237625,1,0,0:0:0:0:
174,169,237852,1,8,0:0:0:0:
174,169,238080,1,0,0:0:0:0:
174,169,238307,1,8,0:0:0:0:
174,169,238420,1,8,0:0:0:0:
174,169,238534,1,8,0:0:0:0:
174,169,238761,1,8,0:0:0:0:
174,169,238989,1,8,0:0:0:0:
174,169,239102,1,8,0:0:0:0:
174,169,239216,1,0,0:0:0:0:
174,169,239443,1,0,0:0:0:0:
174,169,239670,1,8,0:0:0:0:
174,169,240125,1,0,0:0:0:0:
174,169,240352,1,0,0:0:0:0:
174,169,240580,1,8,0:0:0:0:
174,169,240807,1,0,0:0:0:0:
174,169,241034,1,0,0:0:0:0:
174,169,241261,1,0,0:0:0:0:
174,169,241375,1,0,0:0:0:0:
174,169,241489,1,8,0:0:0:0:
174,169,241602,1,0,0:0:0:0:
174,169,241716,1,8,0:0:0:0:
174,169,241943,1,0,0:0:0:0:
174,169,242170,1,0,0:0:0:0:
174,169,242398,1,8,0:0:0:0:
174,169,242625,1,8,0:0:0:0:
174,169,242739,1,0,0:0:0:0:
174,169,242852,1,8,0:0:0:0:
174,169,243080,1,0,0:0:0:0:
174,169,243307,1,8,0:0:0:0:
174,169,243534,1,8,0:0:0:0:
174,169,243761,1,4,0:0:0:0:
174,169,244216,1,8,0:0:0:0:
174,169,244443,1,0,0:0:0:0:
174,169,244557,1,0,0:0:0:0:
174,169,244670,1,0,0:0:0:0:
174,169,244898,1,0,0:0:0:0:
174,169,245125,1,8,0:0:0:0:
174,169,245352,1,8,0:0:0:0:
174,169,245580,1,8,0:0:0:0:
174,169,245693,1,8,0:0:0:0:
174,169,245807,1,8,0:0:0:0:
174,169,246034,1,8,0:0:0:0:
174,169,246261,1,8,0:0:0:0:
174,169,246375,1,0,0:0:0:0:
174,169,246489,1,0,0:0:0:0:
174,169,246716,1,0,0:0:0:0:
174,169,246943,1,8,0:0:0:0:
174,169,247170,1,8,0:0:0:0:
174,169,247398,1,0,0:0:0:0:
174,169,247852,1,8,0:0:0:0:
174,169,248080,1,0,0:0:0:0:
174,169,248193,1,0,0:0:0:0:
174,169,248307,1,0,0:0:0:0:
174,169,248534,1,0,0:0:0:0:
174,169,248761,1,8,0:0:0:0:
174,169,248989,1,0,0:0:0:0:
174,169,249216,1,8,0:0:0:0:
174,169,249330,1,8,0:0:0:0:
174,169,249443,1,0,0:0:0:0:
174,169,249670,1,8,0:0:0:0:
174,169,249898,1,0,0:0:0:0:
174,169,250125,1,8,0:0:0:0:
174,169,250239,1,8,0:0:0:0:
174,169,250352,1,0,0:0:0:0:
174,169,250580,1,8,0:0:0:0:
174,169,250807,1,0,0:0:0:0:
174,169,250920,1,0,0:0:0:0:
174,169,251034,1,12,0:0:0:0:
174,169,252852,1,0,0:0:0:0:
174,169,253761,1,0,0:0:0:0:
174,169,254670,1,0,0:0:0:0:
174,169,255580,1,0,0:0:0:0:
174,169,256489,1,0,0:0:0:0:
174,169,257398,1,0,0:0:0:0:
174,169,258307,1,0,0:0:0:0:
174,169,259216,1,0,0:0:0:0:
174,169,260125,1,8,0:0:0:0:
174,169,260580,1,0,0:0:0:0:
174,169,261034,1,8,0:0:0:0:
174,169,261489,1,0,0:0:0:0:
174,169,261943,1,8,0:0:0:0:
174,169,262398,1,0,0:0:0:0:
174,169,262852,1,8,0:0:0:0:
174,169,263307,1,0,0:0:0:0:
174,169,263761,1,8,0:0:0:0:
174,169,264216,1,0,0:0:0:0:
174,169,264670,1,8,0:0:0:0:
174,169,265125,1,8,0:0:0:0:
174,169,265580,1,0,0:0:0:0:
174,169,266034,1,0,0:0:0:0:
174,169,266261,1,0,0:0:0:0:
174,169,266375,1,0,0:0:0:0:
174,169,266489,1,8,0:0:0:0:
174,169,266716,1,8,0:0:0:0:
174,169,266830,1,0,0:0:0:0:
174,169,266943,1,8,0:0:0:0:
174,169,267057,1,8,0:0:0:0:
174,169,267170,1,0,0:0:0:0:
174,169,267398,1,4,0:0:0:0:
174,169,267625,1,4,0:0:0:0:
174,169,267852,1,12,0:0:0:0:
174,169,268080,1,4,0:0:0:0:
174,169,269216,1,4,0:0:0:0:
174,169,269671,1,8,0:0:0:0:
174,169,269898,1,0,0:0:0:0:
174,169,270125,1,8,0:0:0:0:
174,169,270352,1,8,0:0:0:0:
174,169,270580,1,8,0:0:0:0:
174,169,270693,1,8,0:0:0:0:
174,169,270807,1,0,0:0:0:0:
174,169,271034,1,0,0:0:0:0:
174,169,271261,1,0,0:0:0:0:
174,169,271489,1,8,0:0:0:0:
174,169,271716,1,0,0:0:0:0:
174,169,271943,1,0,0:0:0:0:
174,169,272398,1,8,0:0:0:0:
174,169,272511,1,0,0:0:0:0:
174,169,272625,1,8,0:0:0:0:
174,169,272852,1,0,0:0:0:0:
174,169,273080,1,0,0:0:0:0:
174,169,273307,1,8,0:0:0:0:
174,169,273534,1,0,0:0:0:0:
174,169,273761,1,8,0:0:0:0:
174,169,273989,1,0,0:0:0:0:
174,169,274216,1,8,0:0:0:0:
174,169,274443,1,0,0:0:0:0:
174,169,274557,1,0,0:0:0:0:
174,169,274671,1,8,0:0:0:0:
174,169,274898,1,0,0:0:0:0:
174,169,275125,1,8,0:0:0:0:
174,169,275352,1,8,0:0:0:0:
174,169,275466,1,0,0:0:0:0:
174,169,275580,1,8,0:0:0:0:
174,169,275693,1,8,0:0:0:0:
174,169,275807,1,0,0:0:0:0:
174,169,276034,1,8,0:0:0:0:
174,169,276148,1,0,0:0:0:0:
174,169,276261,1,0,0:0:0:0:
174,169,276489,1,4,0:0:0:0:
174,169,276943,1,8,0:0:0:0:
174,169,277057,1,8,0:0:0:0:
174,169,277170,1,0,0:0:0:0:
174,169,277398,1,8,0:0:0:0:
174,169,277625,1,0,0:0:0:0:
174,169,277852,1,8,0:0:0:0:
174,169,277966,1,0,0:0:0:0:
174,169,278080,1,0,0:0:0:0:
174,169,278307,1,0,0:0:0:0:
174,169,278534,1,8,0:0:0:0:
174,169,278761,1,8,0:0:0:0:
174,169,278989,1,0,0:0:0:0:
174,169,279102,1,0,0:0:0:0:
174,169,279216,1,8,0:0:0:0:
174,169,279671,1,8,0:0:0:0:
174,169,279784,1,0,0:0:0:0:
174,169,279898,1,8,0:0:0:0:
174,169,280125,1,0,0:0:0:0:
174,169,280352,1,8,0:0:0:0:
174,169,280580,1,0,0:0:0:0:
174,169,280807,1,8,0:0:0:0:
174,169,281034,1,8,0:0:0:0:
174,169,281261,1,0,0:0:0:0:
174,169,281489,1,8,0:0:0:0:
174,169,281716,1,8,0:0:0:0:
174,169,281830,1,0,0:0:0:0:
174,169,281943,1,0,0:0:0:0:
174,169,282170,1,0,0:0:0:0:
174,169,282398,1,8,0:0:0:0:
174,169,282625,1,8,0:0:0:0:
174,169,282739,1,8,0:0:0:0:
174,169,282852,1,0,0:0:0:0:
174,169,283080,1,0,0:0:0:0:
174,169,283307,1,8,0:0:0:0:
174,169,283534,1,8,0:0:0:0:
174,169,283761,1,4,0:0:0:0:
174,169,284670,1,12,0:0:0:0:
174,169,285580,1,4,0:0:0:0:
174,169,286034,1,8,0:0:0:0:
174,169,286261,1,0,0:0:0:0:
174,169,286488,1,0,0:0:0:0:
174,169,286716,1,0,0:0:0:0:
174,169,286943,1,8,0:0:0:0:
174,169,287170,1,0,0:0:0:0:
174,169,287284,1,0,0:0:0:0:
174,169,287397,1,8,0:0:0:0:
174,169,287625,1,0,0:0:0:0:
174,169,287852,1,8,0:0:0:0:
174,169,288306,1,0,0:0:0:0:
174,169,288534,1,0,0:0:0:0:
174,169,288761,1,8,0:0:0:0:
174,169,288989,1,8,0:0:0:0:
174,169,289215,1,0,0:0:0:0:
174,169,289443,1,0,0:0:0:0:
174,169,289670,1,8,0:0:0:0:
174,169,290125,1,8,0:0:0:0:
174,169,290352,1,0,0:0:0:0:
174,169,290579,1,8,0:0:0:0:
174,169,290806,1,0,0:0:0:0:
174,169,290920,1,0,0:0:0:0:
174,169,291034,1,0,0:0:0:0:
174,169,291261,1,0,0:0:0:0:
174,169,291488,1,8,0:0:0:0:
174,169,291716,1,8,0:0:0:0:
174,169,291943,1,0,0:0:0:0:
174,169,292170,1,0,0:0:0:0:
174,169,292397,1,8,0:0:0:0:
174,169,292625,1,8,0:0:0:0:
174,169,292852,1,4,0:0:0:0:
174,169,293306,1,8,0:0:0:0:
174,169,293534,1,8,0:0:0:0:
174,169,293761,1,0,0:0:0:0:
174,169,293989,1,0,0:0:0:0:
174,169,294215,1,8,0:0:0:0:
174,169,294443,1,8,0:0:0:0:
174,169,294556,1,0,0:0:0:0:
174,169,294670,1,0,0:0:0:0:
174,169,294898,1,0,0:0:0:0:
174,169,295125,1,8,0:0:0:0:
174,169,295580,1,8,0:0:0:0:
174,169,295806,1,0,0:0:0:0:
174,169,296034,1,8,0:0:0:0:
174,169,296261,1,8,0:0:0:0:
174,169,296488,1,0,0:0:0:0:
174,169,296716,1,0,0:0:0:0:
174,169,296943,1,8,0:0:0:0:
174,169,297397,1,8,0:0:0:0:
174,169,297625,1,0,0:0:0:0:
174,169,297852,1,8,0:0:0:0:
174,169,298079,1,0,0:0:0:0:
174,169,298193,1,0,0:0:0:0:
174,169,298306,1,8,0:0:0:0:
174,169,298534,1,0,0:0:0:0:
174,169,298761,1,8,0:0:0:0:
174,169,298988,1,0,0:0:0:0:
174,169,299215,1,8,0:0:0:0:
174,169,299557,1,0,0:0:0:0:
174,169,299670,1,8,0:0:0:0:
174,169,299926,1,0,0:0:0:0:
174,169,300203,1,0,0:0:0:0:
174,169,300486,1,0,0:0:0:0:
174,169,300783,1,8,0:0:0:0:
174,169,301140,1,0,0:0:0:0:
174,169,301515,1,8,0:0:0:0:
174,169,301931,1,8,0:0:0:0:
174,169,302372,1,0,0:0:0:0:
256,192,303800,12,0,308600,0:0:0:0:
