osu file format v14

[General]
AudioFilename: audio.mp3
AudioLeadIn: 0
PreviewTime: 75547
Countdown: 0
SampleSet: Soft
StackLeniency: 0.7
Mode: 0
LetterboxInBreaks: 0
WidescreenStoryboard: 0

[Editor]
DistanceSpacing: 0.7
BeatDivisor: 4
GridSize: 4
TimelineZoom: 2.799999

[Metadata]
Title:Happy Time wa Owaranai
TitleUnicode:ハッピータイムは終わらない
Artist:Nanamori-chu * Goraku-bu
ArtistUnicode:七森中☆ごらく部
Creator:gundammango
Version:Toshino Kyoko is my Waifu Sorry
Source:ゆるゆり
Tags:三上枝織 大坪由佳 津田美波 大久保瑠美 mikami shiori otsubo yuka tsuda minami okubo rumi 赤座あかり akaza akari 歳納京子 toshino kyoko 船見結衣 funami yui 吉川ちなつ yoshikawa chinatsu yryr A_Mystery yuru yuri Karia Gaia
BeatmapID:1867302
BeatmapSetID:893494

[Difficulty]
HPDrainRate:5
CircleSize:4
OverallDifficulty:8
ApproachRate:9.6
SliderMultiplier:2.1
SliderTickRate:1

[Events]
//Background and Video events
0,0,"stretched-1920-1080-697005.png",0,0
//Break Periods
//Storyboard Layer 0 (Background)
//Storyboard Layer 1 (Fail)
//Storyboard Layer 2 (Pass)
//Storyboard Layer 3 (Foreground)
//Storyboard Sound Samples

[TimingPoints]
5434,315.789473684211,4,2,2,55,1,0
20591,-100,4,2,2,70,0,0
40802,-133.333333333333,4,2,2,40,0,0
50907,-100,4,2,2,60,0,0
76170,-100,4,2,2,75,0,1
116591,-100,4,2,2,75,0,0
126697,-133.333333333333,4,2,2,75,0,0
136802,-100,4,2,2,75,0,0
146907,-133.333333333333,4,2,1,55,0,0
151960,-133.333333333333,4,2,2,65,0,0
152434,-133.333333333333,4,2,1,65,0,0
154486,-100,4,2,2,75,0,0
162065,-100,4,2,2,75,0,1
179749,-200,4,2,2,75,0,0
191118,-100,4,2,2,75,0,0
199960,-200,4,2,2,75,0,0
202486,-100,4,2,2,75,0,1
242907,-100,4,2,2,75,0,0
251749,-100,4,2,2,65,0,0
253012,-133.333333333333,4,2,2,55,0,0
256802,-100,4,2,2,5,0,0

[HitObjects]
256,192,5414,12,0,9835,0:0:0:0:
176,127,10012,5,2,0:0:0:0:
186,151,10170,1,2,0:0:0:0:
196,175,10328,1,2,0:0:0:0:
321,126,10486,6,0,P|329:192|295:253,1,105,6|0,0:0|0:0,0:0:0:0:
248,337,10802,1,2,0:0:0:0:
196,175,10960,1,2,0:0:0:0:
415,243,11118,1,2,0:0:0:0:
321,57,11276,2,2,P|271:44|188:69,1,105,2|0,0:0|0:0,0:0:0:0:
424,117,11591,1,2,0:0:0:0:
185,60,11749,5,2,0:0:0:0:
146,275,11907,1,2,0:0:0:0:
75,114,12065,1,2,0:0:0:0:
275,141,12223,1,2,0:0:0:0:
275,141,12539,5,2,0:0:0:0:
265,165,12697,1,2,0:0:0:0:
255,189,12855,1,2,0:0:0:0:
132,100,13012,5,6,0:0:0:0:
199,291,13170,1,2,0:0:0:0:
216,70,13328,1,2,0:0:0:0:
77,220,13486,1,2,0:0:0:0:
332,189,13644,1,2,0:0:0:0:
332,189,13802,1,2,0:0:0:0:
290,339,13960,1,2,0:0:0:0:
148,96,14118,1,2,0:0:0:0:
62,223,14276,6,0,P|122:264|252:178,1,210,6|0,1:2|0:0,0:0:0:0:
287,128,14749,2,0,P|210:113|156:170,1,157.5,2|0,0:0|0:0,0:0:0:0:
234,200,15065,2,0,L|248:314,1,105,2|0,0:0|0:0,0:0:0:0:
320,238,15381,1,2,0:0:0:0:
320,238,15460,1,0,0:0:0:0:
320,238,15539,5,4,0:0:0:0:
360,328,15697,1,2,0:0:0:0:
437,190,15855,1,2,0:0:0:0:
437,190,16328,1,2,0:0:0:0:
432,215,16486,1,2,0:0:0:0:
427,241,16644,1,2,0:0:0:0:
335,277,16802,6,0,P|418:333|504:299,1,157.5,6|0,0:0|0:0,0:0:0:0:
335,277,17118,1,2,0:0:0:0:
237,332,17276,2,0,P|235:229|278:186,1,157.5,2|0,0:0|0:0,0:0:0:0:
354,135,17591,1,2,0:0:0:0:
268,72,17749,2,0,B|204:62|126:106,1,105,2|0,1:2|0:0,0:0:0:0:
267,192,18065,6,0,B|380:183,1,105,6|0,1:2|0:2,0:0:0:0:
128,198,18381,1,0,0:0:0:0:
190,279,18539,1,2,0:0:0:0:
343,267,18697,1,4,0:0:0:0:
190,279,18855,2,0,B|85:287,1,105,2|0,0:2|0:0,0:0:0:0:
213,131,19170,6,0,P|270:141|338:119,1,105,14|6,0:0|0:0,0:0:0:0:
438,87,19486,1,2,1:2:0:0:
416,253,19644,2,0,P|338:258|292:285,1,105,2|0,0:0|0:0,0:0:0:0:
124,138,20118,5,2,0:0:0:0:
128,163,20276,1,2,0:0:0:0:
133,189,20434,1,2,0:0:0:0:
250,145,20591,6,0,P|264:199|246:266,1,105,6|0,3:2|0:0,0:0:0:0:
195,347,20907,1,10,0:2:0:0:
133,189,21065,1,2,0:2:0:0:
334,281,21223,1,2,3:2:0:0:
253,80,21381,1,2,0:0:0:0:
133,189,21539,1,10,0:0:0:0:
385,151,21697,1,2,0:2:0:0:
289,346,21855,5,2,0:2:0:0:
212,134,22012,1,2,0:0:0:0:
426,254,22170,1,10,0:0:0:0:
308,36,22328,2,0,L|302:148,1,105,2|0,0:2|1:2,0:0:0:0:
123,177,22644,2,0,P|199:161|256:172,1,105,2|8,0:2|3:2,0:0:0:0:
45,104,22960,1,2,0:0:0:0:
193,336,23118,5,2,3:2:0:0:
47,248,23276,1,2,0:0:0:0:
260,140,23434,1,10,0:2:0:0:
98,358,23591,1,2,0:0:0:0:
104,104,23749,1,2,3:2:0:0:
262,280,23907,1,2,0:0:0:0:
240,36,24065,1,2,1:2:0:0:
183,276,24223,1,10,0:0:0:0:
382,156,24381,6,0,P|334:170|265:158,1,105,2|0,3:2|0:0,0:0:0:0:
417,64,24697,1,10,0:0:0:0:
188,155,24855,2,0,P|176:211|188:279,1,105,2|0,0:2|3:2,0:0:0:0:
116,86,25170,1,2,0:0:0:0:
256,215,25328,1,8,0:0:0:0:
326,29,25486,1,2,0:0:0:0:
123,169,25644,6,0,P|72:155|21:162,1,105,4|0,3:2|0:0,0:0:0:0:
206,310,25960,2,0,P|280:319|326:295,2,105,10|0|2,0:0|0:0|3:2,0:0:0:0:
440,287,26434,1,2,0:0:0:0:
272,188,26591,1,2,3:2:0:0:
424,60,26749,1,2,0:0:0:0:
128,128,26907,6,0,P|120:220|140:252,1,105,2|8,3:2|0:0,0:0:0:0:
276,288,27223,2,0,P|286:237|271:187,1,105,10|0,0:0|0:0,0:0:0:0:
188,352,27539,1,2,3:2:0:0:
228,108,27697,2,0,P|284:104|340:132,1,105,2|8,0:0|0:0,0:0:0:0:
68,212,28012,1,2,3:2:0:0:
384,192,28170,5,0,3:2:0:0:
140,316,28328,1,0,0:0:0:0:
412,332,28486,1,8,0:0:0:0:
168,172,28644,1,0,0:2:0:0:
408,168,28802,1,0,3:2:0:0:
116,328,28960,1,0,0:0:0:0:
440,348,29118,1,8,0:0:0:0:
144,148,29276,1,0,0:2:0:0:
336,80,29434,5,0,3:2:0:0:
360,288,29591,1,0,0:0:0:0:
196,88,29749,1,8,0:0:0:0:
188,324,29907,1,0,0:0:0:0:
384,188,30065,1,8,0:2:0:0:
104,64,30223,1,0,0:0:0:0:
104,64,30302,1,0,0:0:0:0:
104,64,30381,1,0,0:0:0:0:
48,328,30539,1,0,0:0:0:0:
188,200,30697,6,0,P|192:304|204:324,1,105,4|0,3:2|0:0,0:0:0:0:
284,108,31012,1,8,0:0:0:0:
324,268,31170,1,0,0:0:0:0:
400,70,31328,2,0,P|411:136|403:192,1,105
252,24,31644,1,0,0:0:0:0:
187,235,31802,1,0,0:0:0:0:
125,52,31960,5,0,3:2:0:0:
275,243,32118,1,0,0:0:0:0:
327,32,32276,1,8,0:0:0:0:
165,213,32434,1,0,0:0:0:0:
165,213,32591,1,8,0:2:0:0:
206,22,32749,1,8,0:0:0:0:
447,214,32907,1,8,0:0:0:0:
378,26,33065,1,8,0:0:0:0:
336,184,33223,6,0,P|344:264|328:312,1,105,0|0,3:2|0:0,0:0:0:0:
272,360,33539,1,8,0:0:0:0:
244,236,33697,1,0,0:0:0:0:
38,303,33855,1,0,3:2:0:0:
112,112,34012,2,0,L|120:220,1,105,0|8,0:2|0:0,0:0:0:0:
200,53,34328,1,0,0:0:0:0:
232,288,34486,5,0,3:2:0:0:
356,136,34644,1,0,0:0:0:0:
352,348,34802,1,8,0:0:0:0:
252,184,34960,1,0,0:0:0:0:
448,236,35118,1,0,3:2:0:0:
408,56,35276,1,0,0:0:0:0:
408,56,35355,1,0,0:0:0:0:
408,56,35434,1,8,0:0:0:0:
344,296,35591,1,0,0:0:0:0:
128,113,35749,6,0,P|186:89|247:108,1,105,4|0,3:2|0:2,0:0:0:0:
358,184,36065,2,0,P|304:192|251:226,1,105,8|0,0:0|0:2,0:0:0:0:
161,306,36381,1,0,1:2:0:0:
191,122,36539,1,0,0:0:0:0:
313,271,36697,1,8,0:0:0:0:
292,39,36855,1,0,0:0:0:0:
461,236,37012,6,0,P|465:307|446:357,1,105,0|0,3:2|0:0,0:0:0:0:
356,123,37328,1,8,0:0:0:0:
245,213,37486,1,0,0:0:0:0:
133,44,37644,1,0,3:0:0:0:
98,316,37802,1,0,3:0:0:0:
292,74,37960,1,0,3:0:0:0:
27,185,38118,1,0,3:0:0:0:
282,331,38276,6,0,L|299:264,1,52.5,0|0,3:2|0:0,0:0:0:0:
330,141,38434,5,0,0:0:0:0:
292,152,38512,1,0,0:0:0:0:
254,145,38591,1,8,0:0:0:0:
224,120,38670,1,0,0:0:0:0:
209,84,38749,1,0,0:0:0:0:
227,47,38828,1,0,0:0:0:0:
246,80,38907,1,8,3:2:0:0:
245,119,38986,1,0,0:0:0:0:
224,152,39065,5,0,0:0:0:0:
189,169,39144,1,0,0:0:0:0:
159,193,39223,1,8,0:0:0:0:
135,222,39302,1,0,0:0:0:0:
127,260,39381,1,0,0:0:0:0:
139,297,39460,1,0,0:0:0:0:
171,320,39539,5,8,0:0:0:0:
139,88,39697,1,0,0:0:0:0:
276,262,39855,5,8,0:0:0:0:
296,48,40012,1,0,0:0:0:0:
96,168,40170,5,8,0:0:0:0:
408,96,40328,1,0,0:0:0:0:
80,328,40486,5,8,0:0:0:0:
232,60,40644,1,0,0:0:0:0:
316,172,40802,5,0,0:0:0:0:
336,188,40960,2,2,L|328:292,1,78.7500030040742
236,252,41276,1,2,0:0:0:0:
98,321,41434,1,2,0:0:0:0:
132,208,41591,1,2,0:0:0:0:
264,356,41749,1,2,0:0:0:0:
408,248,41907,1,2,0:0:0:0:
176,340,42065,6,2,P|232:280|296:292,1,118.125004506111,2|0,0:0|0:0,0:0:0:0:
296,288,42381,1,2,0:0:0:0:
344,140,42539,2,2,P|276:168|248:168,1,78.7500030040742,2|0,0:0|0:0,0:0:0:0:
346,51,42855,2,2,P|376:28|418:22,1,78.7500030040742,2|0,0:0|0:0,0:0:0:0:
271,168,43170,2,2,L|291:268,1,78.7500030040742,2|0,0:0|0:0,0:0:0:0:
460,168,43486,5,2,0:0:0:0:
286,245,43644,1,2,0:0:0:0:
312,76,43802,1,2,0:0:0:0:
388,264,43960,1,2,0:0:0:0:
252,229,44118,2,2,P|192:237|148:265,1,78.7500030040742,2|0,0:0|0:0,0:0:0:0:
72,280,44434,1,2,0:0:0:0:
117,126,44591,6,0,P|172:114|199:197,1,157.500006008148,2|0,0:0|0:0,0:0:0:0:
315,171,45065,2,0,P|367:165|414:182,1,78.7500030040742,2|0,0:0|0:0,0:0:0:0:
295,268,45381,2,0,P|256:274|217:268,1,78.7500030040742,2|0,0:0|0:0,0:0:0:0:
270,82,45697,6,2,P|234:118|222:174,1,78.7500030040742,2|0,0:0|0:0,0:0:0:0:
202,238,46012,1,2,0:0:0:0:
122,190,46170,1,2,0:0:0:0:
122,326,46328,1,2,0:0:0:0:
226,234,46486,2,2,P|282:226|330:242,1,78.7500030040742,2|0,0:0|0:0,0:0:0:0:
344,232,46802,1,2,0:0:0:0:
269,311,46960,1,2,0:0:0:0:
284,88,47118,6,2,P|344:104|376:136,1,78.7500030040742,2|0,0:0|0:0,0:0:0:0:
432,200,47434,1,2,0:0:0:0:
308,184,47591,2,2,P|336:216|336:280,1,78.7500030040742,2|0,0:0|0:0,0:0:0:0:
232,260,47907,2,2,P|200:300|152:320,1,78.7500030040742,2|0,0:0|0:0,0:0:0:0:
132,220,48223,1,2,0:0:0:0:
284,120,48381,6,2,P|248:88|152:92,1,118.125004506111,2|0,0:0|0:0,0:0:0:0:
144,88,48697,1,2,0:0:0:0:
212,280,48855,1,2,0:0:0:0:
315,152,49012,1,2,0:0:0:0:
315,152,49091,1,0,0:0:0:0:
315,152,49170,1,2,0:0:0:0:
126,190,49328,2,2,P|118:238|122:302,1,78.7500030040742,2|0,0:0|0:0,0:0:0:0:
299,234,49644,6,2,P|260:228|221:233,1,78.7500030040742,2|0,0:0|0:0,0:0:0:0:
392,184,49960,1,2,0:0:0:0:
259,331,50118,1,2,0:0:0:0:
259,331,50276,1,0,0:0:0:0:
104,64,50591,1,8,3:2:0:0:
104,64,50907,5,2,3:2:0:0:
104,64,51065,1,2,0:0:0:0:
76,244,51223,1,10,0:0:0:0:
233,136,51381,1,2,0:0:0:0:
21,160,51539,1,2,3:0:0:0:
183,60,51697,2,2,P|254:39|299:45,1,105,2|8,0:0|0:0,0:0:0:0:
21,160,52012,1,2,0:0:0:0:
52,256,52170,6,2,B|116:224|120:156,1,105,2|2,3:2|0:0,0:0:0:0:
312,256,52486,1,10,0:0:0:0:
228,144,52644,2,2,P|204:216|216:276,1,105,2|0,0:0|3:2,0:0:0:0:
424,184,52960,2,2,P|440:252|432:308,1,105,2|8,0:0|0:0,0:0:0:0:
217,129,53276,6,0,P|191:181|185:239,1,105,2|0,0:0|3:2,0:0:0:0:
77,135,53591,2,0,P|78:74|56:27,1,105,2|8,0:0|0:0,0:0:0:0:
184,226,53907,1,2,0:0:0:0:
309,61,54065,2,2,P|325:128|309:189,1,105,2|0,3:2|0:0,0:0:0:0:
200,41,54381,1,10,0:0:0:0:
304,248,54539,1,2,0:0:0:0:
82,211,54697,6,2,P|22:175|2:123,1,105,2|0,3:2|0:0,0:0:0:0:
80,325,55012,1,10,0:0:0:0:
232,176,55170,2,2,P|224:228|188:276,1,105,2|0,0:0|3:2,0:0:0:0:
312,100,55486,2,2,P|332:148|324:224,1,105,2|8,0:0|0:0,0:0:0:0:
352,8,55802,6,2,P|400:64|404:120,1,105,2|4,0:0|3:2,0:0:0:0:
209,104,56118,2,2,P|265:92|333:108,1,105,2|8,0:0|0:0,0:0:0:0:
436,132,56434,1,2,0:0:0:0:
272,232,56591,1,2,3:0:0:0:
288,20,56749,1,2,0:0:0:0:
384,264,56907,1,10,0:0:0:0:
209,104,57065,1,2,0:0:0:0:
96,272,57223,5,2,3:2:0:0:
292,160,57381,1,2,0:0:0:0:
240,328,57539,1,10,0:0:0:0:
116,88,57697,1,2,0:0:0:0:
392,184,57855,2,2,P|336:244|212:212,1,210,2|10,3:2|0:0,0:0:0:0:
292,40,58328,1,2,0:0:0:0:
456,88,58486,5,2,3:2:0:0:
435,121,58565,1,2,0:0:0:0:
403,144,58644,1,2,0:0:0:0:
365,153,58723,1,2,0:0:0:0:
327,147,58802,1,10,0:0:0:0:
278,129,58881,1,2,0:0:0:0:
226,133,58960,1,2,0:0:0:0:
181,158,59039,1,2,0:0:0:0:
152,200,59118,5,2,3:2:0:0:
147,251,59197,1,2,0:0:0:0:
170,297,59276,1,2,0:0:0:0:
214,324,59355,1,2,0:0:0:0:
266,324,59434,1,10,0:0:0:0:
310,296,59512,1,2,0:0:0:0:
333,250,59591,1,2,0:0:0:0:
327,198,59670,1,2,0:0:0:0:
294,159,59749,6,2,P|216:133|170:154,1,105,2|2,3:2|0:0,0:0:0:0:
51,288,60065,2,2,P|101:297|150:278,1,105,10|2,0:0|0:0,0:0:0:0:
86,96,60381,2,2,P|76:146|100:192,1,105,2|2,3:2|0:0,0:0:0:0:
196,137,60697,1,10,0:0:0:0:
87,96,60855,1,2,0:0:0:0:
20,236,61012,5,2,3:2:0:0:
20,236,61170,2,2,L|8:344,1,105,2|8,0:0|0:0,0:0:0:0:
100,312,61486,1,2,0:0:0:0:
184,260,61644,1,2,3:2:0:0:
304,352,61802,2,2,L|292:248,1,105,2|8,0:0|0:0,0:0:0:0:
276,120,62118,1,2,0:0:0:0:
124,180,62276,5,2,3:2:0:0:
196,44,62434,1,2,0:0:0:0:
52,92,62591,1,10,0:0:0:0:
224,180,62749,2,2,P|180:272|56:248,1,210
124,180,63223,1,10,0:0:0:0:
248,340,63381,1,2,0:0:0:0:
320,116,63539,5,2,3:2:0:0:
380,288,63697,1,2,0:0:0:0:
408,96,63855,1,10,0:0:0:0:
276,304,64012,1,2,0:0:0:0:
464,176,64170,1,2,3:2:0:0:
216,216,64328,1,2,0:0:0:0:
400,336,64486,1,10,0:0:0:0:
400,336,64565,1,0,0:0:0:0:
400,336,64644,1,2,0:0:0:0:
276,124,64802,6,2,P|176:116|100:208,1,210,2|10,3:2|0:0,0:0:0:0:
96,296,65276,1,2,0:0:0:0:
208,208,65434,2,2,L|240:336,1,105,2|0,3:2|0:0,0:0:0:0:
456,240,65749,2,2,P|400:232|336:248,1,105,10|0,0:0|0:0,0:0:0:0:
112,308,66065,5,6,3:2:0:0:
112,308,66223,2,2,L|104:184,1,105,2|10,0:0|0:0,0:0:0:0:
96,80,66539,1,2,0:0:0:0:
184,144,66697,1,2,3:2:0:0:
276,48,66855,2,2,L|268:180,1,105,2|10,0:0|0:0,0:0:0:0:
256,300,67170,1,2,0:0:0:0:
256,300,67328,5,2,3:2:0:0:
404,180,67486,1,2,0:0:0:0:
168,120,67644,1,10,0:0:0:0:
368,312,67802,1,2,0:0:0:0:
316,64,67960,1,2,3:2:0:0:
148,248,68118,1,2,0:0:0:0:
148,248,68276,2,2,L|156:132,1,105,10|2,0:0|0:0,0:0:0:0:
52,268,68591,6,2,P|96:336|224:304,1,210,2|10,3:2|0:0,0:0:0:0:
328,192,69065,1,2,0:0:0:0:
148,248,69223,1,2,3:2:0:0:
224,104,69381,1,2,0:0:0:0:
224,104,69539,2,2,L|240:224,1,105,10|0,0:0|0:0,0:0:0:0:
224,12,69855,6,2,P|164:36|148:168,1,210,2|10,3:2|0:0,0:0:0:0:
240,108,70328,1,2,0:0:0:0:
40,72,70486,2,2,L|44:184,1,105,2|0,3:2|0:0,0:0:0:0:
48,268,70802,1,10,0:0:0:0:
48,268,70960,1,2,0:0:0:0:
352,156,71118,5,2,0:0:0:0:
300,328,71434,1,0,3:2:0:0:
184,64,71749,5,10,0:0:0:0:
356,264,72065,1,0,3:2:0:0:
308,64,72381,5,2,0:0:0:0:
268,240,72697,1,0,3:2:0:0:
92,164,73012,5,10,0:0:0:0:
368,128,73328,1,0,0:0:0:0:
128,328,73644,6,2,L|156:204,1,105,10|0,0:0|0:0,0:0:0:0:
232,84,73960,6,2,L|255:186,1,105,0|0,3:2|0:0,0:0:0:0:
320,324,74276,6,2,L|343:221,1,105,10|2,0:0|0:0,0:0:0:0:
424,80,74591,6,2,L|447:182,1,105,0|0,3:2|0:0,0:0:0:0:
424,80,74907,5,14,0:0:0:0:
424,80,75223,5,10,0:0:0:0:
424,80,75539,5,14,0:0:0:0:
304,148,75697,1,2,0:0:0:0:
288,225,75855,1,2,0:0:0:0:
273,302,76012,1,2,0:0:0:0:
204,184,76170,6,2,P|200:104|312:52,1,210,6|10,3:2|0:0,0:0:0:0:
292,140,76644,1,2,0:0:0:0:
128,53,76802,1,2,3:2:0:0:
247,247,76960,2,0,P|196:238|148:256,1,105,0|8,0:0|0:0,0:0:0:0:
392,168,77276,1,2,0:0:0:0:
202,107,77434,6,2,P|119:130|67:109,1,105,2|0,3:2|0:0,0:0:0:0:
230,270,77749,1,10,0:0:0:0:
134,51,77907,1,2,0:0:0:0:
58,230,78065,1,0,3:2:0:0:
264,172,78223,5,2,3:2:0:0:
340,240,78381,1,10,0:0:0:0:
244,268,78539,1,2,0:0:0:0:
364,96,78697,5,2,3:2:0:0:
440,296,78855,1,2,0:0:0:0:
240,172,79012,1,10,0:0:0:0:
460,160,79170,1,2,0:0:0:0:
296,320,79328,1,2,3:2:0:0:
296,320,79486,1,2,0:0:0:0:
324,56,79644,1,10,0:0:0:0:
116,192,79802,1,2,0:0:0:0:
388,324,79960,6,2,P|324:236|208:276,1,210,2|10,3:2|0:0,0:0:0:0:
152,320,80434,2,2,P|124:268|132:208,1,105,2|0,0:0|3:2,0:0:0:0:
268,116,80749,2,2,P|294:160|293:212,1,105,2|8,0:0|0:0,0:0:0:0:
192,52,81065,1,2,3:2:0:0:
192,52,81223,5,4,3:2:0:0:
384,112,81381,1,2,0:0:0:0:
208,188,81539,2,2,L|228:300,1,105,10|0,0:0|0:0,0:0:0:0:
226,291,81855,1,0,3:2:0:0:
328,224,82012,1,2,0:0:0:0:
372,332,82170,1,10,0:0:0:0:
402,164,82328,1,2,0:0:0:0:
226,291,82486,6,2,P|176:228|48:268,1,210,2|10,3:2|0:0,0:0:0:0:
112,120,82960,1,2,0:0:0:0:
112,120,83118,1,0,3:2:0:0:
132,304,83276,1,2,0:0:0:0:
226,291,83434,1,10,0:0:0:0:
324,352,83591,1,2,0:0:0:0:
404,80,83749,6,2,P|400:136|252:152,1,210,2|10,3:2|0:0,0:0:0:0:
248,28,84223,1,2,0:0:0:0:
248,28,84381,1,0,3:2:0:0:
328,112,84539,2,2,L|320:260,1,105,2|8,0:0|0:0,0:0:0:0:
232,328,84855,1,2,0:0:0:0:
232,328,85012,5,0,3:2:0:0:
168,196,85170,1,2,0:0:0:0:
116,348,85328,1,10,0:0:0:0:
80,260,85486,1,0,0:0:0:0:
232,328,85644,1,8,0:0:0:0:
308,164,85802,1,2,0:0:0:0:
312,189,85960,1,2,0:0:0:0:
317,215,86118,1,2,0:0:0:0:
448,124,86276,5,10,3:2:0:0:
208,208,86434,1,2,0:0:0:0:
432,220,86591,1,10,0:0:0:0:
240,96,86749,1,2,0:0:0:0:
304,288,86907,1,2,3:2:0:0:
304,288,87065,1,2,0:0:0:0:
348,104,87223,1,10,0:0:0:0:
348,104,87381,1,2,0:0:0:0:
140,184,87539,5,2,3:2:0:0:
208,40,87697,1,2,0:0:0:0:
264,256,87855,1,10,0:0:0:0:
120,72,88012,1,2,0:0:0:0:
120,72,88170,1,0,3:2:0:0:
344,180,88328,2,2,P|364:228|352:316,1,105,2|8,0:0|0:0,0:0:0:0:
300,100,88644,1,2,0:0:0:0:
264,256,88802,5,2,3:2:0:0:
136,128,88960,1,2,0:0:0:0:
96,340,89118,1,10,0:0:0:0:
248,144,89276,1,2,0:0:0:0:
72,224,89434,1,2,3:2:0:0:
240,344,89591,1,2,0:0:0:0:
184,66,89749,1,10,0:0:0:0:
352,264,89907,1,2,0:0:0:0:
376,32,90065,6,2,P|312:36|252:156,1,210,2|10,3:2|0:0,0:0:0:0:
264,256,90539,1,2,0:0:0:0:
144,64,90697,1,0,3:2:0:0:
348,120,90855,2,2,P|368:176|352:256,1,105,2|8,0:0|0:0,0:0:0:0:
108,168,91170,1,2,0:0:0:0:
128,272,91328,6,2,L|130:161,1,105,4|0,3:2|0:0,0:0:0:0:
48,312,91644,2,2,P|108:360|172:344,1,105,10|0,0:0|0:0,0:0:0:0:
312,320,91960,1,0,3:2:0:0:
312,320,92118,1,2,0:0:0:0:
280,56,92276,1,10,0:0:0:0:
108,168,92434,1,2,0:0:0:0:
192,32,92591,6,2,P|204:88|192:168,1,105,2|0,3:2|0:0,0:0:0:0:
324,136,92907,2,2,P|312:196|272:256,1,105,10|0,0:0|0:0,0:0:0:0:
280,56,93223,1,2,3:2:0:0:
428,232,93381,1,2,3:2:0:0:
228,160,93539,1,8,0:0:0:0:
432,88,93697,1,2,0:0:0:0:
328,316,93855,5,2,3:2:0:0:
283,341,93934,1,2,0:0:0:0:
231,339,94012,1,2,0:0:0:0:
189,310,94091,1,2,0:0:0:0:
169,262,94170,1,10,0:0:0:0:
185,213,94249,1,2,0:0:0:0:
168,164,94328,1,2,0:0:0:0:
125,137,94407,1,2,0:0:0:0:
72,144,94486,5,2,3:2:0:0:
33,177,94565,1,2,0:0:0:0:
24,228,94644,1,2,0:0:0:0:
51,272,94723,1,2,0:0:0:0:
99,290,94802,1,10,0:0:0:0:
147,272,94881,1,2,0:0:0:0:
189,242,94960,1,2,0:0:0:0:
240,232,95039,1,2,0:0:0:0:
291,243,95118,5,0,3:2:0:0:
360,100,95276,1,0,0:0:0:0:
388,308,95434,5,8,0:0:0:0:
280,56,95591,1,0,0:0:0:0:
168,260,95749,5,0,3:2:0:0:
428,168,95907,1,0,0:0:0:0:
428,168,95986,1,0,0:0:0:0:
428,168,96065,1,8,0:0:0:0:
188,32,96223,1,0,0:0:0:0:
56,144,96381,6,2,P|120:172|188:164,1,105,2|0,3:2|0:0,0:0:0:0:
116,300,96697,2,2,P|167:295|214:271,1,105,10|0,0:0|0:0,0:0:0:0:
456,144,97012,6,2,P|392:172|324:164,1,105,2|0,3:2|0:0,0:0:0:0:
396,300,97328,2,2,P|344:295|297:271,1,105,10|0,0:0|0:0,0:0:0:0:
192,120,97644,2,2,P|264:112|336:148,1,105,2|0,3:2|0:0,0:0:0:0:
180,248,97960,2,2,P|108:256|36:220,1,105,10|0,0:0|0:0,0:0:0:0:
120,340,98276,1,2,3:2:0:0:
108,140,98434,1,2,3:2:0:0:
280,224,98591,2,0,P|292:280|276:340,1,105,8|0,0:0|0:0,0:0:0:0:
416,88,98907,6,2,P|352:76|296:88,1,105,2|0,3:2|0:0,0:0:0:0:
348,176,99223,2,2,P|272:192|236:224,1,105,10|0,0:0|0:0,0:0:0:0:
152,32,99539,2,2,P|172:92|180:164,1,105,2|0,3:2|0:0,0:0:0:0:
52,288,99855,2,2,P|61:236|78:186,1,105,10|0,0:0|0:0,0:0:0:0:
360,288,100170,6,2,P|288:304|224:292,1,105,2|0,3:2|0:0,0:0:0:0:
344,168,100486,2,2,P|394:153|446:154,1,105,10|0,0:0|0:0,0:0:0:0:
412,56,100802,1,2,3:2:0:0:
408,228,100960,1,2,0:0:0:0:
260,104,101118,1,8,0:0:0:0:
208,208,101276,1,2,0:0:0:0:
208,208,101434,5,4,3:2:0:0:
148,104,101591,1,2,0:0:0:0:
272,120,101749,2,2,P|328:136|372:184,1,105,10|0,0:0|0:0,0:0:0:0:
184,224,102065,2,2,P|133:211|94:177,1,105,2|0,3:2|0:0,0:0:0:0:
280,228,102381,2,2,P|260:308|208:340,1,105,10|0,0:0|0:0,0:0:0:0:
328,124,102697,6,2,P|392:128|456:176,1,105,2|0,3:2|0:0,0:0:0:0:
180,224,103012,2,2,P|116:220|52:172,1,105,10|0,0:0|0:0,0:0:0:0:
344,352,103328,2,2,L|368:240,1,105,2|0,3:2|3:2,0:0:0:0:
448,336,103644,1,10,0:0:0:0:
280,228,103802,1,2,0:0:0:0:
280,228,103960,5,0,3:2:0:0:
244,320,104118,1,2,0:0:0:0:
112,248,104276,1,10,0:0:0:0:
140,352,104434,1,0,0:0:0:0:
192,180,104591,1,0,3:2:0:0:
240,332,104749,1,0,0:0:0:0:
88,132,104907,1,8,0:0:0:0:
88,132,104986,1,0,0:0:0:0:
88,132,105065,1,0,0:0:0:0:
324,264,105223,5,0,3:2:0:0:
296,40,105381,1,0,0:0:0:0:
180,248,105539,1,8,0:0:0:0:
432,136,105697,1,0,0:0:0:0:
408,340,105855,1,0,3:2:0:0:
304,136,106012,1,0,0:0:0:0:
304,136,106091,1,0,0:0:0:0:
304,136,106170,1,8,0:0:0:0:
212,360,106328,1,0,0:0:0:0:
128,96,106486,6,2,P|108:144|128:224,1,105,6|0,3:2|0:0,0:0:0:0:
316,320,106802,2,2,P|335:272|331:220,1,105,10|0,0:0|0:0,0:0:0:0:
224,88,107118,2,2,P|164:76|88:88,1,105,2|0,3:2|0:0,0:0:0:0:
227,210,107434,2,2,P|278:221|330:217,1,105,10|0,0:0|0:0,0:0:0:0:
416,72,107749,6,2,P|432:176|420:208,1,105,2|0,3:2|0:0,0:0:0:0:
504,244,108065,2,2,P|436:284|376:268,1,105,10|0,0:0|0:0,0:0:0:0:
312,256,108381,1,2,3:2:0:0:
200,328,108539,1,2,3:2:0:0:
200,328,108697,2,0,L|192:212,1,105,8|0,0:0|0:0,0:0:0:0:
96,72,109012,6,2,P|148:68|216:88,1,105,2|0,3:2|0:0,0:0:0:0:
420,148,109328,2,2,P|344:156|296:188,1,105,10|0,0:0|0:0,0:0:0:0:
72,228,109644,2,2,P|124:224|175:236,1,105,2|0,3:2|0:0,0:0:0:0:
395,303,109960,2,2,P|342:303|294:323,1,105,10|0,0:0|0:0,0:0:0:0:
384,52,110276,6,2,P|380:140|400:192,1,105,2|0,3:2|0:0,0:0:0:0:
224,296,110591,2,2,P|231:244|223:192,1,105,14|0,0:0|0:0,0:0:0:0:
136,244,110907,1,2,3:2:0:0:
284,108,111065,2,2,P|220:92|164:100,1,105,2|8,0:0|0:0,0:0:0:0:
64,132,111381,1,2,0:0:0:0:
64,132,111539,5,4,3:2:0:0:
168,200,111697,1,2,0:0:0:0:
60,272,111855,2,2,P|132:292|168:280,1,105,10|0,0:0|0:0,0:0:0:0:
316,144,112170,2,2,P|260:120|196:128,1,105,2|0,3:2|0:0,0:0:0:0:
432,144,112486,2,2,P|404:192|392:272,1,105,10|0,0:0|0:0,0:0:0:0:
480,272,112802,6,2,P|460:324|312:288,1,210,2|8,3:2|0:0,0:0:0:0:
284,164,113276,1,0,0:0:0:0:
392,272,113434,1,2,3:2:0:0:
132,340,113591,2,2,L|148:224,1,105,2|8,3:2|0:0,0:0:0:0:
176,48,113907,1,2,3:2:0:0:
328,200,114065,5,0,3:2:0:0:
128,124,114223,1,0,0:0:0:0:
372,100,114381,5,8,0:0:0:0:
116,268,114539,1,0,0:0:0:0:
404,264,114697,5,0,3:2:0:0:
168,56,114855,1,0,0:0:0:0:
464,160,115012,5,8,0:0:0:0:
68,204,115170,1,0,0:0:0:0:
272,56,115328,5,4,3:2:0:0:
216,288,115486,1,0,0:0:0:0:
380,124,115644,1,8,0:0:0:0:
120,144,115802,1,0,0:0:0:0:
328,324,115960,1,0,3:2:0:0:
216,72,116118,1,0,0:0:0:0:
216,72,116197,1,0,0:0:0:0:
216,72,116276,1,8,0:0:0:0:
100,316,116434,1,0,0:0:0:0:
340,200,116591,6,0,P|292:172|208:164,1,105,4|0,3:2|0:0,0:0:0:0:
374,334,116907,1,8,0:0:0:0:
346,105,117065,1,0,0:0:0:0:
477,213,117223,1,0,3:2:0:0:
244,352,117381,1,0,0:0:0:0:
244,352,117539,1,8,0:0:0:0:
244,100,117697,1,0,0:0:0:0:
64,244,117855,6,0,P|120:256|192:248,1,105,0|0,3:2|0:0,0:0:0:0:
347,109,118170,2,0,P|295:97|243:99,1,105,8|0,0:0|0:0,0:0:0:0:
56,124,118486,1,10,0:0:0:0:
380,256,118644,1,10,0:0:0:0:
168,348,118802,1,10,0:0:0:0:
208,44,118960,1,10,0:0:0:0:
444,136,119118,6,0,P|468:208|452:256,1,105,0|0,3:2|0:0,0:0:0:0:
188,176,119434,2,0,P|240:164|328:188,1,105,8|0,0:0|0:0,0:0:0:0:
392,200,119749,1,0,3:2:0:0:
240,288,119907,1,0,0:0:0:0:
240,288,120065,1,8,0:0:0:0:
268,76,120223,1,0,3:2:0:0:
68,172,120381,5,0,3:2:0:0:
168,344,120539,1,0,0:0:0:0:
280,192,120697,1,8,0:0:0:0:
36,280,120855,1,0,0:0:0:0:
136,80,121012,1,0,3:2:0:0:
220,264,121170,1,0,0:0:0:0:
220,264,121249,1,0,0:0:0:0:
220,264,121328,1,8,0:0:0:0:
32,120,121486,1,0,0:0:0:0:
136,316,121644,6,0,P|176:352|312:312,1,210,4|8,3:2|0:0,0:0:0:0:
336,188,122118,1,0,0:0:0:0:
220,264,122276,1,0,3:2:0:0:
240,40,122434,1,0,0:0:0:0:
240,40,122591,1,8,0:0:0:0:
452,164,122749,1,0,0:0:0:0:
316,344,122907,6,0,L|319:222,1,105,0|0,3:2|0:0,0:0:0:0:
272,112,123223,1,8,0:0:0:0:
272,112,123381,1,0,0:0:0:0:
448,264,123539,1,10,0:0:0:0:
212,292,123697,1,10,0:0:0:0:
368,136,123855,1,10,0:0:0:0:
368,136,124012,1,10,0:0:0:0:
440,192,124170,5,2,3:2:0:0:
397,221,124249,1,2,0:0:0:0:
345,224,124328,1,2,0:0:0:0:
299,200,124407,1,2,0:0:0:0:
271,156,124486,1,10,0:0:0:0:
256,107,124565,1,2,0:0:0:0:
216,74,124644,1,2,0:0:0:0:
165,69,124723,1,2,0:0:0:0:
119,94,124802,5,2,3:2:0:0:
91,137,124881,1,2,0:0:0:0:
93,189,124960,1,2,0:0:0:0:
125,229,125039,1,2,0:0:0:0:
173,246,125118,1,10,0:0:0:0:
224,234,125197,1,2,0:0:0:0:
260,197,125276,1,2,0:0:0:0:
270,146,125355,1,2,0:0:0:0:
251,98,125434,5,2,3:2:0:0:
476,140,125591,1,2,0:0:0:0:
216,320,125749,1,10,0:0:0:0:
340,24,125907,1,2,0:0:0:0:
183,157,126065,1,10,3:2:0:0:
334,101,126697,5,2,3:2:0:0:
377,283,126855,1,2,0:0:0:0:
456,161,127012,1,2,0:0:0:0:
256,183,127170,1,2,0:0:0:0:
330,342,127328,1,2,0:0:0:0:
171,240,127486,1,2,3:2:0:0:
234,344,127644,1,2,0:0:0:0:
345,224,127802,1,2,0:0:0:0:
437,291,127960,5,2,3:2:0:0:
415,130,128118,1,2,0:0:0:0:
256,203,128276,1,2,0:0:0:0:
339,47,128434,2,2,P|281:36|232:46,1,78.7500030040742,2|0,3:2|0:0,0:0:0:0:
178,193,128749,2,2,P|215:203|255:202,1,78.7500030040742,2|0,3:2|0:0,0:0:0:0:
130,96,129065,6,2,P|96:126|79:188,1,78.7500030040742,2|0,0:0|3:2,0:0:0:0:
50,264,129381,1,2,0:0:0:0:
134,233,129539,1,2,0:0:0:0:
210,348,129697,1,2,0:0:0:0:
249,203,129855,1,2,0:0:0:0:
303,297,130012,1,2,0:0:0:0:
308,121,130170,2,2,P|253:108|196:121,1,78.7500030040742,2|0,0:0|0:0,0:0:0:0:
386,73,130486,6,2,P|394:133|386:177,1,78.7500030040742,2|0,3:2|0:0,0:0:0:0:
368,258,130802,1,2,0:0:0:0:
249,203,130960,2,2,P|235:250|241:303,1,78.7500030040742,2|0,0:0|0:0,0:0:0:0:
195,99,131276,2,2,P|245:100|284:109,1,78.7500030040742,2|0,0:0|0:0,0:0:0:0:
143,212,131591,6,2,P|103:212|64:205,1,78.7500030040742,2|0,0:0|3:2,0:0:0:0:
195,99,131907,1,2,0:0:0:0:
249,203,132065,2,2,P|255:255|253:306,1,78.7500030040742,2|0,0:0|3:2,0:0:0:0:
247,361,132381,1,2,0:0:0:0:
167,259,132539,1,2,0:0:0:0:
115,360,132697,1,2,0:0:0:0:
254,281,132855,1,2,0:0:0:0:
415,354,133012,5,2,3:2:0:0:
465,255,133170,1,2,0:0:0:0:
431,149,133328,1,2,0:0:0:0:
360,64,133486,2,2,P|313:72|260:55,1,78.7500030040742,2|0,3:2|0:0,0:0:0:0:
149,174,133802,2,2,P|187:165|226:171,1,78.7500030040742,2|0,3:2|0:0,0:0:0:0:
341,232,134118,1,2,0:0:0:0:
202,337,134276,6,2,P|191:293|196:237,1,78.7500030040742,2|0,0:0|0:0,0:0:0:0:
195,244,134512,1,2,0:0:0:0:
198,228,134591,1,2,0:0:0:0:
332,312,134749,2,2,P|384:297|415:200,1,157.500006008148,10|2,0:0|0:0,0:0:0:0:
417,206,135223,1,0,0:0:0:0:
330,232,135381,1,2,0:0:0:0:
303,91,135539,5,2,0:0:0:0:
245,165,135697,1,2,0:0:0:0:
177,80,135855,2,2,P|147:135|149:184,1,78.7500030040742,2|0,3:2|0:0,0:0:0:0:
143,277,136170,1,2,0:0:0:0:
333,175,136486,5,8,0:0:0:0:
177,80,136802,5,4,3:2:0:0:
85,275,136960,1,2,0:0:0:0:
250,172,137118,1,10,0:0:0:0:
59,133,137276,1,2,0:0:0:0:
187,282,137434,1,2,3:2:0:0:
331,169,137591,1,2,0:0:0:0:
353,362,137749,1,10,0:0:0:0:
171,183,137907,1,2,0:0:0:0:
64,338,138065,5,2,3:2:0:0:
110,115,138223,1,2,0:0:0:0:
27,260,138381,1,10,0:0:0:0:
258,175,138539,2,2,P|277:115|275:48,1,105,2|0,0:0|3:2,0:0:0:0:
166,214,138855,2,2,P|148:263|145:315,1,105,2|8,0:0|0:0,0:0:0:0:
364,266,139170,6,2,P|374:346|362:387,1,105,2|0,3:2|0:0,0:0:0:0:
466,222,139486,2,2,P|416:176|348:172,1,105,2|8,0:0|0:0,0:0:0:0:
260,175,139802,1,2,0:0:0:0:
357,75,139960,1,2,3:2:0:0:
364,266,140118,1,2,0:0:0:0:
260,68,140276,1,10,0:0:0:0:
260,68,140434,1,2,0:0:0:0:
76,159,140591,5,2,3:2:0:0:
178,290,140749,1,2,0:0:0:0:
197,134,140907,1,10,0:0:0:0:
475,240,141065,2,2,P|410:251|353:237,1,105,2|0,0:0|3:2,0:0:0:0:
197,134,141381,2,2,P|248:123|300:131,1,105,2|8,0:0|0:0,0:0:0:0:
415,63,141697,6,2,P|418:128|402:193,1,105,2|4,0:0|3:2,0:0:0:0:
339,306,142012,1,2,0:0:0:0:
293,129,142170,1,10,0:0:0:0:
126,199,142328,1,2,0:0:0:0:
219,67,142486,2,2,P|212:148|225:200,1,105,2|0,3:2|0:0,0:0:0:0:
239,299,142802,1,10,0:0:0:0:
293,129,142960,1,2,0:0:0:0:
474,176,143118,5,2,3:2:0:0:
271,37,143276,2,2,P|195:26|129:60,1,105,2|8,0:0|0:0,0:0:0:0:
333,133,143591,1,2,0:0:0:0:
229,224,143749,2,2,P|215:162|211:104,1,105,2|0,3:2|0:0,0:0:0:0:
255,337,144065,1,10,0:0:0:0:
353,236,144223,1,2,0:0:0:0:
423,310,144381,5,2,3:2:0:0:
479,191,144539,1,2,0:0:0:0:
339,325,144697,5,10,0:0:0:0:
381,112,144855,1,2,0:0:0:0:
257,343,145012,5,2,3:2:0:0:
336,37,145170,1,2,0:0:0:0:
168,309,145328,5,10,0:0:0:0:
442,153,145486,1,2,0:0:0:0:
69,229,145644,5,2,3:2:0:0:
479,248,145802,1,2,0:0:0:0:
69,112,145960,5,10,0:0:0:0:
449,342,146118,1,2,0:0:0:0:
316,35,146276,1,2,3:2:0:0:
316,35,146355,1,2,3:2:0:0:
316,35,146434,1,2,3:2:0:0:
274,140,146591,1,10,0:0:0:0:
139,37,146749,1,2,0:0:0:0:
31,163,146907,5,2,3:0:0:0:
31,163,147065,1,2,0:0:0:0:
212,323,147381,1,2,3:2:0:0:
222,176,147539,1,2,3:2:0:0:
222,176,147697,1,2,0:0:0:0:
99,289,147855,2,2,L|101:193,1,78.7500030040742,6|2,0:0|0:0,0:0:0:0:
133,102,148170,5,2,3:2:0:0:
222,176,148328,1,2,0:0:0:0:
230,45,148486,1,2,0:0:0:0:
133,215,148644,1,2,3:2:0:0:
203,288,148802,1,2,3:2:0:0:
85,312,148960,1,2,0:0:0:0:
264,215,149118,1,6,0:0:0:0:
295,344,149276,1,2,0:0:0:0:
159,147,149434,5,2,3:2:0:0:
159,147,149591,1,2,0:0:0:0:
384,189,149749,1,2,0:0:0:0:
384,189,149907,1,2,0:0:0:0:
295,35,150065,1,2,0:0:0:0:
295,35,150223,1,2,0:0:0:0:
264,278,150381,1,6,0:0:0:0:
208,109,150539,1,2,0:0:0:0:
112,249,150697,5,2,3:2:0:0:
128,71,150855,1,2,0:0:0:0:
204,204,151012,1,2,0:0:0:0:
59,134,151170,1,2,3:2:0:0:
31,314,151328,1,2,0:2:0:0:
282,200,151644,1,6,3:2:0:0:
299,293,151802,1,2,0:0:0:0:
407,229,151960,5,6,0:0:0:0:
430,45,152118,1,2,0:0:0:0:
165,129,152434,5,2,0:0:0:0:
197,301,152591,1,2,0:0:0:0:
268,216,152749,1,2,0:0:0:0:
268,216,152907,1,4,0:0:0:0:
361,358,153065,1,2,3:2:0:0:
419,258,153223,5,2,0:0:0:0:
277,315,153381,1,2,0:0:0:0:
376,184,153539,2,2,P|439:176|499:216,1,118.125004506111,2|0,0:0|0:0,0:0:0:0:
419,258,153855,1,2,0:0:0:0:
400,92,154012,1,2,0:0:0:0:
253,162,154170,1,6,0:0:0:0:
336,354,154328,1,2,0:0:0:0:
160,146,154486,6,2,P|158:222|171:269,1,105,6|0,3:2|0:0,0:0:0:0:
55,93,154802,1,10,0:0:0:0:
160,29,154960,1,2,0:0:0:0:
246,192,155118,1,2,3:2:0:0:
383,35,155276,2,2,P|395:77|383:164,1,105,2|8,0:0|0:0,0:0:0:0:
240,86,155591,1,2,0:0:0:0:
56,151,155749,6,2,P|112:141|186:154,1,105,2|0,3:2|0:0,0:0:0:0:
82,44,156065,1,2,0:0:0:0:
114,230,156223,1,2,0:0:0:0:
252,166,156381,1,2,3:2:0:0:
201,352,156539,1,2,0:0:0:0:
106,137,156697,2,2,P|57:160|23:247,1,105,10|2,0:0|0:0,0:0:0:0:
217,77,157012,5,2,3:2:0:0:
273,272,157328,1,0,0:0:0:0:
372,45,157644,5,10,0:0:0:0:
362,357,157960,1,0,0:0:0:0:
489,271,158276,5,2,3:2:0:0:
128,167,158591,1,0,0:0:0:0:
477,106,158907,5,10,0:0:0:0:
163,317,159223,1,0,0:0:0:0:
197,120,159539,5,10,0:0:0:0:
257,311,159776,1,10,0:0:0:0:
381,104,160012,1,10,0:0:0:0:
374,242,160170,1,10,0:0:0:0:
247,50,160407,1,10,0:0:0:0:
91,144,160644,1,10,0:0:0:0:
179,246,160802,5,10,0:0:0:0:
270,150,161039,1,10,0:0:0:0:
270,150,161118,1,2,0:0:0:0:
187,93,161276,1,10,0:0:0:0:
273,294,161434,1,10,0:0:0:0:
378,246,161591,1,2,0:0:0:0:
374,272,161749,1,2,0:0:0:0:
370,298,161907,1,2,0:0:0:0:
465,214,162065,6,2,P|414:169|346:167,1,105,2|0,3:2|0:0,0:0:0:0:
171,157,162381,1,10,0:0:0:0:
267,44,162539,1,2,0:0:0:0:
285,241,162697,1,2,3:2:0:0:
180,53,162855,2,2,P|170:149|173:172,1,105,2|8,0:0|0:0,0:0:0:0:
181,259,163170,1,2,0:0:0:0:
274,113,163328,5,2,3:2:0:0:
402,156,163486,1,2,0:0:0:0:
367,45,163644,1,10,0:0:0:0:
320,215,163802,2,2,P|325:281|313:339,1,105,2|0,0:0|3:2,0:0:0:0:
221,170,164118,1,2,0:0:0:0:
303,104,164276,1,10,0:0:0:0:
320,215,164434,1,2,0:0:0:0:
160,83,164591,5,2,3:2:0:0:
394,111,164749,1,2,0:0:0:0:
204,252,164907,1,10,0:0:0:0:
232,26,165065,1,2,0:0:0:0:
357,242,165223,1,2,3:2:0:0:
165,90,165381,1,2,0:0:0:0:
96,300,165539,1,10,0:0:0:0:
48,44,165697,1,2,0:0:0:0:
423,118,165855,6,2,P|354:141|300:185,1,105,2|0,3:2|0:0,0:0:0:0:
178,302,166170,1,10,0:0:0:0:
403,229,166328,2,2,P|363:294|353:348,1,105,2|0,3:2|0:0,0:0:0:0:
138,171,166644,2,2,P|221:173|273:210,1,105,2|12,0:0|0:0,0:0:0:0:
82,77,166960,6,2,P|46:149|41:217,1,105,2|4,0:0|3:2,0:0:0:0:
32,270,167276,1,2,0:0:0:0:
136,165,167434,2,2,P|192:162|241:305,1,210,10|0,0:0|3:2,0:0:0:0:
363,191,167907,1,2,0:0:0:0:
170,248,168065,1,10,0:0:0:0:
255,48,168223,1,2,0:0:0:0:
335,276,168381,6,2,P|411:268|452:218,1,105,2|0,3:2|0:0,0:0:0:0:
243,274,168697,1,10,0:0:0:0:
342,88,168855,2,2,P|359:143|361:214,1,105,2|0,0:0|3:2,0:0:0:0:
445,78,169170,1,2,0:0:0:0:
282,18,169328,1,10,0:0:0:0:
272,156,169486,1,2,0:0:0:0:
445,78,169644,6,2,P|452:136|442:200,1,105,2|0,3:2|0:0,0:0:0:0:
425,287,169960,1,10,0:0:0:0:
272,156,170118,2,2,P|210:150|147:166,1,105,2|0,0:0|3:2,0:0:0:0:
360,164,170434,1,2,0:0:0:0:
216,256,170591,1,10,0:0:0:0:
172,55,170749,6,2,P|175:138|157:178,1,105,2|0,3:2|0:0,0:0:0:0:
112,264,171065,1,2,0:0:0:0:
84,112,171223,1,10,0:0:0:0:
340,104,171539,5,8,0:0:0:0:
284,180,171697,1,2,0:0:0:0:
291,214,171855,1,2,0:0:0:0:
298,248,172012,1,2,0:0:0:0:
260,80,172170,6,2,P|208:120|227:283,1,210,6|10,3:2|0:0,0:0:0:0:
296,176,172644,1,2,0:0:0:0:
132,80,172802,1,2,3:2:0:0:
137,288,172960,1,2,0:0:0:0:
256,80,173118,1,10,0:0:0:0:
80,196,173276,1,2,0:0:0:0:
228,244,173434,5,2,3:2:0:0:
340,192,173591,1,2,0:0:0:0:
324,312,173749,1,10,0:0:0:0:
244,148,173907,2,2,P|172:168|136:220,1,105,2|0,0:0|3:2,0:0:0:0:
96,296,174223,1,2,0:0:0:0:
228,244,174381,1,8,0:0:0:0:
136,76,174539,1,2,0:0:0:0:
376,168,174697,5,2,3:2:0:0:
300,32,174855,1,2,0:0:0:0:
228,244,175012,1,10,0:0:0:0:
384,64,175170,1,2,0:0:0:0:
188,152,175328,1,2,3:2:0:0:
216,40,175486,1,2,0:0:0:0:
320,284,175644,1,10,0:0:0:0:
468,88,175802,1,2,0:0:0:0:
188,152,175960,6,2,P|244:144|312:152,1,105,2|0,3:2|0:0,0:0:0:0:
120,44,176276,1,10,0:0:0:0:
80,164,176434,2,2,P|78:216|85:268,1,105,2|0,0:0|3:2,0:0:0:0:
292,147,176749,2,2,P|293:94|286:42,1,105,2|8,0:0|0:0,0:0:0:0:
236,232,177065,1,0,0:0:0:0:
236,232,177223,6,0,P|308:240|346:226,1,105,14|2,3:2|0:0,0:0:0:0:
192,60,177539,2,2,P|184:112|192:180,1,105,10|0,0:0|0:0,0:0:0:0:
188,163,177855,1,2,3:2:0:0:
92,44,178012,1,2,0:0:0:0:
72,272,178170,1,10,0:0:0:0:
280,176,178328,1,2,0:0:0:0:
92,48,178486,5,2,3:2:0:0:
49,76,178565,1,2,0:0:0:0:
34,125,178644,1,2,0:0:0:0:
54,172,178723,1,2,0:0:0:0:
99,196,178802,1,10,0:0:0:0:
142,224,178881,1,2,0:0:0:0:
157,273,178960,1,2,0:0:0:0:
137,321,179039,1,2,0:0:0:0:
84,332,179118,5,2,3:2:0:0:
78,280,179197,1,2,0:0:0:0:
92,229,179276,1,2,0:0:0:0:
123,188,179355,1,2,0:0:0:0:
168,160,179434,1,10,0:0:0:0:
219,151,179512,1,2,0:0:0:0:
271,153,179591,1,2,0:0:0:0:
320,172,179670,1,2,0:0:0:0:
360,196,179749,6,2,P|368:276|248:160,1,420,2|2,3:2|0:0,0:0:0:0:
288,120,181644,1,0,0:0:0:0:
372,120,182276,5,4,0:0:0:0:
416,200,182907,1,0,0:0:0:0:
276,320,183539,5,0,0:0:0:0:
224,180,184170,1,0,0:0:0:0:
188,280,184486,1,0,0:0:0:0:
384,188,184802,5,4,0:0:0:0:
360,32,185118,1,0,0:0:0:0:
360,32,185276,1,0,0:0:0:0:
224,172,185749,1,0,0:0:0:0:
92,44,186065,5,4,0:0:0:0:
176,276,186697,1,0,0:0:0:0:
224,176,187012,1,0,0:0:0:0:
292,32,187328,5,4,0:0:0:0:
292,40,188276,1,0,0:0:0:0:
360,260,188591,6,0,P|324:304|228:136,1,367.5,4|0,0:0|0:0,0:0:0:0:
272,220,189855,5,0,3:2:0:0:
272,220,190012,1,0,0:0:0:0:
296,76,190170,1,8,0:0:0:0:
296,76,190328,1,0,0:0:0:0:
432,180,190486,1,0,3:2:0:0:
432,180,190644,1,0,0:0:0:0:
348,280,190802,1,8,0:0:0:0:
384,68,190960,1,0,0:0:0:0:
100,144,191118,6,0,P|160:160|204:156,1,105,8|0,3:2|0:0,0:0:0:0:
208,256,191434,2,0,P|276:220|308:180,1,105,8|0,0:0|0:0,0:0:0:0:
328,40,191749,1,0,3:2:0:0:
328,40,191907,2,0,P|259:35|207:53,2,105,0|0|0,3:2|0:0|0:0,0:0:0:0:
312,264,192381,5,8,3:2:0:0:
245,197,192539,1,0,0:0:0:0:
312,130,192697,1,8,0:0:0:0:
378,197,192855,1,0,0:0:0:0:
196,104,193012,5,0,3:2:0:0:
130,37,193170,1,0,0:0:0:0:
63,104,193328,1,8,0:0:0:0:
130,171,193486,1,0,0:0:0:0:
312,268,193644,5,8,0:0:0:0:
312,268,193802,1,0,0:0:0:0:
380,104,193960,1,0,3:2:0:0:
380,104,194118,1,0,0:0:0:0:
164,144,194276,1,8,0:0:0:0:
173,213,194434,1,0,0:0:0:0:
182,282,194591,1,0,3:2:0:0:
192,352,194749,1,0,0:0:0:0:
70,200,194907,6,0,P|134:216|198:204,1,105,4|0,3:2|0:0,0:0:0:0:
384,132,195223,1,8,0:0:0:0:
384,132,195381,1,0,0:0:0:0:
248,72,195539,1,8,0:0:0:0:
376,280,195697,1,0,0:0:0:0:
188,196,195855,1,8,0:0:0:0:
356,56,196012,1,0,0:0:0:0:
272,200,196170,6,0,P|248:248|112:224,1,210,0|0,3:2|0:0,0:0:0:0:
114,229,196644,1,0,0:0:0:0:
212,344,196802,1,8,0:0:0:0:
200,124,196960,1,0,0:0:0:0:
128,320,197118,1,0,3:2:0:0:
364,232,197276,1,0,0:0:0:0:
264,40,197434,5,0,3:2:0:0:
240,212,197591,1,0,0:0:0:0:
372,112,197749,1,8,0:0:0:0:
176,80,197907,2,0,P|156:136|164:204,1,105
168,260,198223,1,0,0:0:0:0:
308,48,198381,1,8,0:0:0:0:
324,216,198539,1,0,0:0:0:0:
184,80,198697,5,0,3:2:0:0:
116,284,198855,1,0,0:0:0:0:
32,124,199012,1,8,0:0:0:0:
224,236,199170,1,0,0:0:0:0:
184,80,199328,1,0,3:2:0:0:
48,240,199486,1,0,0:0:0:0:
100,40,199644,1,8,0:0:0:0:
152,332,199802,1,8,0:0:0:0:
384,160,199960,6,0,P|388:80|296:64,1,183.75,8|0,0:0|0:0,0:0:0:0:
292,40,200591,2,0,L|220:232,1,183.75,0|0,3:2|0:0,0:0:0:0:
176,56,201223,5,8,0:0:0:0:
108,336,201381,1,0,0:0:0:0:
292,156,201539,1,8,0:0:0:0:
368,340,201697,1,0,0:0:0:0:
106,63,201855,1,0,0:0:0:0:
208,148,202012,1,0,0:0:0:0:
224,225,202170,1,0,0:0:0:0:
239,302,202328,1,0,0:0:0:0:
308,184,202486,6,2,P|312:104|200:52,1,210,6|10,3:2|0:0,0:0:0:0:
220,140,202960,1,2,0:0:0:0:
392,64,203118,1,2,3:2:0:0:
364,256,203276,1,2,0:0:0:0:
232,28,203434,1,10,0:0:0:0:
120,168,203591,1,2,0:0:0:0:
300,88,203749,6,2,P|352:136|427:139,1,105,2|2,3:2|0:0,0:0:0:0:
282,270,204065,1,10,0:0:0:0:
378,51,204223,1,2,0:0:0:0:
454,230,204381,1,2,3:2:0:0:
248,172,204539,5,2,3:2:0:0:
172,240,204697,1,10,0:0:0:0:
268,268,204855,1,2,0:0:0:0:
148,96,205012,5,2,3:2:0:0:
72,296,205170,1,2,0:0:0:0:
272,172,205328,1,10,0:0:0:0:
52,160,205486,1,2,0:0:0:0:
216,320,205644,1,2,3:2:0:0:
216,320,205802,1,2,0:0:0:0:
188,56,205960,1,10,0:0:0:0:
396,192,206118,1,2,0:0:0:0:
124,324,206276,6,2,P|188:236|304:276,1,210,2|10,3:2|0:0,0:0:0:0:
360,320,206749,2,2,P|388:268|380:208,1,105,2|2,0:0|3:2,0:0:0:0:
244,116,207065,2,2,P|218:160|219:212,1,105,2|10,0:0|0:0,0:0:0:0:
320,52,207381,1,2,3:2:0:0:
320,52,207539,5,6,3:2:0:0:
128,112,207697,1,2,0:0:0:0:
304,188,207855,2,2,L|284:300,1,105,10|2,0:0|0:0,0:0:0:0:
286,291,208170,1,2,3:2:0:0:
184,224,208328,1,2,0:0:0:0:
140,332,208486,1,10,0:0:0:0:
110,164,208644,1,2,0:0:0:0:
286,291,208802,6,2,P|336:228|464:268,1,210,2|10,3:2|0:0,0:0:0:0:
400,120,209276,1,2,0:0:0:0:
400,120,209434,1,2,3:2:0:0:
380,304,209591,1,2,0:0:0:0:
286,291,209749,1,10,0:0:0:0:
188,352,209907,1,2,0:0:0:0:
108,80,210065,6,2,P|112:136|260:152,1,210,2|10,3:2|0:0,0:0:0:0:
264,28,210539,1,2,0:0:0:0:
264,28,210697,1,2,3:2:0:0:
184,112,210855,2,2,L|192:260,1,105,2|10,0:0|0:0,0:0:0:0:
280,328,211170,1,2,0:0:0:0:
280,328,211328,5,2,3:2:0:0:
344,196,211486,1,2,0:0:0:0:
396,348,211644,1,10,0:0:0:0:
432,260,211802,1,2,0:0:0:0:
280,328,211960,1,10,0:0:0:0:
204,164,212118,1,2,0:0:0:0:
200,189,212276,1,2,0:0:0:0:
195,215,212434,1,2,0:0:0:0:
64,124,212591,5,10,3:2:0:0:
304,208,212749,1,2,0:0:0:0:
80,220,212907,1,10,0:0:0:0:
272,96,213065,1,2,0:0:0:0:
208,288,213223,1,2,3:2:0:0:
208,288,213381,1,2,0:0:0:0:
164,104,213539,1,10,0:0:0:0:
164,104,213697,1,2,0:0:0:0:
372,184,213855,5,2,3:2:0:0:
304,40,214012,1,2,0:0:0:0:
248,256,214170,1,10,0:0:0:0:
392,72,214328,1,2,0:0:0:0:
392,72,214486,1,2,3:2:0:0:
168,180,214644,2,2,P|148:228|160:316,1,105,2|10,0:0|0:0,0:0:0:0:
212,100,214960,1,2,0:0:0:0:
248,256,215118,5,2,3:2:0:0:
376,128,215276,1,2,0:0:0:0:
416,340,215434,1,10,0:0:0:0:
264,144,215591,1,2,0:0:0:0:
440,224,215749,1,2,3:2:0:0:
272,344,215907,1,2,0:0:0:0:
328,66,216065,1,10,0:0:0:0:
160,264,216223,1,2,0:0:0:0:
136,32,216381,6,2,P|200:36|260:156,1,210,2|10,3:2|0:0,0:0:0:0:
248,256,216855,1,2,0:0:0:0:
368,64,217012,1,2,3:2:0:0:
164,120,217170,2,2,P|144:176|160:256,1,105,2|10,0:0|0:0,0:0:0:0:
404,168,217486,1,2,0:0:0:0:
384,272,217644,6,2,L|382:161,1,105,6|2,3:2|0:0,0:0:0:0:
464,312,217960,2,2,P|404:360|340:344,1,105,10|2,0:0|0:0,0:0:0:0:
200,320,218276,1,2,3:2:0:0:
200,320,218434,1,2,0:0:0:0:
232,56,218591,1,10,0:0:0:0:
404,168,218749,1,2,0:0:0:0:
320,32,218907,6,2,P|308:88|320:168,1,105,2|2,3:2|0:0,0:0:0:0:
188,136,219223,2,2,P|200:196|240:256,1,105,10|2,0:0|0:0,0:0:0:0:
232,56,219539,1,2,3:2:0:0:
84,232,219697,1,2,3:2:0:0:
284,160,219855,1,10,0:0:0:0:
80,88,220012,1,2,0:0:0:0:
184,316,220170,5,2,3:2:0:0:
229,341,220249,1,2,0:0:0:0:
281,339,220328,1,2,0:0:0:0:
323,310,220407,1,2,0:0:0:0:
343,262,220486,1,10,0:0:0:0:
327,213,220565,1,2,0:0:0:0:
344,164,220644,1,2,0:0:0:0:
387,137,220723,1,2,0:0:0:0:
440,144,220802,5,2,3:2:0:0:
479,177,220881,1,2,0:0:0:0:
488,228,220960,1,2,0:0:0:0:
461,272,221039,1,2,0:0:0:0:
413,290,221118,1,10,0:0:0:0:
365,272,221197,1,2,0:0:0:0:
323,242,221276,1,2,0:0:0:0:
272,232,221355,1,2,0:0:0:0:
221,243,221434,5,2,3:2:0:0:
152,100,221591,1,2,0:0:0:0:
124,308,221749,5,10,0:0:0:0:
232,56,221907,1,2,0:0:0:0:
344,260,222065,5,2,3:2:0:0:
84,168,222223,1,2,0:0:0:0:
84,168,222302,1,2,0:0:0:0:
84,168,222381,1,10,0:0:0:0:
324,32,222539,1,2,0:0:0:0:
456,144,222697,6,2,P|392:172|324:164,1,105,2|2,3:2|0:0,0:0:0:0:
396,300,223012,2,2,P|345:295|298:271,1,105,10|2,0:0|0:0,0:0:0:0:
56,144,223328,6,2,P|120:172|188:164,1,105,2|2,3:2|0:0,0:0:0:0:
116,300,223644,2,2,P|168:295|215:271,1,105,10|2,0:0|0:0,0:0:0:0:
320,120,223960,2,2,P|248:112|176:148,1,105,2|2,3:2|0:0,0:0:0:0:
332,248,224276,2,2,P|404:256|476:220,1,105,10|2,0:0|0:0,0:0:0:0:
392,340,224591,1,2,3:2:0:0:
404,140,224749,1,2,3:2:0:0:
232,224,224907,2,2,P|220:280|236:340,1,105,10|2,0:0|0:0,0:0:0:0:
96,88,225223,6,2,P|160:76|216:88,1,105,2|2,3:2|0:0,0:0:0:0:
164,176,225539,2,2,P|240:192|276:224,1,105,10|2,0:0|0:0,0:0:0:0:
360,32,225855,2,2,P|340:92|332:164,1,105,2|2,3:2|0:0,0:0:0:0:
460,288,226170,2,2,P|451:236|434:186,1,105,10|2,0:0|0:0,0:0:0:0:
152,288,226486,6,2,P|224:304|288:292,1,105,2|2,3:2|0:0,0:0:0:0:
168,168,226802,2,2,P|118:153|66:154,1,105,10|2,0:0|0:0,0:0:0:0:
100,56,227118,1,2,3:2:0:0:
104,228,227276,1,2,0:0:0:0:
252,104,227434,1,10,0:0:0:0:
304,208,227591,1,2,0:0:0:0:
304,208,227749,5,6,3:2:0:0:
364,104,227907,1,2,0:0:0:0:
240,120,228065,2,2,P|184:136|140:184,1,105,10|2,0:0|0:0,0:0:0:0:
328,224,228381,2,2,P|379:211|418:177,1,105,2|2,3:2|0:0,0:0:0:0:
232,228,228697,2,2,P|252:308|304:340,1,105,10|2,0:0|0:0,0:0:0:0:
184,124,229012,6,2,P|120:128|56:176,1,105,2|2,3:2|0:0,0:0:0:0:
332,224,229328,2,2,P|396:220|460:172,1,105,10|2,0:0|0:0,0:0:0:0:
168,352,229644,2,2,L|144:240,1,105,2|2,3:2|3:2,0:0:0:0:
64,336,229960,1,10,0:0:0:0:
232,228,230118,1,2,0:0:0:0:
232,228,230276,5,2,3:2:0:0:
268,320,230434,1,2,0:0:0:0:
400,248,230591,1,10,0:0:0:0:
372,352,230749,1,2,0:0:0:0:
320,180,230907,1,2,3:2:0:0:
272,332,231065,1,2,0:0:0:0:
424,132,231223,1,10,0:0:0:0:
424,132,231302,1,2,0:0:0:0:
424,132,231381,1,2,0:0:0:0:
188,264,231539,5,2,3:2:0:0:
216,40,231697,1,2,0:0:0:0:
332,248,231855,1,10,0:0:0:0:
80,136,232012,1,2,0:0:0:0:
104,340,232170,1,2,3:2:0:0:
208,136,232328,1,2,0:0:0:0:
208,136,232407,1,2,0:0:0:0:
208,136,232486,1,10,0:0:0:0:
300,360,232644,1,2,0:0:0:0:
384,96,232802,6,2,P|404:144|384:224,1,105,6|2,3:2|0:0,0:0:0:0:
196,320,233118,2,2,P|177:272|181:220,1,105,10|2,0:0|0:0,0:0:0:0:
288,88,233434,2,2,P|348:76|424:88,1,105,2|2,3:2|0:0,0:0:0:0:
285,210,233749,2,2,P|234:221|182:218,1,105,10|2,0:0|0:0,0:0:0:0:
96,72,234065,6,2,P|80:176|92:208,1,105,2|2,3:2|0:0,0:0:0:0:
8,244,234381,2,2,P|76:284|136:268,1,105,10|2,0:0|0:0,0:0:0:0:
200,256,234697,1,2,3:2:0:0:
312,328,234855,1,2,3:2:0:0:
312,328,235012,2,2,L|320:212,1,105,10|2,0:0|0:0,0:0:0:0:
416,72,235328,6,2,P|364:68|296:88,1,105,2|2,3:2|0:0,0:0:0:0:
92,148,235644,2,2,P|168:156|216:188,1,105,10|2,0:0|0:0,0:0:0:0:
440,228,235960,2,2,P|388:224|337:236,1,105,2|2,3:2|0:0,0:0:0:0:
117,303,236276,2,2,P|170:303|218:323,1,105,10|2,0:0|0:0,0:0:0:0:
128,52,236591,6,2,P|132:140|112:192,1,105,2|2,3:2|0:0,0:0:0:0:
288,296,236907,2,2,P|281:244|289:192,1,105,14|2,0:0|0:0,0:0:0:0:
376,244,237223,1,2,3:2:0:0:
228,108,237381,2,2,P|292:92|348:100,1,105,2|10,0:0|0:0,0:0:0:0:
448,132,237697,1,2,0:0:0:0:
448,132,237855,5,6,3:2:0:0:
344,200,238012,1,2,0:0:0:0:
452,272,238170,2,2,P|380:292|344:280,1,105,10|2,0:0|0:0,0:0:0:0:
196,144,238486,2,2,P|252:120|316:128,1,105,2|2,3:2|0:0,0:0:0:0:
80,144,238802,2,2,P|108:192|120:272,1,105,10|2,0:0|0:0,0:0:0:0:
32,272,239118,6,2,P|52:324|200:288,1,210,2|10,3:2|0:0,0:0:0:0:
228,164,239591,1,2,0:0:0:0:
120,272,239749,1,2,3:2:0:0:
380,340,239907,2,2,L|364:224,1,105,10|10,3:2|0:0,0:0:0:0:
336,48,240223,1,2,3:2:0:0:
105,90,240381,5,0,3:2:0:0:
396,253,240539,1,2,0:0:0:0:
95,272,240697,5,10,0:0:0:0:
421,85,240855,1,2,0:0:0:0:
43,97,241012,5,2,3:2:0:0:
471,329,241170,1,2,0:0:0:0:
6,263,241328,5,10,0:0:0:0:
365,24,241486,1,2,0:0:0:0:
309,366,241644,5,10,0:0:0:0:
156,24,241802,1,2,0:0:0:0:
89,354,241960,5,10,0:0:0:0:
308,22,242118,1,2,0:0:0:0:
301,306,242276,5,10,0:0:0:0:
226,85,242434,1,2,0:0:0:0:
154,283,242591,5,10,0:0:0:0:
331,120,242749,1,2,0:0:0:0:
256,192,242907,12,2,251434,0:0:0:0:
51,166,251749,5,0,3:2:0:0:
366,234,251907,1,0,0:0:0:0:
177,41,252065,5,8,0:0:0:0:
103,307,252223,1,0,0:0:0:0:
379,133,252381,5,0,3:2:0:0:
87,64,252539,1,0,0:0:0:0:
281,348,252697,5,8,0:0:0:0:
345,13,252855,1,0,0:0:0:0:
454,133,253012,5,0,0:0:0:0:
416,207,253170,1,0,0:0:0:0:
338,174,253328,2,0,P|332:228|342:279,1,78.7500030040742
376,333,253644,2,0,P|313:343|282:339,1,78.7500030040742
235,89,254118,5,8,0:0:0:0:
104,147,254591,1,0,0:0:0:0:
251,298,254907,1,2,0:0:0:0:
391,105,255065,1,8,3:2:0:0:
397,335,255223,1,10,3:2:0:0:
179,33,255381,1,10,3:2:0:0:
256,192,255460,12,0,256802,0:0:0:0:
