osu file format v14

[General]
AudioFilename: audio.mp3
AudioLeadIn: 0
PreviewTime: 75766
Countdown: 0
SampleSet: Normal
StackLeniency: 0.7
Mode: 1
LetterboxInBreaks: 0
WidescreenStoryboard: 0

[Editor]
Bookmarks: 1635,10477,20582,30687,40792,50898,61003,71108,76161,85792,86266,95740,96371,105845,106477,116582,129056,130477
DistanceSpacing: 0.8
BeatDivisor: 4
GridSize: 32
TimelineZoom: 2.2

[Metadata]
Title:Happy Time wa Owaranai
TitleUnicode:ハッピータイムは終わらない
Artist:Nanamori-chu * Goraku-bu
ArtistUnicode:七森中☆ごらく部
Creator:eiri-
Version:Muzukashii
Source:ゆるゆり
Tags:Ayyri Realazy Real Dashyy- Dash hypercyte hyper lit120 -Hakurei- byd bite you death Naotoshi Nao Tomori Shiinoha Kotone Tomadoi Sotarks YuruYuri 三上枝織 大坪由佳 津田美波 大久保瑠美 Mikami Shiori Otsubo Yuka Tsuda Minami Okubo Rumi 赤座あかり Akaza Akari 歳納京子 Toshino Kyoko 船見結衣 Funami Yui 吉川ちなつ Yoshikawa Chinatsu YRYR Yuru Yuri
BeatmapID:1625589
BeatmapSetID:773330

[Difficulty]
HPDrainRate:5
CircleSize:2
OverallDifficulty:5
ApproachRate:10
SliderMultiplier:1.4
SliderTickRate:1

[Events]
//Background and Video events
0,0,"Himawari Chitose Rise Sakurako Ayano 563.jpg",0,0
//Break Periods
//Storyboard Layer 0 (Background)
//Storyboard Layer 1 (Fail)
//Storyboard Layer 2 (Pass)
//Storyboard Layer 3 (Foreground)
//Storyboard Sound Samples

[TimingPoints]
1635,315.789473684211,4,1,0,75,1,0
20582,-100,4,1,0,75,0,1
30687,-100,4,1,0,75,0,0
76161,-100,4,1,0,75,0,1
85792,-100,4,1,0,75,0,0
86266,-100,4,1,0,75,0,1
95740,-100,4,1,0,75,0,0
96371,-100,4,1,0,75,0,1
105845,-100,4,1,0,75,0,0
106477,-100,4,1,0,75,0,1
116582,-100,4,1,0,75,0,0

[Colours]
Combo1 : 164,0,0
Combo2 : 255,117,117
Combo3 : 255,255,106
Combo4 : 219,219,219
SliderBorder : 255,152,154
SliderTrackOverride : 10,9,20

[HitObjects]
256,192,10003,5,4,0:0:0:0:
256,192,10161,1,4,0:0:0:0:
256,192,10319,1,4,0:0:0:0:
256,192,10477,1,12,0:0:0:0:
256,192,10792,1,0,0:0:0:0:
256,192,11108,1,0,0:0:0:0:
256,192,11266,1,8,0:0:0:0:
256,192,11740,1,0,0:0:0:0:
256,192,12056,1,8,0:0:0:0:
256,192,12213,1,8,0:0:0:0:
256,192,12529,1,0,0:0:0:0:
256,192,12687,1,8,0:0:0:0:
256,192,12845,1,0,0:0:0:0:
256,192,13003,1,12,0:0:0:0:
256,192,13635,1,0,0:0:0:0:
256,192,13792,1,0,0:0:0:0:
256,192,13950,1,8,0:0:0:0:
256,192,14108,1,0,0:0:0:0:
256,192,14266,1,12,0:0:0:0:
256,192,14582,1,0,0:0:0:0:
256,192,14740,1,8,0:0:0:0:
256,192,15056,1,0,0:0:0:0:
256,192,15529,1,12,0:0:0:0:
256,192,15687,1,0,0:0:0:0:
256,192,15845,1,8,0:0:0:0:
256,192,16319,1,0,0:0:0:0:
256,192,16477,1,0,0:0:0:0:
256,192,16635,1,0,0:0:0:0:
256,192,16792,1,12,0:0:0:0:
256,192,17108,1,0,0:0:0:0:
256,192,17266,1,8,0:0:0:0:
256,192,17582,1,0,0:0:0:0:
256,192,17740,1,8,0:0:0:0:
256,192,18056,1,12,0:0:0:0:
256,192,18371,1,0,0:0:0:0:
256,192,18687,1,12,0:0:0:0:
256,192,19319,1,12,0:0:0:0:
256,192,19635,1,12,0:0:0:0:
256,192,20108,1,4,0:0:0:0:
256,192,20266,1,4,0:0:0:0:
256,192,20424,1,4,0:0:0:0:
256,192,20582,1,12,0:0:0:0:
256,192,20898,1,0,0:0:0:0:
256,192,21056,1,8,0:0:0:0:
256,192,21213,1,0,0:0:0:0:
256,192,21292,1,0,0:0:0:0:
256,192,21371,1,0,0:0:0:0:
256,192,21529,1,0,0:0:0:0:
256,192,21845,1,8,0:0:0:0:
256,192,22003,1,0,0:0:0:0:
256,192,22161,1,8,0:0:0:0:
256,192,22319,1,8,0:0:0:0:
256,192,22635,1,0,0:0:0:0:
256,192,22713,1,0,0:0:0:0:
256,192,22792,1,0,0:0:0:0:
256,192,22950,1,8,0:0:0:0:
256,192,23108,1,0,0:0:0:0:
256,192,23582,1,0,0:0:0:0:
256,192,23740,1,8,0:0:0:0:
256,192,24056,1,0,0:0:0:0:
256,192,24213,1,8,0:0:0:0:
256,192,24371,1,8,0:0:0:0:
256,192,24687,1,0,0:0:0:0:
256,192,24845,1,8,0:0:0:0:
256,192,25003,1,0,0:0:0:0:
256,192,25161,1,8,0:0:0:0:
256,192,25240,1,8,0:0:0:0:
256,192,25319,1,8,0:0:0:0:
256,192,25477,1,0,0:0:0:0:
256,192,25635,1,12,0:0:0:0:
256,192,25950,1,0,0:0:0:0:
256,192,26424,1,8,0:0:0:0:
256,192,26582,1,8,0:0:0:0:
256,192,26740,1,0,0:0:0:0:
256,192,26898,1,8,0:0:0:0:
256,192,27213,1,0,0:0:0:0:
256,192,27529,1,0,0:0:0:0:
256,192,27687,1,8,0:0:0:0:
256,192,27766,1,8,0:0:0:0:
256,192,27845,1,8,0:0:0:0:
256,192,28003,1,0,0:0:0:0:
256,192,28161,1,8,0:0:0:0:
256,192,28319,1,0,0:0:0:0:
256,192,28477,1,8,0:0:0:0:
256,192,28792,1,0,0:0:0:0:
256,192,28950,1,0,0:0:0:0:
256,192,29108,1,8,0:0:0:0:
256,192,29424,1,0,0:0:0:0:
256,192,29582,1,8,0:0:0:0:
256,192,29740,1,0,0:0:0:0:
256,192,29819,1,0,0:0:0:0:
256,192,29898,1,0,0:0:0:0:
256,192,30056,1,0,0:0:0:0:
256,192,30213,1,8,0:0:0:0:
256,192,30292,1,8,0:0:0:0:
256,192,30371,1,8,0:0:0:0:
256,192,30529,1,0,0:0:0:0:
256,192,30687,1,12,0:0:0:0:
256,192,31319,1,8,0:0:0:0:
256,192,31477,1,8,0:0:0:0:
256,192,31792,1,0,0:0:0:0:
256,192,31950,1,8,0:0:0:0:
256,192,32266,1,0,0:0:0:0:
256,192,32582,1,12,0:0:0:0:
256,192,32740,1,12,0:0:0:0:
256,192,32898,1,12,0:0:0:0:
256,192,33056,1,12,0:0:0:0:
256,192,33213,1,4,0:0:0:0:
256,192,33529,1,8,0:0:0:0:
256,192,33687,1,0,0:0:0:0:
256,192,33845,1,8,0:0:0:0:
256,192,34003,1,8,0:0:0:0:
256,192,34319,1,8,0:0:0:0:
256,192,34477,1,0,0:0:0:0:
256,192,34792,1,8,0:0:0:0:
256,192,35108,1,0,0:0:0:0:
256,192,35266,1,8,0:0:0:0:
256,192,35424,1,0,0:0:0:0:
256,192,35503,1,0,0:0:0:0:
256,192,35582,1,0,0:0:0:0:
256,192,35740,1,12,0:0:0:0:
256,192,36371,1,8,0:0:0:0:
256,192,36529,1,8,0:0:0:0:
256,192,36845,1,0,0:0:0:0:
256,192,37003,1,8,0:0:0:0:
256,192,37319,1,0,0:0:0:0:
256,192,37635,1,12,0:0:0:0:
256,192,37792,1,12,0:0:0:0:
256,192,37950,1,12,0:0:0:0:
256,192,38108,1,12,0:0:0:0:
256,192,38266,1,4,0:0:0:0:
256,192,38582,1,8,0:0:0:0:
256,192,38740,1,0,0:0:0:0:
256,192,38898,1,8,0:0:0:0:
256,192,38977,1,8,0:0:0:0:
256,192,39056,1,8,0:0:0:0:
256,192,39213,1,0,0:0:0:0:
256,192,39371,1,8,0:0:0:0:
256,192,39529,1,0,0:0:0:0:
256,192,39845,1,8,0:0:0:0:
256,192,40003,1,0,0:0:0:0:
256,192,40161,1,8,0:0:0:0:
256,192,40240,1,8,0:0:0:0:
256,192,40319,1,8,0:0:0:0:
256,192,40477,1,0,0:0:0:0:
256,192,40635,1,8,0:0:0:0:
256,192,40950,1,8,0:0:0:0:
256,192,41424,1,8,0:0:0:0:
256,192,41582,1,8,0:0:0:0:
256,192,41740,1,0,0:0:0:0:
256,192,42056,1,8,0:0:0:0:
256,192,42371,1,0,0:0:0:0:
256,192,42529,1,8,0:0:0:0:
256,192,42687,1,0,0:0:0:0:
256,192,42766,1,0,0:0:0:0:
256,192,42845,1,0,0:0:0:0:
256,192,43003,1,8,0:0:0:0:
256,192,43161,1,8,0:0:0:0:
256,192,43477,1,0,0:0:0:0:
256,192,43635,1,8,0:0:0:0:
256,192,43792,1,8,0:0:0:0:
256,192,43950,1,0,0:0:0:0:
256,192,44108,1,8,0:0:0:0:
256,192,44424,1,8,0:0:0:0:
256,192,44582,1,0,0:0:0:0:
256,192,44898,1,8,0:0:0:0:
256,192,45056,1,8,0:0:0:0:
256,192,45213,1,0,0:0:0:0:
256,192,45292,1,0,0:0:0:0:
256,192,45371,1,0,0:0:0:0:
256,192,45529,1,0,0:0:0:0:
256,192,45687,1,8,0:0:0:0:
256,192,46003,1,8,0:0:0:0:
256,192,46161,1,0,0:0:0:0:
256,192,46319,1,8,0:0:0:0:
256,192,46477,1,0,0:0:0:0:
256,192,46950,1,0,0:0:0:0:
256,192,47108,1,8,0:0:0:0:
256,192,47424,1,0,0:0:0:0:
256,192,47582,1,8,0:0:0:0:
256,192,47661,1,8,0:0:0:0:
256,192,47740,1,8,0:0:0:0:
256,192,47898,1,0,0:0:0:0:
256,192,48056,1,8,0:0:0:0:
256,192,48213,1,0,0:0:0:0:
256,192,48371,1,8,0:0:0:0:
256,192,48687,1,0,0:0:0:0:
256,192,48845,1,8,0:0:0:0:
256,192,49003,1,0,0:0:0:0:
256,192,49319,1,8,0:0:0:0:
256,192,49635,1,0,0:0:0:0:
256,192,49713,1,0,0:0:0:0:
256,192,49792,1,0,0:0:0:0:
256,192,49950,1,8,0:0:0:0:
256,192,50108,1,0,0:0:0:0:
256,192,50266,1,8,0:0:0:0:
256,192,50582,1,12,0:0:0:0:
256,192,50898,1,4,0:0:0:0:
256,192,51056,1,8,0:0:0:0:
256,192,51213,1,0,0:0:0:0:
256,192,51529,1,0,0:0:0:0:
256,192,51687,1,8,0:0:0:0:
256,192,52161,1,8,0:0:0:0:
256,192,52477,1,0,0:0:0:0:
256,192,52635,1,8,0:0:0:0:
256,192,52950,1,0,0:0:0:0:
256,192,53266,1,8,0:0:0:0:
256,192,53424,1,0,0:0:0:0:
256,192,53582,1,8,0:0:0:0:
256,192,53661,1,8,0:0:0:0:
256,192,53740,1,8,0:0:0:0:
256,192,53898,1,0,0:0:0:0:
256,192,54056,1,8,0:0:0:0:
256,192,54371,1,0,0:0:0:0:
256,192,54529,1,8,0:0:0:0:
256,192,54687,1,0,0:0:0:0:
256,192,55003,1,0,0:0:0:0:
256,192,55082,1,0,0:0:0:0:
256,192,55161,1,0,0:0:0:0:
256,192,55319,1,8,0:0:0:0:
256,192,55477,1,8,0:0:0:0:
256,192,55635,1,0,0:0:0:0:
256,192,55792,1,0,0:0:0:0:
256,192,55950,1,12,0:0:0:0:
256,192,56424,1,0,0:0:0:0:
256,192,56582,1,0,0:0:0:0:
256,192,56740,1,8,0:0:0:0:
256,192,56898,1,0,0:0:0:0:
256,192,57213,1,8,0:0:0:0:
256,192,57371,1,8,0:0:0:0:
256,192,57529,1,0,0:0:0:0:
256,192,57845,1,8,0:0:0:0:
256,192,58161,1,0,0:0:0:0:
256,192,58319,1,8,0:0:0:0:
256,192,58477,1,0,0:0:0:0:
256,192,59108,1,0,0:0:0:0:
256,192,59266,1,8,0:0:0:0:
256,192,59582,1,0,0:0:0:0:
256,192,59740,1,0,0:0:0:0:
256,192,59819,1,0,0:0:0:0:
256,192,59898,1,0,0:0:0:0:
256,192,60056,1,8,0:0:0:0:
256,192,60213,1,0,0:0:0:0:
256,192,60371,1,8,0:0:0:0:
256,192,60529,1,8,0:0:0:0:
256,192,60608,1,8,0:0:0:0:
256,192,60687,1,8,0:0:0:0:
256,192,60845,1,0,0:0:0:0:
256,192,61003,1,12,0:0:0:0:
256,192,61161,1,0,0:0:0:0:
256,192,61477,1,0,0:0:0:0:
256,192,61635,1,8,0:0:0:0:
256,192,61792,1,0,0:0:0:0:
256,192,62266,1,0,0:0:0:0:
256,192,62582,1,8,0:0:0:0:
256,192,62740,1,0,0:0:0:0:
256,192,63056,1,0,0:0:0:0:
256,192,63213,1,8,0:0:0:0:
256,192,63371,1,0,0:0:0:0:
256,192,63529,1,8,0:0:0:0:
256,192,64161,1,8,0:0:0:0:
256,192,64477,1,8,0:0:0:0:
256,192,64635,1,0,0:0:0:0:
256,192,64792,1,8,0:0:0:0:
256,192,65108,1,0,0:0:0:0:
256,192,65266,1,8,0:0:0:0:
256,192,65424,1,0,0:0:0:0:
256,192,65740,1,0,0:0:0:0:
256,192,65819,1,0,0:0:0:0:
256,192,65898,1,0,0:0:0:0:
256,192,66056,1,12,0:0:0:0:
256,192,66213,1,0,0:0:0:0:
256,192,66529,1,0,0:0:0:0:
256,192,66687,1,8,0:0:0:0:
256,192,66845,1,0,0:0:0:0:
256,192,67319,1,8,0:0:0:0:
256,192,67477,1,0,0:0:0:0:
256,192,67635,1,8,0:0:0:0:
256,192,67950,1,0,0:0:0:0:
256,192,68108,1,8,0:0:0:0:
256,192,68266,1,0,0:0:0:0:
256,192,68424,1,8,0:0:0:0:
256,192,68503,1,8,0:0:0:0:
256,192,68582,1,8,0:0:0:0:
256,192,68898,1,8,0:0:0:0:
256,192,69056,1,0,0:0:0:0:
256,192,69213,1,8,0:0:0:0:
256,192,69845,1,8,0:0:0:0:
256,192,70161,1,8,0:0:0:0:
256,192,70319,1,0,0:0:0:0:
256,192,70477,1,8,0:0:0:0:
256,192,70792,1,0,0:0:0:0:
256,192,71108,1,12,0:0:0:0:
256,192,71424,1,0,0:0:0:0:
256,192,71740,1,12,0:0:0:0:
256,192,72056,1,0,0:0:0:0:
256,192,72371,1,12,0:0:0:0:
256,192,72687,1,0,0:0:0:0:
256,192,73003,1,12,0:0:0:0:
256,192,73161,1,0,0:0:0:0:
256,192,73477,1,0,0:0:0:0:
256,192,73635,1,12,0:0:0:0:
256,192,73950,1,0,0:0:0:0:
256,192,74108,1,0,0:0:0:0:
256,192,74266,1,8,0:0:0:0:
256,192,74345,1,8,0:0:0:0:
256,192,74424,1,8,0:0:0:0:
256,192,74582,1,0,0:0:0:0:
256,192,74740,1,0,0:0:0:0:
256,192,74898,1,12,0:0:0:0:
256,192,75213,1,4,0:0:0:0:
256,192,75529,1,12,0:0:0:0:
256,192,75687,1,4,0:0:0:0:
256,192,75845,1,4,0:0:0:0:
256,192,76003,1,4,0:0:0:0:
256,192,76161,1,12,0:0:0:0:
256,192,76477,1,0,0:0:0:0:
256,192,76635,1,8,0:0:0:0:
256,192,76792,1,0,0:0:0:0:
256,192,76950,1,8,0:0:0:0:
256,192,77029,1,8,0:0:0:0:
256,192,77108,1,8,0:0:0:0:
256,192,77266,1,0,0:0:0:0:
256,192,77424,1,8,0:0:0:0:
256,192,77740,1,8,0:0:0:0:
256,192,77898,1,8,0:0:0:0:
256,192,78213,1,0,0:0:0:0:
256,192,78371,1,8,0:0:0:0:
256,192,78529,1,8,0:0:0:0:
256,192,78687,1,0,0:0:0:0:
256,192,79319,1,0,0:0:0:0:
256,192,79635,1,8,0:0:0:0:
256,192,79792,1,0,0:0:0:0:
256,192,79950,1,8,0:0:0:0:
256,192,80266,1,0,0:0:0:0:
256,192,80424,1,8,0:0:0:0:
256,192,80582,1,0,0:0:0:0:
256,192,80740,1,8,0:0:0:0:
256,192,80819,1,8,0:0:0:0:
256,192,80898,1,8,0:0:0:0:
256,192,81056,1,0,0:0:0:0:
256,192,81213,1,12,0:0:0:0:
256,192,81371,1,0,0:0:0:0:
256,192,81529,1,8,0:0:0:0:
256,192,82003,1,8,0:0:0:0:
256,192,82082,1,8,0:0:0:0:
256,192,82161,1,8,0:0:0:0:
256,192,82319,1,0,0:0:0:0:
256,192,82477,1,8,0:0:0:0:
256,192,82792,1,0,0:0:0:0:
256,192,82950,1,8,0:0:0:0:
256,192,83029,1,8,0:0:0:0:
256,192,83108,1,8,0:0:0:0:
256,192,83266,1,0,0:0:0:0:
256,192,83424,1,8,0:0:0:0:
256,192,83582,1,0,0:0:0:0:
256,192,83740,1,8,0:0:0:0:
256,192,84213,1,8,0:0:0:0:
256,192,84529,1,0,0:0:0:0:
256,192,84608,1,0,0:0:0:0:
256,192,84687,1,0,0:0:0:0:
256,192,84845,1,8,0:0:0:0:
256,192,85003,1,0,0:0:0:0:
256,192,85319,1,8,0:0:0:0:
256,192,85477,1,0,0:0:0:0:
256,192,85635,1,8,0:0:0:0:
256,192,85792,1,4,0:0:0:0:
256,192,85950,1,4,0:0:0:0:
256,192,86108,1,4,0:0:0:0:
256,192,86266,1,12,0:0:0:0:
256,192,86582,1,8,0:0:0:0:
256,192,86898,1,8,0:0:0:0:
256,192,87056,1,0,0:0:0:0:
256,192,87213,1,8,0:0:0:0:
256,192,87371,1,8,0:0:0:0:
256,192,87529,1,0,0:0:0:0:
256,192,87845,1,0,0:0:0:0:
256,192,88003,1,8,0:0:0:0:
256,192,88319,1,0,0:0:0:0:
256,192,88398,1,0,0:0:0:0:
256,192,88477,1,0,0:0:0:0:
256,192,88635,1,8,0:0:0:0:
256,192,88792,1,0,0:0:0:0:
256,192,89424,1,0,0:0:0:0:
256,192,89582,1,8,0:0:0:0:
256,192,89740,1,0,0:0:0:0:
256,192,89898,1,0,0:0:0:0:
256,192,90056,1,8,0:0:0:0:
256,192,90371,1,0,0:0:0:0:
256,192,90529,1,8,0:0:0:0:
256,192,90687,1,0,0:0:0:0:
256,192,90845,1,8,0:0:0:0:
256,192,91003,1,0,0:0:0:0:
256,192,91082,1,0,0:0:0:0:
256,192,91161,1,0,0:0:0:0:
256,192,91319,1,12,0:0:0:0:
256,192,91635,1,0,0:0:0:0:
256,192,92108,1,8,0:0:0:0:
256,192,92266,1,8,0:0:0:0:
256,192,92424,1,0,0:0:0:0:
256,192,92582,1,8,0:0:0:0:
256,192,92898,1,0,0:0:0:0:
256,192,93213,1,8,0:0:0:0:
256,192,93371,1,0,0:0:0:0:
256,192,93687,1,0,0:0:0:0:
256,192,93845,1,8,0:0:0:0:
256,192,93924,1,8,0:0:0:0:
256,192,94003,1,8,0:0:0:0:
256,192,94161,1,0,0:0:0:0:
256,192,94319,1,8,0:0:0:0:
256,192,94477,1,0,0:0:0:0:
256,192,94635,1,0,0:0:0:0:
256,192,94792,1,8,0:0:0:0:
256,192,95108,1,0,0:0:0:0:
256,192,95187,1,0,0:0:0:0:
256,192,95266,1,0,0:0:0:0:
256,192,95424,1,8,0:0:0:0:
256,192,95740,1,8,0:0:0:0:
256,192,95898,1,8,0:0:0:0:
256,192,95977,1,8,0:0:0:0:
256,192,96056,1,8,0:0:0:0:
256,192,96213,1,0,0:0:0:0:
256,192,96371,1,12,0:0:0:0:
256,192,96687,1,0,0:0:0:0:
256,192,96845,1,0,0:0:0:0:
256,192,97003,1,8,0:0:0:0:
256,192,97319,1,0,0:0:0:0:
256,192,97635,1,8,0:0:0:0:
256,192,97792,1,8,0:0:0:0:
256,192,97950,1,0,0:0:0:0:
256,192,98108,1,0,0:0:0:0:
256,192,98266,1,8,0:0:0:0:
256,192,98424,1,8,0:0:0:0:
256,192,98898,1,8,0:0:0:0:
256,192,99056,1,8,0:0:0:0:
256,192,99213,1,0,0:0:0:0:
256,192,99529,1,8,0:0:0:0:
256,192,99845,1,0,0:0:0:0:
256,192,100003,1,0,0:0:0:0:
256,192,100161,1,8,0:0:0:0:
256,192,100477,1,0,0:0:0:0:
256,192,100792,1,8,0:0:0:0:
256,192,100950,1,8,0:0:0:0:
256,192,101108,1,0,0:0:0:0:
256,192,101266,1,0,0:0:0:0:
256,192,101424,1,12,0:0:0:0:
256,192,101582,1,0,0:0:0:0:
256,192,101740,1,8,0:0:0:0:
256,192,102056,1,0,0:0:0:0:
256,192,102213,1,0,0:0:0:0:
256,192,102371,1,8,0:0:0:0:
256,192,102687,1,0,0:0:0:0:
256,192,103003,1,0,0:0:0:0:
256,192,103319,1,8,0:0:0:0:
256,192,103477,1,0,0:0:0:0:
256,192,103635,1,8,0:0:0:0:
256,192,103792,1,8,0:0:0:0:
256,192,104108,1,0,0:0:0:0:
256,192,104266,1,8,0:0:0:0:
256,192,104898,1,8,0:0:0:0:
256,192,105056,1,0,0:0:0:0:
256,192,105213,1,8,0:0:0:0:
256,192,105529,1,0,0:0:0:0:
256,192,105845,1,8,0:0:0:0:
256,192,106003,1,8,0:0:0:0:
256,192,106082,1,8,0:0:0:0:
256,192,106161,1,8,0:0:0:0:
256,192,106319,1,0,0:0:0:0:
256,192,106477,1,12,0:0:0:0:
256,192,106792,1,0,0:0:0:0:
256,192,106950,1,0,0:0:0:0:
256,192,107108,1,8,0:0:0:0:
256,192,107424,1,0,0:0:0:0:
256,192,107740,1,8,0:0:0:0:
256,192,107898,1,8,0:0:0:0:
256,192,108056,1,0,0:0:0:0:
256,192,108213,1,0,0:0:0:0:
256,192,108371,1,8,0:0:0:0:
256,192,108529,1,8,0:0:0:0:
256,192,109003,1,8,0:0:0:0:
256,192,109161,1,8,0:0:0:0:
256,192,109319,1,0,0:0:0:0:
256,192,109635,1,8,0:0:0:0:
256,192,109950,1,0,0:0:0:0:
256,192,110108,1,0,0:0:0:0:
256,192,110266,1,8,0:0:0:0:
256,192,110582,1,0,0:0:0:0:
256,192,110898,1,8,0:0:0:0:
256,192,111056,1,8,0:0:0:0:
256,192,111213,1,0,0:0:0:0:
256,192,111371,1,0,0:0:0:0:
256,192,111529,1,12,0:0:0:0:
256,192,111687,1,0,0:0:0:0:
256,192,111845,1,8,0:0:0:0:
256,192,112161,1,0,0:0:0:0:
256,192,112319,1,0,0:0:0:0:
256,192,112477,1,8,0:0:0:0:
256,192,112792,1,0,0:0:0:0:
256,192,113424,1,0,0:0:0:0:
256,192,113582,1,8,0:0:0:0:
256,192,113898,1,8,0:0:0:0:
256,192,114056,1,8,0:0:0:0:
256,192,114213,1,0,0:0:0:0:
256,192,114371,1,8,0:0:0:0:
256,192,114450,1,8,0:0:0:0:
256,192,114529,1,8,0:0:0:0:
256,192,114687,1,0,0:0:0:0:
256,192,115003,1,8,0:0:0:0:
256,192,115161,1,0,0:0:0:0:
256,192,115319,1,12,0:0:0:0:
256,192,115635,1,12,0:0:0:0:
256,192,115792,1,0,0:0:0:0:
256,192,115871,1,0,0:0:0:0:
256,192,115950,1,0,0:0:0:0:
256,192,116108,1,0,0:0:0:0:
256,192,116266,1,12,0:0:0:0:
256,192,116424,1,0,0:0:0:0:
256,192,116582,1,12,0:0:0:0:
256,192,117213,1,8,0:0:0:0:
256,192,117371,1,8,0:0:0:0:
256,192,117687,1,0,0:0:0:0:
256,192,117845,1,8,0:0:0:0:
256,192,118161,1,0,0:0:0:0:
256,192,118477,1,12,0:0:0:0:
256,192,118635,1,12,0:0:0:0:
256,192,118792,1,12,0:0:0:0:
256,192,118950,1,12,0:0:0:0:
256,192,119108,1,4,0:0:0:0:
256,192,119424,1,8,0:0:0:0:
256,192,119582,1,0,0:0:0:0:
256,192,119740,1,8,0:0:0:0:
256,192,119898,1,8,0:0:0:0:
256,192,120213,1,8,0:0:0:0:
256,192,120371,1,0,0:0:0:0:
256,192,120687,1,8,0:0:0:0:
256,192,121003,1,0,0:0:0:0:
256,192,121161,1,8,0:0:0:0:
256,192,121319,1,0,0:0:0:0:
256,192,121398,1,0,0:0:0:0:
256,192,121477,1,0,0:0:0:0:
256,192,121635,1,12,0:0:0:0:
256,192,122266,1,8,0:0:0:0:
256,192,122424,1,8,0:0:0:0:
256,192,122740,1,0,0:0:0:0:
256,192,122898,1,8,0:0:0:0:
256,192,123213,1,0,0:0:0:0:
256,192,123529,1,12,0:0:0:0:
256,192,123687,1,12,0:0:0:0:
256,192,123845,1,12,0:0:0:0:
256,192,124003,1,12,0:0:0:0:
256,192,124161,1,4,0:0:0:0:
256,192,124477,1,8,0:0:0:0:
256,192,124635,1,0,0:0:0:0:
256,192,124792,1,8,0:0:0:0:
256,192,124871,1,8,0:0:0:0:
256,192,124950,1,8,0:0:0:0:
256,192,125108,1,0,0:0:0:0:
256,192,125266,1,8,0:0:0:0:
256,192,125424,1,0,0:0:0:0:
256,192,125740,1,8,0:0:0:0:
256,192,125898,1,0,0:0:0:0:
256,192,126056,1,8,0:0:0:0:
256,192,126135,1,8,0:0:0:0:
256,192,126213,1,8,0:0:0:0:
256,192,126371,1,0,0:0:0:0:
256,192,126529,1,8,0:0:0:0:
256,192,126687,1,0,0:0:0:0:
256,192,126845,1,0,0:0:0:0:
256,192,127003,1,8,0:0:0:0:
256,192,127319,1,8,0:0:0:0:
256,192,127477,1,0,0:0:0:0:
256,192,127792,1,12,0:0:0:0:
256,192,128266,1,4,0:0:0:0:
256,192,128582,1,12,0:0:0:0:
256,192,128740,1,4,0:0:0:0:
256,192,128898,1,4,0:0:0:0:
256,192,129056,1,12,0:0:0:0:
256,192,129213,8,0,130477,0:0:0:0:
