osu file format v14

[General]
AudioFilename: audio.mp3
AudioLeadIn: 0
PreviewTime: 75766
Countdown: 0
SampleSet: Soft
StackLeniency: 0.7
Mode: 0
LetterboxInBreaks: 0
WidescreenStoryboard: 1

[Editor]
Bookmarks: 1635,10477,20582,30687,40792,50898,61003,71108,76161,85792,86266,95740,96371,105845,106477,116582,129056,130477
DistanceSpacing: 1
BeatDivisor: 4
GridSize: 32
TimelineZoom: 2.2

[Metadata]
Title:Happy Time wa Owaranai
TitleUnicode:ハッピータイムは終わらない
Artist:Nanamori-chu * Goraku-bu
ArtistUnicode:七森中☆ごらく部
Creator:eiri-
Version:Advanced
Source:ゆるゆり
Tags:Ayyri Realazy Real Dashyy- Dash hypercyte hyper lit120 -Hakurei- byd bite you death Naotoshi Nao Tomori Shiinoha Kotone Tomadoi Sotarks YuruYuri 三上枝織 大坪由佳 津田美波 大久保瑠美 Mikami Shiori Otsubo Yuka Tsuda Minami Okubo Rumi 赤座あかり Akaza Akari 歳納京子 Toshino Kyoko 船見結衣 Funami Yui 吉川ちなつ Yoshikawa Chinatsu YRYR Yuru Yuri
BeatmapID:1625590
BeatmapSetID:773330

[Difficulty]
HPDrainRate:3
CircleSize:3
OverallDifficulty:4
ApproachRate:6
SliderMultiplier:1.2
SliderTickRate:1

[Events]
//Background and Video events
0,0,"Himawari Chitose Rise Sakurako Ayano 563.jpg",0,0
//Break Periods
//Storyboard Layer 0 (Background)
//Storyboard Layer 1 (Fail)
//Storyboard Layer 2 (Pass)
//Storyboard Layer 3 (Foreground)
//Storyboard Sound Samples

[TimingPoints]
1635,315.789473684211,4,2,22,62,1,0
20582,-100,4,2,22,72,0,1
30687,-100,4,2,22,72,0,0
40792,-100,4,2,22,52,0,0
41740,-100,4,2,22,52,0,0
41819,-100,4,2,22,52,0,0
50582,-100,4,2,22,62,0,0
73950,-100,4,2,22,62,0,0
74029,-100,4,2,22,62,0,0
74582,-100,4,2,22,62,0,0
74661,-100,4,2,22,62,0,0
75687,-100,4,2,22,52,0,0
76161,-100,4,2,22,82,0,1
85792,-100,4,2,22,82,0,0
86266,-100,4,2,22,82,0,1
95740,-100,4,2,22,82,0,0
96371,-100,4,2,22,82,0,1
105845,-100,4,2,22,82,0,0
106477,-100,4,2,22,82,0,1
116582,-100,4,2,22,82,0,0
126687,-100,4,2,22,52,0,0
127792,-100,4,2,22,82,0,0

[Colours]
Combo1 : 164,0,0
Combo2 : 255,117,117
Combo3 : 255,255,106
Combo4 : 219,219,219
SliderBorder : 255,152,154
SliderTrackOverride : 10,9,20

[HitObjects]
119,312,10003,6,0,L|194:305,2,60,2|2|2,0:0|0:0|0:0,0:0:0:0:
67,280,10477,5,6,1:0:0:0:
27,167,10792,2,0,L|21:89,1,60,2|2,0:0|0:0,0:0:0:0:
57,58,11108,1,2,0:0:0:0:
57,58,11266,2,0,P|113:68|189:34,1,120,2|2,0:0|0:0,0:0:0:0:
218,10,11740,6,0,L|210:155,1,120,2|2,0:0|0:0,0:0:0:0:
238,183,12213,1,2,0:0:0:0:
165,278,12529,6,0,L|89:273,2,60,2|2|2,0:0|0:0|0:0,0:0:0:0:
214,312,13003,6,0,L|290:317,1,60,6|0,1:0|0:0,0:0:0:0:
313,270,13319,2,0,L|304:139,1,120,2|2,0:0|0:0,0:0:0:0:
323,93,13792,1,2,0:0:0:0:
323,93,13950,2,0,L|399:88,1,60,2|2,0:0|0:0,0:0:0:0:
439,108,14266,6,0,P|458:151|420:223,1,120,6|2,1:0|0:0,0:0:0:0:
389,258,14740,2,0,P|370:301|408:373,1,120,2|2,0:0|0:0,0:0:0:0:
281,331,15371,1,2,0:0:0:0:
281,331,15529,6,0,P|238:312|208:318,1,60,4|2,1:0|0:0,0:0:0:0:
170,336,15845,2,0,L|192:189,1,120,2|0,0:0|0:0,0:0:0:0:
163,162,16319,2,0,L|85:156,2,60,2|2|2,0:0|0:0|0:0,0:0:0:0:
208,123,16792,6,0,P|260:117|293:57,1,120,6|2,1:0|0:0,0:0:0:0:
335,19,17266,2,0,P|341:71|401:104,1,120,2|2,0:0|0:0,0:0:0:0:
455,103,17740,1,2,0:0:0:0:
497,215,18056,6,0,L|379:244,1,120,6|2,1:0|0:0,0:0:0:0:
302,334,18687,2,0,L|184:305,1,120,6|0,1:0|0:0,0:0:0:0:
70,270,19319,2,0,L|41:152,1,120,6|6,1:0|1:0,0:0:0:0:
192,55,20108,6,0,L|187:137,2,60,2|2|2,0:0|0:0|0:0,0:0:0:0:
245,27,20582,6,0,P|279:58|357:51,1,120,6|10,1:0|0:0,0:0:0:0:
400,23,21056,1,2,0:0:0:0:
400,23,21213,2,0,L|414:168,1,120,2|10,1:0|0:0,0:0:0:0:
456,253,21845,2,0,L|325:225,1,120,2|10,1:0|0:0,0:0:0:0:
280,244,22319,1,2,0:0:0:0:
236,124,22635,6,0,P|172:135|130:98,1,120,2|2,1:0|0:0,0:0:0:0:
72,99,23108,2,0,L|103:225,2,120,2|10|2,1:0|0:0|1:0,0:0:0:0:
52,41,23898,2,0,P|90:26|121:27,1,60,2|8,0:0|0:0,0:0:0:0:
168,34,24213,1,2,0:0:0:0:
168,34,24371,6,0,P|215:51|286:24,1,120,2|10,1:0|0:0,0:0:0:0:
333,12,24845,2,0,L|326:142,1,120,2|2,0:0|0:0,0:0:0:0:
266,236,25477,1,2,1:0:0:0:
266,236,25635,6,0,L|271:321,1,60,4|0,1:0|0:0,0:0:0:0:
241,348,25950,2,0,P|297:334|370:357,1,120,10|0,0:0|1:0,0:0:0:0:
411,323,26424,2,0,L|397:240,2,60,2|10|2,0:0|0:0|0:0,0:0:0:0:
468,341,26898,2,0,L|488:215,1,120,2|10,1:0|0:0,0:0:0:0:
435,114,27529,1,2,1:0:0:0:
435,114,27687,2,0,P|400:118|361:106,1,60,2|8,1:0|0:0,0:0:0:0:
338,65,28003,6,0,B|347:132|295:157|295:157|308:212|308:212|210:209|191:323|235:376|344:391|366:293,1,480,2|0,0:0|0:0,0:0:0:0:
393,263,29424,6,0,L|519:256,1,120,10|10,0:0|0:0,0:0:0:0:
473,142,30056,2,0,L|396:146,2,60,10|2|10,0:0|1:0|0:0,0:0:0:0:
421,33,30687,6,0,P|387:50|303:38,1,120,6|10,1:0|0:0,0:0:0:0:
251,19,31161,1,0,0:0:0:0:
251,19,31319,2,0,L|264:104,1,60,2|2,1:0|0:0,0:0:0:0:
247,137,31635,1,8,0:0:0:0:
169,228,31950,6,0,L|46:238,1,120,0|10,1:0|0:0,0:0:0:0:
9,283,32424,1,0,0:0:0:0:
9,283,32582,6,0,L|30:354,1,60,10|10,0:0|0:0,0:0:0:0:
84,324,32898,2,0,L|133:379,1,60,10|10,0:0|0:0,0:0:0:0:
183,361,33213,6,0,P|227:332|305:349,1,120,2|10,1:0|0:0,0:0:0:0:
347,360,33687,1,0,0:0:0:0:
347,360,33845,2,0,L|363:277,1,60,2|2,1:0|0:0,0:0:0:0:
407,265,34161,1,8,0:0:0:0:
468,161,34477,6,0,L|337:172,1,120,0|10,1:0|0:0,0:0:0:0:
292,150,34950,1,0,0:0:0:0:
292,150,35108,2,0,L|303:230,2,60,2|2|10,1:0|1:0|0:0,0:0:0:0:
281,90,35582,1,2,0:0:0:0:
233,53,35740,6,0,P|171:46|103:74,1,120,6|10,1:0|0:0,0:0:0:0:
73,104,36213,1,0,0:0:0:0:
73,104,36371,2,0,L|94:183,1,60,2|2,1:0|0:0,0:0:0:0:
73,220,36687,1,8,0:0:0:0:
144,316,37003,6,0,L|290:304,1,120,0|10,1:0|0:0,0:0:0:0:
320,326,37477,1,0,0:0:0:0:
320,326,37635,6,0,L|339:246,1,60,10|10,0:0|0:0,0:0:0:0:
389,246,37950,2,0,L|372:165,1,60,10|10,0:0|0:0,0:0:0:0:
392,128,38266,6,0,P|345:137|274:82,1,120,6|10,1:0|0:0,0:0:0:0:
265,45,38740,1,2,1:0:0:0:
265,45,38898,2,0,L|179:41,1,60,2|2,1:0|1:0,0:0:0:0:
156,77,39213,1,10,0:0:0:0:
124,192,39529,2,0,L|128:278,2,60,10|2|10,0:0|1:0|0:0,0:0:0:0:
48,98,40161,2,0,L|44:12,2,60,10|2|10,0:0|1:0|0:0,0:0:0:0:
211,174,40950,6,0,L|217:301,1,120,2|2,0:0|0:0,0:0:0:0:
266,328,41424,2,0,P|317:322|348:201,1,180,2|0,0:0|0:0,0:0:0:0:
324,161,42056,1,2,0:0:0:0:
271,53,42371,2,0,L|350:48,1,60,2|2,0:0|0:0,0:0:0:0:
440,3,42845,2,0,L|445:82,1,60,2|0,0:0|0:0,0:0:0:0:
474,110,43161,1,2,0:0:0:0:
467,229,43477,6,0,P|400:227|357:274,1,120,2|0,0:0|0:0,0:0:0:0:
344,317,43950,1,2,0:0:0:0:
344,317,44108,2,0,L|220:305,1,120,2|2,0:0|0:0,0:0:0:0:
164,312,44582,2,0,L|149:167,1,120,2|2,0:0|0:0,0:0:0:0:
175,137,45056,1,2,0:0:0:0:
293,154,45371,2,0,L|302:81,1,60,2|0,0:0|0:0,0:0:0:0:
344,53,45687,1,2,0:0:0:0:
435,130,46003,6,0,P|452:186|422:249,1,120,2|0,0:0|0:0,0:0:0:0:
378,272,46477,1,2,0:0:0:0:
258,261,46792,2,0,L|232:337,1,60,2|2,0:0|0:0,0:0:0:0:
183,342,47108,1,2,0:0:0:0:
74,290,47424,1,2,0:0:0:0:
74,290,47582,2,0,L|48:214,1,60,2|0,0:0|0:0,0:0:0:0:
64,173,47898,1,2,0:0:0:0:
45,54,48213,1,2,0:0:0:0:
45,54,48371,6,0,L|175:47,1,120,2|2,0:0|0:0,0:0:0:0:
222,29,48845,1,2,0:0:0:0:
222,29,49003,2,0,P|232:77|226:108,1,60,2|2,0:0|0:0,0:0:0:0:
204,141,49319,1,0,0:0:0:0:
160,253,49635,6,0,L|304:242,1,120,2|2,0:0|0:0,0:0:0:0:
333,271,50108,2,0,L|346:342,1,60,2|0,0:0|3:0,0:0:0:0:
483,172,50582,6,0,L|494:30,1,120,8|4,0:0|1:0,0:0:0:0:
434,35,51056,1,2,0:0:0:0:
434,35,51213,2,0,P|396:60|302:44,1,120,10|2,0:0|1:0,0:0:0:0:
271,26,51687,1,2,0:0:0:0:
153,49,52003,1,2,0:0:0:0:
153,49,52161,2,0,L|165:126,1,60,2|0,1:0|0:0,0:0:0:0:
144,165,52477,1,10,0:0:0:0:
144,165,52635,2,0,P|106:140|30:153,2,120,2|2|2,0:0|1:0|0:0,0:0:0:0:
220,257,53582,6,0,P|258:282|334:269,1,120,2|2,0:0|0:0,0:0:0:0:
382,245,54056,1,2,1:0:0:0:
451,147,54371,2,0,L|454:71,1,60,10|2,0:0|0:0,0:0:0:0:
447,26,54687,2,0,P|385:42|319:24,1,120,2|10,1:0|0:0,0:0:0:0:
278,58,55161,2,0,L|299:186,2,120,2|2|2,0:0|1:0|0:0,0:0:0:0:
226,26,55950,5,4,1:0:0:0:
226,26,56108,2,0,P|164:42|98:24,1,120,2|2,0:0|0:0,0:0:0:0:
51,18,56582,2,0,L|72:146,1,120,2|8,1:0|0:0,0:0:0:0:
123,244,57213,2,0,L|41:258,2,60,2|2|10,1:0|0:0|0:0,0:0:0:0:
163,198,57687,1,2,0:0:0:0:
163,198,57845,2,0,P|203:212|282:177,1,120,2|8,1:0|0:0,0:0:0:0:
324,154,58319,1,0,0:0:0:0:
324,154,58477,6,0,L|318:300,1,120,2|10,1:0|0:0,0:0:0:0:
341,329,58950,1,0,0:0:0:0:
459,347,59266,2,0,P|485:292|470:211,1,120,2|2,0:0|0:0,0:0:0:0:
440,189,59740,2,0,L|446:43,2,120,2|10|2,1:0|0:0|1:0,0:0:0:0:
355,273,60687,2,0,P|321:269|295:248,1,60,8|2,0:0|0:0,0:0:0:0:
261,208,61003,6,0,L|245:290,1,60,6|2,1:0|0:0,0:0:0:0:
138,313,61477,1,0,0:0:0:0:
138,313,61635,2,0,L|122:231,1,60,0|2,1:0|0:0,0:0:0:0:
50,161,62108,1,2,0:0:0:0:
50,161,62266,6,0,L|132:145,2,60,2|2|10,1:0|0:0|0:0,0:0:0:0:
21,214,62740,1,2,0:0:0:0:
44,331,63056,1,0,1:0:0:0:
44,331,63213,2,0,P|88:349|116:346,1,60,8|0,0:0|1:0,0:0:0:0:
157,330,63529,2,0,P|139:286|161:213,2,120,2|10|2,1:0|0:0|1:0,0:0:0:0:
272,365,64477,1,10,0:0:0:0:
357,280,64792,6,0,L|502:270,1,120,2|10,1:0|0:0,0:0:0:0:
504,218,65266,1,2,0:0:0:0:
504,218,65424,2,0,L|505:88,1,120,2|8,1:0|0:0,0:0:0:0:
405,30,66056,6,0,L|355:70,1,60,6|2,1:0|0:0,0:0:0:0:
287,164,66529,1,0,0:0:0:0:
287,164,66687,2,0,L|350:171,1,60,0|2,1:0|0:0,0:0:0:0:
295,279,67161,1,2,0:0:0:0:
295,279,67319,6,0,L|166:263,1,120,2|10,1:0|0:0,0:0:0:0:
112,162,67950,2,0,L|123:81,1,60,0|0,1:0|1:0,0:0:0:0:
171,70,68266,2,0,L|252:81,1,60,8|0,0:0|1:0,0:0:0:0:
289,65,68582,5,2,1:0:0:0:
404,32,68898,2,0,L|413:111,1,60,10|2,0:0|0:0,0:0:0:0:
451,135,69213,2,0,L|442:214,1,60,2|2,1:0|0:0,0:0:0:0:
464,313,69687,1,2,0:0:0:0:
464,313,69845,2,0,L|332:327,1,120,2|10,1:0|0:0,0:0:0:0:
293,292,70319,1,2,0:0:0:0:
293,292,70477,2,0,L|161:306,1,120,2|8,1:0|0:0,0:0:0:0:
68,247,71108,5,14,0:0:0:0:
256,96,71740,1,14,0:0:0:0:
444,247,72371,5,14,0:0:0:0:
256,96,73003,1,14,0:0:0:0:
68,247,73635,6,0,P|162:275|237:220,1,180,14|0,0:0|1:0,0:0:0:0:
284,235,74266,2,0,P|361:276|444:247,1,180,14|0,0:0|1:0,0:0:0:0:
495,215,74898,5,14,0:0:0:0:
478,96,75213,1,14,0:0:0:0:
367,48,75529,1,14,0:0:0:0:
332,96,75687,6,0,L|343:171,2,60,2|2|2,0:0|0:0|0:0,0:0:0:0:
282,60,76161,5,6,1:0:0:0:
189,136,76477,2,0,P|179:173|219:244,1,120,10|2,0:0|1:0,0:0:0:0:
263,278,76950,2,0,L|119:282,1,120,2|2,0:0|0:0,0:0:0:0:
91,313,77424,1,2,1:0:0:0:
29,209,77740,2,0,L|17:130,1,60,10|2,0:0|0:0,0:0:0:0:
120,84,78213,2,0,L|132:163,2,60,2|10|2,1:0|0:0|1:0,0:0:0:0:
136,25,78687,6,0,P|179:47|260:31,1,120,2|8,1:0|0:0,0:0:0:0:
301,10,79161,1,2,0:0:0:0:
301,10,79319,2,0,L|294:87,1,60,0|2,1:0|0:0,0:0:0:0:
329,119,79635,2,0,P|372:108|405:112,1,60,10|2,0:0|0:0,0:0:0:0:
438,139,79950,2,0,P|449:182|425:256,1,120,2|10,1:0|0:0,0:0:0:0:
374,280,80424,2,0,L|228:290,1,120,2|2,0:0|0:0,0:0:0:0:
135,265,81056,6,0,P|127:311|114:333,1,60,2|4,0:0|1:0,0:0:0:0:
71,356,81371,1,2,0:0:0:0:
71,356,81529,2,0,L|217:346,1,120,10|0,0:0|1:0,0:0:0:0:
240,313,82003,2,0,P|262:252|240:189,1,120,2|2,0:0|0:0,0:0:0:0:
235,141,82477,2,0,L|381:151,1,120,2|10,1:0|0:0,0:0:0:0:
371,91,82950,2,0,L|517:101,1,120,2|2,0:0|1:0,0:0:0:0:
511,156,83424,1,10,0:0:0:0:
477,271,83740,6,0,P|430:280|350:231,1,120,2|10,1:0|0:0,0:0:0:0:
316,217,84213,2,0,L|316:301,1,60,2|0,0:0|1:0,0:0:0:0:
273,319,84529,2,0,P|222:309|198:317,1,60,2|8,0:0|0:0,0:0:0:0:
155,322,84845,1,2,0:0:0:0:
155,322,85003,2,0,L|166:176,2,120,0|10|10,1:0|0:0|0:0,0:0:0:0:
312,140,86266,6,0,P|363:149|433:108,2,120,6|10|2,1:0|0:0|1:0,0:0:0:0:
256,32,87213,1,10,0:0:0:0:
200,140,87529,2,0,P|149:149|79:108,1,120,2|10,1:0|0:0,0:0:0:0:
66,64,88003,1,2,0:0:0:0:
20,174,88319,2,0,L|59:295,1,120,2|2,1:0|1:0,0:0:0:0:
116,296,88792,6,0,P|141:265|239:248,2,120,2|10|2,1:0|0:0|1:0,0:0:0:0:
215,364,89740,2,0,L|298:361,1,60,10|2,0:0|0:0,0:0:0:0:
318,320,90056,2,0,P|354:345|424:297,1,120,2|10,1:0|0:0,0:0:0:0:
453,268,90529,2,0,L|441:133,1,120,2|2,0:0|0:0,0:0:0:0:
385,42,91161,1,2,1:0:0:0:
385,42,91319,6,0,P|350:58|316:53,1,60,4|0,1:0|0:0,0:0:0:0:
269,46,91635,2,0,L|281:181,1,120,14|0,0:0|1:0,0:0:0:0:
259,221,92108,2,0,P|208:206|179:210,2,60,2|10|2,0:0|0:0|0:0,0:0:0:0:
298,266,92582,2,0,P|349:281|428:248,1,120,2|10,1:0|0:0,0:0:0:0:
469,158,93213,1,2,1:0:0:0:
469,158,93371,2,0,L|401:149,1,60,2|8,1:0|0:0,0:0:0:0:
363,111,93687,6,0,B|347:32|238:47|194:100|213:214|311:211|311:211|298:266|298:266|350:291|341:358,1,480,2|2,0:0|0:0,0:0:0:0:
282,363,95108,6,0,P|243:350|152:361,1,120,14|14,0:0|0:0,0:0:0:0:
74,276,95740,2,0,L|57:201,2,60,14|0|14,0:0|1:0|0:0,0:0:0:0:
192,257,96371,6,0,P|217:213|203:144,1,120,6|10,1:0|0:0,0:0:0:0:
162,34,97003,2,0,P|206:59|275:45,1,120,2|10,1:0|0:0,0:0:0:0:
387,12,97635,1,2,1:0:0:0:
358,128,97950,1,10,0:0:0:0:
471,88,98266,2,0,L|483:176,1,60,2|2,1:0|1:0,0:0:0:0:
462,205,98582,2,0,P|417:201|388:208,1,60,8|0,0:0|0:0,0:0:0:0:
350,234,98898,6,0,L|312:368,1,120,2|10,1:0|0:0,0:0:0:0:
194,349,99529,2,0,L|162:234,1,120,2|10,1:0|0:0,0:0:0:0:
75,150,100161,1,2,1:0:0:0:
125,41,100477,1,10,0:0:0:0:
243,55,100792,2,0,L|248:121,1,60,2|2,1:0|1:0,0:0:0:0:
250,175,101108,2,0,P|302:172|323:179,1,60,8|2,0:0|0:0,0:0:0:0:
345,221,101424,6,0,P|342:273|349:294,1,60,4|2,1:0|0:0,0:0:0:0:
372,333,101740,2,0,L|228:342,2,120,10|2|10,0:0|1:0|0:0,0:0:0:0:
480,282,102687,2,0,P|493:224|481:165,1,120,2|8,1:0|0:0,0:0:0:0:
402,75,103319,2,0,L|265:70,1,120,2|10,1:0|0:0,0:0:0:0:
228,43,103792,1,2,1:0:0:0:
129,111,104108,1,2,0:0:0:0:
129,111,104266,6,0,P|121:162|159:226,1,120,10|0,0:0|1:0,0:0:0:0:
255,281,104898,1,8,0:0:0:0:
350,209,105213,2,0,L|484:199,1,120,10|10,0:0|0:0,0:0:0:0:
499,86,105845,1,10,0:0:0:0:
499,86,106003,2,0,L|494:14,2,60,0|10|0,1:0|0:0|1:0,0:0:0:0:
447,116,106477,6,0,P|403:119|346:42,1,120,6|10,1:0|0:0,0:0:0:0:
236,111,107108,2,0,P|197:154|138:156,1,120,2|10,1:0|0:0,0:0:0:0:
27,109,107740,1,2,1:0:0:0:
16,228,108056,1,10,0:0:0:0:
105,307,108371,2,0,L|185:296,1,60,2|2,1:0|1:0,0:0:0:0:
221,278,108687,2,0,P|238:329|252:344,1,60,8|0,0:0|0:0,0:0:0:0:
297,355,109003,6,0,L|441:344,1,120,2|10,1:0|0:0,0:0:0:0:
471,238,109635,2,0,L|327:227,1,120,2|8,1:0|0:0,0:0:0:0:
253,159,110266,1,2,1:0:0:0:
221,278,110582,1,10,0:0:0:0:
126,204,110898,2,0,L|55:215,1,60,2|2,1:0|1:0,0:0:0:0:
25,257,111213,2,0,P|33:313|28:335,1,60,8|2,0:0|0:0,0:0:0:0:
85,344,111529,6,0,P|141:336|163:341,1,60,4|2,1:0|0:0,0:0:0:0:
203,343,111845,2,0,L|215:206,2,120,10|2|10,0:0|1:0|0:0,0:0:0:0:
322,355,112792,2,0,P|344:296|334:218,1,120,2|8,1:0|0:0,0:0:0:0:
290,130,113424,1,2,1:0:0:0:
290,130,113582,2,0,L|364:126,1,60,0|10,1:0|0:0,0:0:0:0:
379,74,113898,6,0,B|395:-5|504:10|548:63|529:177|431:174|431:174|444:229|444:229|392:254|401:321,1,480,0|0,1:0|0:0,0:0:0:0:
344,336,115319,6,0,L|206:300,1,120,12|12,0:0|0:0,0:0:0:0:
227,185,115950,2,0,L|89:149,1,120,8|8,0:0|0:0,0:0:0:0:
91,33,116582,6,0,P|125:50|209:38,1,120,6|10,1:0|0:0,0:0:0:0:
261,19,117056,1,0,0:0:0:0:
261,19,117214,2,0,L|248:104,1,60,2|2,1:0|0:0,0:0:0:0:
265,137,117530,1,8,0:0:0:0:
343,228,117845,6,0,L|466:238,1,120,0|10,1:0|0:0,0:0:0:0:
503,283,118319,1,0,0:0:0:0:
503,283,118477,6,0,L|482:354,1,60,10|10,0:0|0:0,0:0:0:0:
428,324,118793,2,0,L|379:379,1,60,10|10,0:0|0:0,0:0:0:0:
329,361,119108,6,0,P|285:332|207:349,1,120,2|10,1:0|0:0,0:0:0:0:
165,360,119582,1,0,0:0:0:0:
165,360,119740,2,0,L|149:277,1,60,2|2,1:0|0:0,0:0:0:0:
105,265,120056,1,8,0:0:0:0:
44,161,120372,6,0,L|175:172,1,120,0|10,1:0|0:0,0:0:0:0:
220,150,120845,1,0,0:0:0:0:
220,150,121003,2,0,L|209:230,2,60,2|2|10,1:0|1:0|0:0,0:0:0:0:
231,90,121477,1,2,0:0:0:0:
279,53,121635,6,0,P|341:46|409:74,1,120,6|10,1:0|0:0,0:0:0:0:
439,104,122108,1,0,0:0:0:0:
439,104,122266,2,0,L|418:183,1,60,2|2,1:0|0:0,0:0:0:0:
439,220,122582,1,8,0:0:0:0:
368,316,122898,6,0,L|222:304,1,120,0|10,1:0|0:0,0:0:0:0:
192,326,123372,1,0,0:0:0:0:
192,326,123530,6,0,L|173:246,1,60,10|10,0:0|0:0,0:0:0:0:
123,246,123845,2,0,L|140:165,1,60,10|10,0:0|0:0,0:0:0:0:
120,128,124161,6,0,P|167:137|238:82,1,120,6|14,1:0|0:0,0:0:0:0:
247,45,124635,1,2,1:0:0:0:
247,45,124793,2,0,L|333:41,1,60,6|2,1:0|1:0,0:0:0:0:
356,77,125108,1,14,0:0:0:0:
388,192,125424,2,0,L|384:278,2,60,14|2|14,0:0|1:0|0:0,0:0:0:0:
464,98,126056,2,0,L|468:12,2,60,14|2|14,0:0|1:0|0:0,0:0:0:0:
490,215,126687,6,0,P|486:259|466:290,1,60,2|2,0:0|0:0,0:0:0:0:
434,312,127003,2,0,P|406:322|376:322,1,60,2|2,0:0|0:0,0:0:0:0:
316,313,127319,1,2,0:0:0:0:
316,313,127477,1,2,0:0:0:0:
286,197,127792,6,0,P|249:170|158:175,1,120,14|0,0:0|0:0,0:0:0:0:
130,205,128266,2,0,L|158:346,2,120,14|14|14,0:0|0:0|0:0,0:0:0:0:
114,146,129056,1,6,1:0:0:0:
256,192,129213,12,0,130477,0:0:0:0:
