osu file format v14

[General]
AudioFilename: audio.mp3
AudioLeadIn: 0
PreviewTime: 75687
Countdown: 0
SampleSet: Soft
StackLeniency: 0.7
Mode: 3
LetterboxInBreaks: 0
SpecialStyle: 0
WidescreenStoryboard: 1

[Editor]
Bookmarks: 40792,76161,96371
DistanceSpacing: 0.8
BeatDivisor: 4
GridSize: 32
TimelineZoom: 2.5

[Metadata]
Title:Happy Time wa Owaranai (Cut Ver.)
TitleUnicode:ハッピータイムは終わらない (Cut Ver.)
Artist:Nanamori-chu * Goraku-bu
ArtistUnicode:七森中☆ごらく部
Creator:MapleSyrup-
Version:Normal
Source:ゆるゆり
Tags:YuruYuri 三上枝織 大坪由佳 津田美波 大久保瑠美 Mikami Shiori Otsubo Yuka Tsuda Minami Okubo Rumi 赤座あかり Akaza Akari 歳納京子 Toshino Kyoko 船見結衣 Funami Yui 吉川ちなつ Yoshikawa Chinatsu YRYR Yuru Yuri NON-STOP MIX ALBUM NON STOP 2nd Series 2nd.Series BESTALBUM ゆるゆりずむ 2 ゆるゆりみっくす Anime Japanese
BeatmapID:4046511
BeatmapSetID:1440947

[Difficulty]
HPDrainRate:6.5
CircleSize:7
OverallDifficulty:6.5
ApproachRate:5
SliderMultiplier:1.4
SliderTickRate:1

[Events]
//Background and Video events
0,0,"Akari Yui Kyouko Chinatsu 457.jpg",0,0
//Break Periods
//Storyboard Layer 0 (Background)
//Storyboard Layer 1 (Fail)
//Storyboard Layer 2 (Pass)
//Storyboard Layer 3 (Foreground)
//Storyboard Layer 4 (Overlay)
//Storyboard Sound Samples

[TimingPoints]
1635,315.789473684211,4,2,1,60,1,0

[HitObjects]
475,192,5424,5,0,0:0:0:0:
36,192,5424,1,0,0:0:0:0:
109,192,5582,1,0,0:0:0:0:
182,192,5740,1,0,0:0:0:0:
256,192,5898,1,0,0:0:0:0:
475,192,6056,1,0,0:0:0:0:
402,192,6213,1,0,0:0:0:0:
329,192,6371,1,0,0:0:0:0:
256,192,6529,1,0,0:0:0:0:
36,192,6687,1,0,0:0:0:0:
182,192,6845,1,0,0:0:0:0:
329,192,7003,1,0,0:0:0:0:
475,192,7161,1,0,0:0:0:0:
402,192,7319,1,0,0:0:0:0:
329,192,7477,1,0,0:0:0:0:
182,192,7635,1,0,0:0:0:0:
109,192,7792,1,0,0:0:0:0:
36,192,7950,1,0,0:0:0:0:
475,192,8108,1,0,0:0:0:0:
109,192,8266,1,0,0:0:0:0:
402,192,8424,1,0,0:0:0:0:
182,192,8582,1,0,0:0:0:0:
329,192,8740,1,0,0:0:0:0:
109,192,8898,1,0,0:0:0:0:
402,192,9056,1,0,0:0:0:0:
36,192,9213,1,0,0:0:0:0:
182,192,9371,1,0,0:0:0:0:
329,192,9529,1,0,0:0:0:0:
475,192,9687,1,0,0:0:0:0:
329,192,10003,1,0,0:0:0:0:
182,192,10161,1,0,0:0:0:0:
329,192,10319,1,0,0:0:0:0:
182,192,10477,1,0,0:0:0:0:
475,192,10477,128,0,13003:0:0:0:0:
36,192,10477,1,0,0:0:0:0:
256,192,10635,1,0,0:0:0:0:
329,192,10792,1,0,0:0:0:0:
402,192,10950,1,0,0:0:0:0:
109,192,11108,1,0,0:0:0:0:
182,192,11266,1,0,0:0:0:0:
256,192,11424,1,0,0:0:0:0:
329,192,11582,1,0,0:0:0:0:
36,192,11740,1,0,0:0:0:0:
109,192,11898,1,0,0:0:0:0:
182,192,12056,1,0,0:0:0:0:
256,192,12213,1,0,0:0:0:0:
182,192,12529,1,0,0:0:0:0:
329,192,12687,1,0,0:0:0:0:
182,192,12845,1,0,0:0:0:0:
36,192,13003,128,0,14266:0:0:0:0:
402,192,13003,1,0,0:0:0:0:
329,192,13161,1,0,0:0:0:0:
256,192,13319,1,0,0:0:0:0:
182,192,13477,1,0,0:0:0:0:
475,192,13635,1,0,0:0:0:0:
402,192,13792,1,0,0:0:0:0:
329,192,13950,1,0,0:0:0:0:
256,192,14108,1,0,0:0:0:0:
475,192,14266,128,0,15529:0:0:0:0:
182,192,14266,128,0,14582:0:0:0:0:
329,192,14582,1,0,0:0:0:0:
182,192,14740,128,0,15056:0:0:0:0:
256,192,15056,128,0,15371:0:0:0:0:
182,192,15371,1,0,0:0:0:0:
109,192,15529,128,0,16792:0:0:0:0:
256,192,15529,1,0,0:0:0:0:
329,192,15687,1,0,0:0:0:0:
402,192,15845,128,0,16161:0:0:0:0:
329,192,16319,1,0,0:0:0:0:
182,192,16477,1,0,0:0:0:0:
329,192,16635,1,0,0:0:0:0:
402,192,16792,128,0,18056:0:0:0:0:
36,192,16792,128,0,17108:0:0:0:0:
182,192,17108,1,0,0:0:0:0:
36,192,17266,128,0,17582:0:0:0:0:
182,192,17582,1,0,0:0:0:0:
329,192,17740,1,0,0:0:0:0:
182,192,17898,1,0,0:0:0:0:
36,192,18056,128,0,18687:0:0:0:0:
475,192,18056,1,0,0:0:0:0:
402,192,18213,1,0,0:0:0:0:
329,192,18371,1,0,0:0:0:0:
256,192,18529,1,0,0:0:0:0:
475,192,18687,128,0,19319:0:0:0:0:
109,192,18687,1,0,0:0:0:0:
182,192,18845,1,0,0:0:0:0:
256,192,19003,1,0,0:0:0:0:
329,192,19161,1,0,0:0:0:0:
109,192,19319,1,0,0:0:0:0:
36,192,19319,1,0,0:0:0:0:
182,192,19477,1,0,0:0:0:0:
402,192,19635,1,0,0:0:0:0:
475,192,19635,1,0,0:0:0:0:
329,192,19792,1,0,0:0:0:0:
256,192,19950,1,0,0:0:0:0:
109,192,20108,1,0,0:0:0:0:
402,192,20266,1,0,0:0:0:0:
109,192,20424,1,0,0:0:0:0:
402,192,20582,1,0,0:0:0:0:
475,192,20582,1,0,0:0:0:0:
329,192,20740,128,0,20898:0:0:0:0:
109,192,20898,1,0,0:0:0:0:
36,192,20898,1,0,0:0:0:0:
182,192,21056,128,0,21213:0:0:0:0:
475,192,21213,1,0,0:0:0:0:
329,192,21213,1,0,0:0:0:0:
256,192,21371,128,0,21529:0:0:0:0:
36,192,21529,1,0,0:0:0:0:
182,192,21529,1,0,0:0:0:0:
256,192,21687,128,0,21845:0:0:0:0:
475,192,21845,1,0,0:0:0:0:
402,192,21845,1,0,0:0:0:0:
329,192,22003,128,0,22161:0:0:0:0:
109,192,22161,1,0,0:0:0:0:
36,192,22161,1,0,0:0:0:0:
182,192,22319,128,0,22477:0:0:0:0:
256,192,22477,1,0,0:0:0:0:
475,192,22477,1,0,0:0:0:0:
402,192,22635,1,0,0:0:0:0:
329,192,22792,1,0,0:0:0:0:
182,192,22792,1,0,0:0:0:0:
256,192,22950,1,0,0:0:0:0:
109,192,23108,1,0,0:0:0:0:
36,192,23108,1,0,0:0:0:0:
182,192,23266,128,0,23424:0:0:0:0:
402,192,23424,1,0,0:0:0:0:
475,192,23424,1,0,0:0:0:0:
329,192,23582,128,0,23740:0:0:0:0:
182,192,23740,1,0,0:0:0:0:
36,192,23740,1,0,0:0:0:0:
256,192,23898,128,0,24056:0:0:0:0:
475,192,24056,1,0,0:0:0:0:
329,192,24056,1,0,0:0:0:0:
256,192,24213,128,0,24371:0:0:0:0:
36,192,24371,1,0,0:0:0:0:
109,192,24371,128,0,24687:0:0:0:0:
402,192,24529,1,0,0:0:0:0:
329,192,24687,1,0,0:0:0:0:
182,192,24687,1,0,0:0:0:0:
402,192,24845,128,0,25161:0:0:0:0:
256,192,25003,1,0,0:0:0:0:
36,192,25003,1,0,0:0:0:0:
109,192,25161,1,0,0:0:0:0:
182,192,25319,1,0,0:0:0:0:
329,192,25319,1,0,0:0:0:0:
182,192,25477,1,0,0:0:0:0:
329,192,25477,1,0,0:0:0:0:
475,192,25635,1,0,0:0:0:0:
36,192,25635,1,0,0:0:0:0:
256,192,25950,1,0,0:0:0:0:
475,192,25950,128,0,26266:0:0:0:0:
36,192,25950,128,0,26266:0:0:0:0:
109,192,26266,1,0,0:0:0:0:
402,192,26266,1,0,0:0:0:0:
329,192,26424,128,0,26582:0:0:0:0:
182,192,26582,128,0,26740:0:0:0:0:
36,192,26582,1,0,0:0:0:0:
329,192,26740,128,0,26898:0:0:0:0:
475,192,26898,128,0,27529:0:0:0:0:
402,192,26898,1,0,0:0:0:0:
36,192,27213,128,0,27529:0:0:0:0:
109,192,27213,1,0,0:0:0:0:
329,192,27529,1,0,0:0:0:0:
402,192,27529,1,0,0:0:0:0:
256,192,27687,1,0,0:0:0:0:
182,192,27845,1,0,0:0:0:0:
109,192,27845,1,0,0:0:0:0:
475,192,28003,128,0,29424:0:0:0:0:
36,192,28161,1,0,0:0:0:0:
329,192,28161,1,0,0:0:0:0:
109,192,28319,1,0,0:0:0:0:
182,192,28477,1,0,0:0:0:0:
402,192,28477,1,0,0:0:0:0:
256,192,28635,1,0,0:0:0:0:
329,192,28792,1,0,0:0:0:0:
36,192,28792,1,0,0:0:0:0:
256,192,28950,1,0,0:0:0:0:
182,192,29108,1,0,0:0:0:0:
402,192,29108,1,0,0:0:0:0:
109,192,29266,1,0,0:0:0:0:
329,192,29424,1,0,0:0:0:0:
36,192,29424,128,0,29582:0:0:0:0:
182,192,29582,128,0,29740:0:0:0:0:
402,192,29740,128,0,29898:0:0:0:0:
475,192,29740,1,0,0:0:0:0:
329,192,29898,128,0,30056:0:0:0:0:
36,192,30056,1,0,0:0:0:0:
109,192,30056,128,0,30213:0:0:0:0:
182,192,30213,128,0,30371:0:0:0:0:
475,192,30371,128,0,30687:0:0:0:0:
329,192,30371,1,0,0:0:0:0:
182,192,30529,1,0,0:0:0:0:
329,192,30687,1,0,0:0:0:0:
109,192,30687,1,0,0:0:0:0:
36,192,30687,1,0,0:0:0:0:
36,192,31003,128,0,31161:0:0:0:0:
256,192,31003,1,0,0:0:0:0:
109,192,31161,128,0,31319:0:0:0:0:
182,192,31319,128,0,31477:0:0:0:0:
402,192,31319,1,0,0:0:0:0:
256,192,31477,128,0,31635:0:0:0:0:
329,192,31635,1,0,0:0:0:0:
109,192,31635,1,0,0:0:0:0:
475,192,31792,1,0,0:0:0:0:
256,192,31950,1,0,0:0:0:0:
36,192,31950,1,0,0:0:0:0:
475,192,32108,128,0,32266:0:0:0:0:
402,192,32266,128,0,32424:0:0:0:0:
182,192,32266,1,0,0:0:0:0:
329,192,32424,128,0,32582:0:0:0:0:
36,192,32582,1,0,0:0:0:0:
109,192,32582,1,0,0:0:0:0:
109,192,32740,1,0,0:0:0:0:
475,192,32898,1,0,0:0:0:0:
402,192,32898,1,0,0:0:0:0:
402,192,33056,1,0,0:0:0:0:
329,192,33213,1,0,0:0:0:0:
182,192,33213,1,0,0:0:0:0:
402,192,33529,1,0,0:0:0:0:
256,192,33529,128,0,33687:0:0:0:0:
182,192,33687,128,0,33845:0:0:0:0:
329,192,33845,1,0,0:0:0:0:
109,192,33845,128,0,34003:0:0:0:0:
36,192,34003,128,0,34161:0:0:0:0:
182,192,34161,1,0,0:0:0:0:
256,192,34161,1,0,0:0:0:0:
329,192,34319,1,0,0:0:0:0:
36,192,34477,1,0,0:0:0:0:
109,192,34477,1,0,0:0:0:0:
329,192,34635,128,0,34792:0:0:0:0:
402,192,34792,128,0,34950:0:0:0:0:
182,192,34792,1,0,0:0:0:0:
475,192,34950,128,0,35108:0:0:0:0:
256,192,35108,1,0,0:0:0:0:
36,192,35108,1,0,0:0:0:0:
109,192,35266,1,0,0:0:0:0:
182,192,35424,1,0,0:0:0:0:
402,192,35424,1,0,0:0:0:0:
256,192,35582,1,0,0:0:0:0:
36,192,35740,1,0,0:0:0:0:
475,192,35740,1,0,0:0:0:0:
329,192,35740,1,0,0:0:0:0:
475,192,36056,128,0,36213:0:0:0:0:
256,192,36056,1,0,0:0:0:0:
402,192,36213,128,0,36371:0:0:0:0:
329,192,36371,128,0,36529:0:0:0:0:
109,192,36371,1,0,0:0:0:0:
256,192,36529,128,0,36687:0:0:0:0:
182,192,36687,1,0,0:0:0:0:
402,192,36687,1,0,0:0:0:0:
36,192,36845,1,0,0:0:0:0:
256,192,37003,1,0,0:0:0:0:
475,192,37003,1,0,0:0:0:0:
36,192,37161,128,0,37319:0:0:0:0:
109,192,37319,128,0,37477:0:0:0:0:
402,192,37319,1,0,0:0:0:0:
182,192,37477,128,0,37635:0:0:0:0:
475,192,37635,1,0,0:0:0:0:
329,192,37635,1,0,0:0:0:0:
329,192,37792,1,0,0:0:0:0:
36,192,37950,1,0,0:0:0:0:
182,192,37950,1,0,0:0:0:0:
182,192,38108,1,0,0:0:0:0:
329,192,38266,1,0,0:0:0:0:
109,192,38266,1,0,0:0:0:0:
256,192,38582,1,0,0:0:0:0:
475,192,38582,1,0,0:0:0:0:
402,192,38740,1,0,0:0:0:0:
182,192,38898,1,0,0:0:0:0:
329,192,38898,1,0,0:0:0:0:
109,192,39056,1,0,0:0:0:0:
36,192,39213,1,0,0:0:0:0:
256,192,39213,1,0,0:0:0:0:
329,192,39371,1,0,0:0:0:0:
402,192,39529,1,0,0:0:0:0:
109,192,39529,1,0,0:0:0:0:
182,192,39687,1,0,0:0:0:0:
256,192,39845,1,0,0:0:0:0:
475,192,39845,1,0,0:0:0:0:
402,192,40003,1,0,0:0:0:0:
329,192,40161,1,0,0:0:0:0:
182,192,40161,1,0,0:0:0:0:
109,192,40319,1,0,0:0:0:0:
36,192,40477,1,0,0:0:0:0:
256,192,40477,1,0,0:0:0:0:
329,192,40635,1,0,0:0:0:0:
402,192,40792,128,0,41266:0:0:0:0:
109,192,41266,128,0,41424:0:0:0:0:
402,192,41582,1,0,0:0:0:0:
109,192,41898,128,0,42056:0:0:0:0:
402,192,42213,128,0,42371:0:0:0:0:
475,192,42687,128,0,42845:0:0:0:0:
402,192,42845,128,0,43003:0:0:0:0:
329,192,43003,128,0,43161:0:0:0:0:
256,192,43161,128,0,43319:0:0:0:0:
182,192,43319,128,0,43792:0:0:0:0:
329,192,43792,128,0,43950:0:0:0:0:
182,192,44108,1,0,0:0:0:0:
329,192,44424,128,0,44582:0:0:0:0:
182,192,44740,128,0,44898:0:0:0:0:
36,192,45213,128,0,45371:0:0:0:0:
109,192,45371,128,0,45529:0:0:0:0:
182,192,45529,128,0,45687:0:0:0:0:
256,192,45687,128,0,45845:0:0:0:0:
475,192,45845,128,0,46319:0:0:0:0:
36,192,46319,128,0,46477:0:0:0:0:
475,192,46635,1,0,0:0:0:0:
36,192,46950,128,0,47108:0:0:0:0:
475,192,47266,128,0,47424:0:0:0:0:
402,192,47740,128,0,47898:0:0:0:0:
329,192,47898,128,0,48056:0:0:0:0:
256,192,48056,128,0,48213:0:0:0:0:
182,192,48213,128,0,48371:0:0:0:0:
109,192,48371,128,0,48845:0:0:0:0:
402,192,48845,128,0,49003:0:0:0:0:
402,192,49319,128,0,49477:0:0:0:0:
109,192,49477,128,0,49635:0:0:0:0:
329,192,49792,128,0,49950:0:0:0:0:
182,192,49950,128,0,50108:0:0:0:0:
329,192,50108,128,0,50266:0:0:0:0:
182,192,50266,128,0,50582:0:0:0:0:
36,192,50266,1,0,0:0:0:0:
329,192,50582,128,0,50898:0:0:0:0:
475,192,50582,1,0,0:0:0:0:
256,192,50898,1,0,0:0:0:0:
475,192,50898,1,0,0:0:0:0:
36,192,50898,1,0,0:0:0:0:
109,192,51056,128,0,51213:0:0:0:0:
182,192,51213,128,0,51371:0:0:0:0:
402,192,51213,1,0,0:0:0:0:
256,192,51371,128,0,51529:0:0:0:0:
329,192,51529,128,0,51687:0:0:0:0:
109,192,51529,1,0,0:0:0:0:
402,192,51687,128,0,51845:0:0:0:0:
36,192,51845,1,0,0:0:0:0:
256,192,51845,1,0,0:0:0:0:
475,192,52003,128,0,52161:0:0:0:0:
329,192,52161,128,0,52319:0:0:0:0:
109,192,52161,1,0,0:0:0:0:
256,192,52319,128,0,52477:0:0:0:0:
182,192,52477,128,0,52635:0:0:0:0:
402,192,52477,1,0,0:0:0:0:
36,192,52635,128,0,52792:0:0:0:0:
329,192,52792,1,0,0:0:0:0:
475,192,52792,1,0,0:0:0:0:
182,192,52950,1,0,0:0:0:0:
329,192,53108,1,0,0:0:0:0:
475,192,53108,1,0,0:0:0:0:
182,192,53266,1,0,0:0:0:0:
256,192,53424,1,0,0:0:0:0:
36,192,53424,1,0,0:0:0:0:
475,192,53582,128,0,53898:0:0:0:0:
182,192,53740,1,0,0:0:0:0:
329,192,53740,1,0,0:0:0:0:
109,192,53898,1,0,0:0:0:0:
36,192,54056,128,0,54371:0:0:0:0:
256,192,54056,1,0,0:0:0:0:
329,192,54371,1,0,0:0:0:0:
182,192,54371,1,0,0:0:0:0:
402,192,54529,1,0,0:0:0:0:
256,192,54687,128,0,55003:0:0:0:0:
475,192,54687,1,0,0:0:0:0:
329,192,55003,1,0,0:0:0:0:
109,192,55003,1,0,0:0:0:0:
475,192,55161,1,0,0:0:0:0:
182,192,55319,1,0,0:0:0:0:
36,192,55319,1,0,0:0:0:0:
329,192,55477,1,0,0:0:0:0:
182,192,55635,1,0,0:0:0:0:
36,192,55635,1,0,0:0:0:0:
329,192,55792,1,0,0:0:0:0:
475,192,55950,1,0,0:0:0:0:
402,192,55950,1,0,0:0:0:0:
36,192,56108,128,0,56424:0:0:0:0:
329,192,56266,1,0,0:0:0:0:
182,192,56266,1,0,0:0:0:0:
475,192,56424,128,0,56582:0:0:0:0:
402,192,56582,128,0,56740:0:0:0:0:
109,192,56582,1,0,0:0:0:0:
329,192,56740,128,0,56898:0:0:0:0:
256,192,56898,128,0,57056:0:0:0:0:
36,192,56898,1,0,0:0:0:0:
182,192,57056,128,0,57213:0:0:0:0:
109,192,57213,128,0,57371:0:0:0:0:
402,192,57213,1,0,0:0:0:0:
182,192,57371,128,0,57529:0:0:0:0:
256,192,57529,128,0,57687:0:0:0:0:
475,192,57529,1,0,0:0:0:0:
329,192,57687,128,0,57845:0:0:0:0:
402,192,57845,128,0,58161:0:0:0:0:
36,192,57845,1,0,0:0:0:0:
182,192,58003,1,0,0:0:0:0:
36,192,58161,1,0,0:0:0:0:
329,192,58161,1,0,0:0:0:0:
182,192,58319,1,0,0:0:0:0:
256,192,58477,1,0,0:0:0:0:
475,192,58477,1,0,0:0:0:0:
402,192,58635,1,0,0:0:0:0:
329,192,58792,1,0,0:0:0:0:
182,192,58792,1,0,0:0:0:0:
109,192,58950,1,0,0:0:0:0:
36,192,59108,1,0,0:0:0:0:
256,192,59108,1,0,0:0:0:0:
329,192,59266,1,0,0:0:0:0:
402,192,59424,1,0,0:0:0:0:
109,192,59424,1,0,0:0:0:0:
182,192,59582,1,0,0:0:0:0:
256,192,59740,1,0,0:0:0:0:
475,192,59740,1,0,0:0:0:0:
402,192,59898,1,0,0:0:0:0:
329,192,60056,1,0,0:0:0:0:
36,192,60056,1,0,0:0:0:0:
109,192,60213,1,0,0:0:0:0:
475,192,60371,1,0,0:0:0:0:
182,192,60371,1,0,0:0:0:0:
402,192,60529,1,0,0:0:0:0:
329,192,60687,1,0,0:0:0:0:
182,192,60687,1,0,0:0:0:0:
329,192,60845,1,0,0:0:0:0:
36,192,61003,1,0,0:0:0:0:
475,192,61003,1,0,0:0:0:0:
182,192,61161,128,0,61319:0:0:0:0:
109,192,61319,1,0,0:0:0:0:
329,192,61319,1,0,0:0:0:0:
182,192,61477,1,0,0:0:0:0:
256,192,61635,1,0,0:0:0:0:
475,192,61635,1,0,0:0:0:0:
329,192,61792,128,0,61950:0:0:0:0:
402,192,61950,1,0,0:0:0:0:
182,192,61950,1,0,0:0:0:0:
329,192,62108,1,0,0:0:0:0:
256,192,62266,1,0,0:0:0:0:
109,192,62266,1,0,0:0:0:0:
109,192,62424,128,0,62582:0:0:0:0:
182,192,62582,1,0,0:0:0:0:
402,192,62582,1,0,0:0:0:0:
402,192,62740,128,0,62898:0:0:0:0:
36,192,62898,1,0,0:0:0:0:
329,192,62898,1,0,0:0:0:0:
109,192,63056,1,0,0:0:0:0:
182,192,63213,1,0,0:0:0:0:
402,192,63213,1,0,0:0:0:0:
256,192,63371,1,0,0:0:0:0:
329,192,63529,1,0,0:0:0:0:
475,192,63529,1,0,0:0:0:0:
329,192,63687,128,0,63845:0:0:0:0:
182,192,63845,1,0,0:0:0:0:
36,192,63845,1,0,0:0:0:0:
182,192,64003,128,0,64161:0:0:0:0:
402,192,64161,1,0,0:0:0:0:
329,192,64161,1,0,0:0:0:0:
402,192,64319,128,0,64477:0:0:0:0:
182,192,64477,1,0,0:0:0:0:
109,192,64477,1,0,0:0:0:0:
109,192,64635,128,0,64792:0:0:0:0:
475,192,64792,1,0,0:0:0:0:
402,192,64792,128,0,64950:0:0:0:0:
329,192,64950,128,0,65108:0:0:0:0:
256,192,65108,128,0,65266:0:0:0:0:
36,192,65108,1,0,0:0:0:0:
182,192,65266,128,0,65424:0:0:0:0:
109,192,65424,1,0,0:0:0:0:
402,192,65424,1,0,0:0:0:0:
329,192,65740,1,0,0:0:0:0:
182,192,65740,1,0,0:0:0:0:
182,192,65898,1,0,0:0:0:0:
36,192,66056,1,0,0:0:0:0:
475,192,66056,1,0,0:0:0:0:
329,192,66213,128,0,66371:0:0:0:0:
402,192,66371,1,0,0:0:0:0:
182,192,66371,1,0,0:0:0:0:
329,192,66529,1,0,0:0:0:0:
256,192,66687,1,0,0:0:0:0:
36,192,66687,1,0,0:0:0:0:
182,192,66845,128,0,67003:0:0:0:0:
109,192,67003,1,0,0:0:0:0:
329,192,67003,1,0,0:0:0:0:
182,192,67161,1,0,0:0:0:0:
256,192,67319,1,0,0:0:0:0:
402,192,67319,1,0,0:0:0:0:
402,192,67477,128,0,67635:0:0:0:0:
109,192,67635,1,0,0:0:0:0:
329,192,67635,1,0,0:0:0:0:
109,192,67792,128,0,67950:0:0:0:0:
182,192,67950,1,0,0:0:0:0:
475,192,67950,1,0,0:0:0:0:
402,192,68108,1,0,0:0:0:0:
329,192,68266,1,0,0:0:0:0:
109,192,68266,1,0,0:0:0:0:
256,192,68424,1,0,0:0:0:0:
182,192,68582,1,0,0:0:0:0:
36,192,68582,128,0,68898:0:0:0:0:
109,192,68898,1,0,0:0:0:0:
329,192,68898,1,0,0:0:0:0:
329,192,69056,128,0,69213:0:0:0:0:
182,192,69213,1,0,0:0:0:0:
475,192,69213,1,0,0:0:0:0:
182,192,69371,128,0,69529:0:0:0:0:
36,192,69529,1,0,0:0:0:0:
329,192,69529,1,0,0:0:0:0:
402,192,69687,1,0,0:0:0:0:
475,192,69845,128,0,70161:0:0:0:0:
109,192,69845,1,0,0:0:0:0:
182,192,70161,1,0,0:0:0:0:
402,192,70161,1,0,0:0:0:0:
182,192,70319,128,0,70477:0:0:0:0:
36,192,70477,1,0,0:0:0:0:
329,192,70477,1,0,0:0:0:0:
329,192,70635,128,0,70792:0:0:0:0:
109,192,70792,1,0,0:0:0:0:
475,192,70792,1,0,0:0:0:0:
109,192,70950,128,0,71108:0:0:0:0:
329,192,71108,128,0,71424:0:0:0:0:
182,192,71108,128,0,71424:0:0:0:0:
256,192,71424,1,0,0:0:0:0:
402,192,71740,128,0,72056:0:0:0:0:
109,192,71740,128,0,72056:0:0:0:0:
256,192,72056,1,0,0:0:0:0:
329,192,72371,128,0,72687:0:0:0:0:
182,192,72371,128,0,72687:0:0:0:0:
256,192,72687,1,0,0:0:0:0:
475,192,73003,128,0,73319:0:0:0:0:
36,192,73003,128,0,73319:0:0:0:0:
256,192,73319,1,0,0:0:0:0:
182,192,73635,1,0,0:0:0:0:
36,192,73635,1,0,0:0:0:0:
402,192,73792,1,0,0:0:0:0:
109,192,73950,1,0,0:0:0:0:
256,192,73950,1,0,0:0:0:0:
475,192,74108,1,0,0:0:0:0:
182,192,74266,1,0,0:0:0:0:
329,192,74266,1,0,0:0:0:0:
36,192,74424,1,0,0:0:0:0:
256,192,74582,1,0,0:0:0:0:
402,192,74582,1,0,0:0:0:0:
109,192,74740,1,0,0:0:0:0:
329,192,74898,1,0,0:0:0:0:
475,192,74898,1,0,0:0:0:0:
109,192,75056,1,0,0:0:0:0:
402,192,75213,1,0,0:0:0:0:
256,192,75213,1,0,0:0:0:0:
36,192,75371,1,0,0:0:0:0:
329,192,75529,1,0,0:0:0:0:
182,192,75529,1,0,0:0:0:0:
475,192,75687,1,0,0:0:0:0:
36,192,75845,1,0,0:0:0:0:
475,192,76003,1,0,0:0:0:0:
182,192,76161,1,0,0:0:0:0:
36,192,76161,1,0,0:0:0:0:
36,192,76319,128,0,76477:0:0:0:0:
329,192,76477,1,0,0:0:0:0:
475,192,76477,1,0,0:0:0:0:
475,192,76635,128,0,76792:0:0:0:0:
109,192,76792,1,0,0:0:0:0:
256,192,76792,1,0,0:0:0:0:
109,192,76950,128,0,77108:0:0:0:0:
256,192,77108,1,0,0:0:0:0:
402,192,77108,1,0,0:0:0:0:
402,192,77266,128,0,77424:0:0:0:0:
182,192,77424,1,0,0:0:0:0:
36,192,77424,1,0,0:0:0:0:
182,192,77582,128,0,77740:0:0:0:0:
329,192,77740,1,0,0:0:0:0:
475,192,77740,1,0,0:0:0:0:
329,192,77898,128,0,78056:0:0:0:0:
36,192,78056,1,0,0:0:0:0:
109,192,78056,1,0,0:0:0:0:
182,192,78213,1,0,0:0:0:0:
402,192,78371,1,0,0:0:0:0:
329,192,78371,1,0,0:0:0:0:
256,192,78529,1,0,0:0:0:0:
475,192,78687,1,0,0:0:0:0:
109,192,78687,1,0,0:0:0:0:
475,192,78845,128,0,79003:0:0:0:0:
329,192,79003,1,0,0:0:0:0:
182,192,79003,1,0,0:0:0:0:
329,192,79161,128,0,79319:0:0:0:0:
36,192,79319,1,0,0:0:0:0:
402,192,79319,1,0,0:0:0:0:
36,192,79477,128,0,79635:0:0:0:0:
182,192,79635,1,0,0:0:0:0:
329,192,79635,1,0,0:0:0:0:
182,192,79792,128,0,79950:0:0:0:0:
36,192,79950,1,0,0:0:0:0:
475,192,79950,128,0,80266:0:0:0:0:
109,192,80108,1,0,0:0:0:0:
329,192,80266,1,0,0:0:0:0:
182,192,80266,1,0,0:0:0:0:
36,192,80424,128,0,80740:0:0:0:0:
256,192,80582,1,0,0:0:0:0:
475,192,80582,1,0,0:0:0:0:
402,192,80740,1,0,0:0:0:0:
329,192,80898,1,0,0:0:0:0:
182,192,80898,1,0,0:0:0:0:
475,192,81056,128,0,81213:0:0:0:0:
109,192,81056,1,0,0:0:0:0:
329,192,81213,128,0,81371:0:0:0:0:
36,192,81213,1,0,0:0:0:0:
182,192,81371,128,0,81529:0:0:0:0:
109,192,81529,128,0,81845:0:0:0:0:
402,192,81529,1,0,0:0:0:0:
256,192,81687,1,0,0:0:0:0:
402,192,81845,1,0,0:0:0:0:
475,192,81845,1,0,0:0:0:0:
329,192,82003,1,0,0:0:0:0:
182,192,82161,1,0,0:0:0:0:
109,192,82161,1,0,0:0:0:0:
256,192,82319,1,0,0:0:0:0:
329,192,82477,128,0,82792:0:0:0:0:
36,192,82477,1,0,0:0:0:0:
109,192,82635,1,0,0:0:0:0:
182,192,82792,1,0,0:0:0:0:
475,192,82792,1,0,0:0:0:0:
329,192,82950,128,0,83266:0:0:0:0:
109,192,83108,1,0,0:0:0:0:
36,192,83108,1,0,0:0:0:0:
182,192,83266,1,0,0:0:0:0:
256,192,83424,1,0,0:0:0:0:
475,192,83424,1,0,0:0:0:0:
329,192,83582,1,0,0:0:0:0:
182,192,83740,128,0,84056:0:0:0:0:
475,192,83740,1,0,0:0:0:0:
402,192,83898,1,0,0:0:0:0:
329,192,84056,1,0,0:0:0:0:
36,192,84056,1,0,0:0:0:0:
182,192,84213,128,0,84529:0:0:0:0:
402,192,84371,1,0,0:0:0:0:
475,192,84371,1,0,0:0:0:0:
329,192,84529,1,0,0:0:0:0:
256,192,84687,1,0,0:0:0:0:
36,192,84687,1,0,0:0:0:0:
182,192,84845,1,0,0:0:0:0:
109,192,85003,128,0,85319:0:0:0:0:
402,192,85003,1,0,0:0:0:0:
475,192,85003,1,0,0:0:0:0:
329,192,85161,1,0,0:0:0:0:
402,192,85319,128,0,85635:0:0:0:0:
182,192,85319,1,0,0:0:0:0:
256,192,85477,1,0,0:0:0:0:
109,192,85635,1,0,0:0:0:0:
36,192,85635,1,0,0:0:0:0:
475,192,85635,1,0,0:0:0:0:
182,192,85792,1,0,0:0:0:0:
329,192,85950,1,0,0:0:0:0:
182,192,86108,1,0,0:0:0:0:
475,192,86266,1,0,0:0:0:0:
329,192,86266,1,0,0:0:0:0:
475,192,86424,128,0,86582:0:0:0:0:
36,192,86582,1,0,0:0:0:0:
182,192,86582,1,0,0:0:0:0:
36,192,86740,128,0,86898:0:0:0:0:
256,192,86898,1,0,0:0:0:0:
402,192,86898,1,0,0:0:0:0:
402,192,87056,128,0,87213:0:0:0:0:
109,192,87213,1,0,0:0:0:0:
256,192,87213,1,0,0:0:0:0:
109,192,87371,128,0,87529:0:0:0:0:
475,192,87529,1,0,0:0:0:0:
329,192,87529,1,0,0:0:0:0:
329,192,87687,128,0,87845:0:0:0:0:
36,192,87845,1,0,0:0:0:0:
182,192,87845,1,0,0:0:0:0:
182,192,88003,128,0,88161:0:0:0:0:
402,192,88161,1,0,0:0:0:0:
475,192,88161,1,0,0:0:0:0:
329,192,88319,1,0,0:0:0:0:
182,192,88477,1,0,0:0:0:0:
109,192,88477,1,0,0:0:0:0:
256,192,88635,1,0,0:0:0:0:
475,192,88792,1,0,0:0:0:0:
329,192,88792,1,0,0:0:0:0:
329,192,88950,128,0,89108:0:0:0:0:
36,192,89108,1,0,0:0:0:0:
109,192,89108,1,0,0:0:0:0:
109,192,89266,128,0,89424:0:0:0:0:
475,192,89424,1,0,0:0:0:0:
402,192,89424,1,0,0:0:0:0:
402,192,89582,128,0,89740:0:0:0:0:
182,192,89740,1,0,0:0:0:0:
36,192,89740,1,0,0:0:0:0:
182,192,89898,128,0,90056:0:0:0:0:
402,192,90056,128,0,90371:0:0:0:0:
475,192,90056,1,0,0:0:0:0:
109,192,90213,1,0,0:0:0:0:
329,192,90371,1,0,0:0:0:0:
182,192,90371,1,0,0:0:0:0:
109,192,90529,128,0,90845:0:0:0:0:
475,192,90687,1,0,0:0:0:0:
256,192,90687,1,0,0:0:0:0:
402,192,90845,1,0,0:0:0:0:
182,192,91003,1,0,0:0:0:0:
329,192,91003,1,0,0:0:0:0:
182,192,91161,1,0,0:0:0:0:
329,192,91161,1,0,0:0:0:0:
475,192,91319,1,0,0:0:0:0:
36,192,91319,1,0,0:0:0:0:
475,192,91635,128,0,91950:0:0:0:0:
36,192,91635,128,0,91950:0:0:0:0:
256,192,91635,1,0,0:0:0:0:
109,192,91950,1,0,0:0:0:0:
402,192,91950,1,0,0:0:0:0:
182,192,92108,128,0,92266:0:0:0:0:
475,192,92266,1,0,0:0:0:0:
329,192,92266,128,0,92424:0:0:0:0:
182,192,92424,128,0,92582:0:0:0:0:
109,192,92582,1,0,0:0:0:0:
36,192,92582,128,0,93213:0:0:0:0:
402,192,92898,1,0,0:0:0:0:
475,192,92898,128,0,93213:0:0:0:0:
109,192,93213,1,0,0:0:0:0:
182,192,93213,1,0,0:0:0:0:
256,192,93371,1,0,0:0:0:0:
402,192,93529,1,0,0:0:0:0:
329,192,93529,1,0,0:0:0:0:
36,192,93687,128,0,95108:0:0:0:0:
182,192,93845,1,0,0:0:0:0:
475,192,93845,1,0,0:0:0:0:
402,192,94003,1,0,0:0:0:0:
109,192,94161,1,0,0:0:0:0:
329,192,94161,1,0,0:0:0:0:
256,192,94319,1,0,0:0:0:0:
475,192,94477,1,0,0:0:0:0:
182,192,94477,1,0,0:0:0:0:
256,192,94635,1,0,0:0:0:0:
109,192,94792,1,0,0:0:0:0:
329,192,94792,1,0,0:0:0:0:
402,192,94950,1,0,0:0:0:0:
475,192,95108,128,0,95266:0:0:0:0:
182,192,95108,1,0,0:0:0:0:
329,192,95266,128,0,95424:0:0:0:0:
36,192,95424,1,0,0:0:0:0:
109,192,95424,128,0,95582:0:0:0:0:
182,192,95582,128,0,95740:0:0:0:0:
402,192,95740,128,0,95898:0:0:0:0:
475,192,95740,1,0,0:0:0:0:
329,192,95898,128,0,96056:0:0:0:0:
182,192,96056,1,0,0:0:0:0:
36,192,96056,128,0,96371:0:0:0:0:
329,192,96213,1,0,0:0:0:0:
256,192,96371,1,0,0:0:0:0:
475,192,96371,1,0,0:0:0:0:
402,192,96529,1,0,0:0:0:0:
182,192,96687,1,0,0:0:0:0:
329,192,96687,1,0,0:0:0:0:
109,192,96845,1,0,0:0:0:0:
256,192,97003,1,0,0:0:0:0:
36,192,97003,1,0,0:0:0:0:
182,192,97161,1,0,0:0:0:0:
109,192,97319,1,0,0:0:0:0:
329,192,97319,1,0,0:0:0:0:
256,192,97477,1,0,0:0:0:0:
182,192,97635,1,0,0:0:0:0:
402,192,97635,1,0,0:0:0:0:
329,192,97792,1,0,0:0:0:0:
256,192,97950,1,0,0:0:0:0:
475,192,97950,1,0,0:0:0:0:
402,192,98108,1,0,0:0:0:0:
329,192,98266,1,0,0:0:0:0:
182,192,98266,1,0,0:0:0:0:
182,192,98424,1,0,0:0:0:0:
329,192,98424,1,0,0:0:0:0:
475,192,98582,1,0,0:0:0:0:
36,192,98582,1,0,0:0:0:0:
109,192,98740,1,0,0:0:0:0:
182,192,98898,1,0,0:0:0:0:
329,192,98898,1,0,0:0:0:0:
402,192,99056,1,0,0:0:0:0:
475,192,99213,1,0,0:0:0:0:
256,192,99213,1,0,0:0:0:0:
329,192,99371,1,0,0:0:0:0:
402,192,99529,1,0,0:0:0:0:
182,192,99529,1,0,0:0:0:0:
256,192,99687,1,0,0:0:0:0:
329,192,99845,1,0,0:0:0:0:
109,192,99845,1,0,0:0:0:0:
182,192,100003,1,0,0:0:0:0:
256,192,100161,1,0,0:0:0:0:
36,192,100161,1,0,0:0:0:0:
109,192,100319,1,0,0:0:0:0:
182,192,100477,1,0,0:0:0:0:
329,192,100477,1,0,0:0:0:0:
402,192,100635,1,0,0:0:0:0:
475,192,100792,1,0,0:0:0:0:
36,192,100792,1,0,0:0:0:0:
36,192,100950,1,0,0:0:0:0:
475,192,100950,1,0,0:0:0:0:
182,192,101108,1,0,0:0:0:0:
329,192,101108,1,0,0:0:0:0:
109,192,101266,1,0,0:0:0:0:
256,192,101424,1,0,0:0:0:0:
475,192,101424,1,0,0:0:0:0:
402,192,101582,1,0,0:0:0:0:
329,192,101740,1,0,0:0:0:0:
182,192,101740,1,0,0:0:0:0:
109,192,101898,1,0,0:0:0:0:
36,192,102056,1,0,0:0:0:0:
256,192,102056,1,0,0:0:0:0:
329,192,102213,1,0,0:0:0:0:
402,192,102371,1,0,0:0:0:0:
109,192,102371,1,0,0:0:0:0:
182,192,102529,1,0,0:0:0:0:
256,192,102687,1,0,0:0:0:0:
475,192,102687,1,0,0:0:0:0:
329,192,102845,1,0,0:0:0:0:
402,192,103003,1,0,0:0:0:0:
36,192,103003,1,0,0:0:0:0:
109,192,103161,1,0,0:0:0:0:
182,192,103319,1,0,0:0:0:0:
329,192,103319,1,0,0:0:0:0:
402,192,103477,1,0,0:0:0:0:
475,192,103635,1,0,0:0:0:0:
256,192,103635,1,0,0:0:0:0:
182,192,103792,1,0,0:0:0:0:
109,192,103950,1,0,0:0:0:0:
402,192,103950,1,0,0:0:0:0:
329,192,104108,1,0,0:0:0:0:
256,192,104266,1,0,0:0:0:0:
475,192,104266,1,0,0:0:0:0:
182,192,104424,1,0,0:0:0:0:
109,192,104582,1,0,0:0:0:0:
402,192,104582,1,0,0:0:0:0:
329,192,104740,1,0,0:0:0:0:
256,192,104898,1,0,0:0:0:0:
36,192,104898,1,0,0:0:0:0:
182,192,105056,1,0,0:0:0:0:
109,192,105213,1,0,0:0:0:0:
475,192,105213,1,0,0:0:0:0:
329,192,105371,1,0,0:0:0:0:
402,192,105529,1,0,0:0:0:0:
36,192,105529,1,0,0:0:0:0:
182,192,105687,1,0,0:0:0:0:
109,192,105845,1,0,0:0:0:0:
475,192,105845,1,0,0:0:0:0:
402,192,106003,1,0,0:0:0:0:
329,192,106161,1,0,0:0:0:0:
182,192,106161,1,0,0:0:0:0:
109,192,106319,1,0,0:0:0:0:
256,192,106477,1,0,0:0:0:0:
36,192,106477,1,0,0:0:0:0:
109,192,106635,1,0,0:0:0:0:
329,192,106792,1,0,0:0:0:0:
182,192,106792,1,0,0:0:0:0:
402,192,106950,1,0,0:0:0:0:
256,192,107108,1,0,0:0:0:0:
475,192,107108,1,0,0:0:0:0:
329,192,107266,1,0,0:0:0:0:
402,192,107424,1,0,0:0:0:0:
182,192,107424,1,0,0:0:0:0:
256,192,107582,1,0,0:0:0:0:
329,192,107740,1,0,0:0:0:0:
109,192,107740,1,0,0:0:0:0:
182,192,107898,1,0,0:0:0:0:
256,192,108056,1,0,0:0:0:0:
36,192,108056,1,0,0:0:0:0:
109,192,108213,1,0,0:0:0:0:
182,192,108371,1,0,0:0:0:0:
329,192,108371,1,0,0:0:0:0:
329,192,108529,1,0,0:0:0:0:
182,192,108529,1,0,0:0:0:0:
36,192,108687,1,0,0:0:0:0:
475,192,108687,1,0,0:0:0:0:
402,192,108845,1,0,0:0:0:0:
329,192,109003,1,0,0:0:0:0:
182,192,109003,1,0,0:0:0:0:
109,192,109161,1,0,0:0:0:0:
36,192,109319,1,0,0:0:0:0:
256,192,109319,1,0,0:0:0:0:
182,192,109477,1,0,0:0:0:0:
109,192,109635,1,0,0:0:0:0:
329,192,109635,1,0,0:0:0:0:
256,192,109792,1,0,0:0:0:0:
182,192,109950,1,0,0:0:0:0:
402,192,109950,1,0,0:0:0:0:
329,192,110108,1,0,0:0:0:0:
256,192,110266,1,0,0:0:0:0:
475,192,110266,1,0,0:0:0:0:
402,192,110424,1,0,0:0:0:0:
329,192,110582,1,0,0:0:0:0:
182,192,110582,1,0,0:0:0:0:
109,192,110740,1,0,0:0:0:0:
36,192,110898,1,0,0:0:0:0:
475,192,110898,1,0,0:0:0:0:
475,192,111056,1,0,0:0:0:0:
36,192,111056,1,0,0:0:0:0:
329,192,111213,1,0,0:0:0:0:
182,192,111213,1,0,0:0:0:0:
402,192,111371,1,0,0:0:0:0:
256,192,111529,1,0,0:0:0:0:
36,192,111529,1,0,0:0:0:0:
109,192,111687,1,0,0:0:0:0:
182,192,111845,1,0,0:0:0:0:
329,192,111845,1,0,0:0:0:0:
402,192,112003,1,0,0:0:0:0:
475,192,112161,1,0,0:0:0:0:
256,192,112161,1,0,0:0:0:0:
182,192,112319,1,0,0:0:0:0:
109,192,112477,1,0,0:0:0:0:
402,192,112477,1,0,0:0:0:0:
329,192,112635,1,0,0:0:0:0:
256,192,112792,1,0,0:0:0:0:
36,192,112792,1,0,0:0:0:0:
182,192,112950,1,0,0:0:0:0:
109,192,113108,1,0,0:0:0:0:
475,192,113108,1,0,0:0:0:0:
402,192,113266,1,0,0:0:0:0:
329,192,113424,1,0,0:0:0:0:
182,192,113424,1,0,0:0:0:0:
109,192,113582,1,0,0:0:0:0:
36,192,113740,1,0,0:0:0:0:
256,192,113740,1,0,0:0:0:0:
329,192,113898,1,0,0:0:0:0:
109,192,114056,1,0,0:0:0:0:
402,192,114056,128,0,114213:0:0:0:0:
256,192,114213,128,0,114371:0:0:0:0:
475,192,114371,128,0,114529:0:0:0:0:
36,192,114371,1,0,0:0:0:0:
329,192,114529,128,0,114687:0:0:0:0:
109,192,114687,128,0,114845:0:0:0:0:
402,192,114687,1,0,0:0:0:0:
256,192,114845,128,0,115003:0:0:0:0:
36,192,115003,128,0,115161:0:0:0:0:
475,192,115003,1,0,0:0:0:0:
182,192,115161,128,0,115319:0:0:0:0:
402,192,115319,128,0,115635:0:0:0:0:
329,192,115319,1,0,0:0:0:0:
256,192,115477,1,0,0:0:0:0:
109,192,115635,128,0,115950:0:0:0:0:
182,192,115635,1,0,0:0:0:0:
256,192,115792,1,0,0:0:0:0:
475,192,115950,1,0,0:0:0:0:
402,192,115950,1,0,0:0:0:0:
329,192,116108,1,0,0:0:0:0:
109,192,116266,1,0,0:0:0:0:
36,192,116266,1,0,0:0:0:0:
182,192,116424,1,0,0:0:0:0:
475,192,116582,1,0,0:0:0:0:
402,192,116582,1,0,0:0:0:0:
256,192,116582,1,0,0:0:0:0:
256,192,116898,1,0,0:0:0:0:
475,192,116898,128,0,117056:0:0:0:0:
402,192,117056,128,0,117213:0:0:0:0:
109,192,117213,1,0,0:0:0:0:
329,192,117213,128,0,117371:0:0:0:0:
256,192,117371,128,0,117529:0:0:0:0:
402,192,117529,1,0,0:0:0:0:
182,192,117529,1,0,0:0:0:0:
36,192,117687,1,0,0:0:0:0:
475,192,117845,1,0,0:0:0:0:
256,192,117845,1,0,0:0:0:0:
36,192,118003,128,0,118161:0:0:0:0:
329,192,118161,1,0,0:0:0:0:
109,192,118161,128,0,118319:0:0:0:0:
182,192,118319,128,0,118477:0:0:0:0:
402,192,118477,1,0,0:0:0:0:
475,192,118477,1,0,0:0:0:0:
402,192,118635,1,0,0:0:0:0:
36,192,118792,1,0,0:0:0:0:
109,192,118792,1,0,0:0:0:0:
109,192,118950,1,0,0:0:0:0:
329,192,119108,1,0,0:0:0:0:
182,192,119108,1,0,0:0:0:0:
109,192,119424,1,0,0:0:0:0:
256,192,119424,128,0,119582:0:0:0:0:
329,192,119582,128,0,119740:0:0:0:0:
182,192,119740,1,0,0:0:0:0:
402,192,119740,128,0,119898:0:0:0:0:
475,192,119898,128,0,120056:0:0:0:0:
256,192,120056,1,0,0:0:0:0:
329,192,120056,1,0,0:0:0:0:
182,192,120213,1,0,0:0:0:0:
402,192,120371,1,0,0:0:0:0:
475,192,120371,1,0,0:0:0:0:
182,192,120529,128,0,120687:0:0:0:0:
329,192,120687,1,0,0:0:0:0:
109,192,120687,128,0,120845:0:0:0:0:
36,192,120845,128,0,121003:0:0:0:0:
475,192,121003,1,0,0:0:0:0:
256,192,121003,1,0,0:0:0:0:
402,192,121161,1,0,0:0:0:0:
109,192,121319,1,0,0:0:0:0:
329,192,121319,1,0,0:0:0:0:
256,192,121477,1,0,0:0:0:0:
182,192,121635,1,0,0:0:0:0:
36,192,121635,1,0,0:0:0:0:
475,192,121635,1,0,0:0:0:0:
256,192,121950,1,0,0:0:0:0:
36,192,121950,128,0,122108:0:0:0:0:
109,192,122108,128,0,122266:0:0:0:0:
402,192,122266,1,0,0:0:0:0:
182,192,122266,128,0,122424:0:0:0:0:
256,192,122424,128,0,122582:0:0:0:0:
109,192,122582,1,0,0:0:0:0:
329,192,122582,1,0,0:0:0:0:
475,192,122740,1,0,0:0:0:0:
36,192,122898,1,0,0:0:0:0:
256,192,122898,1,0,0:0:0:0:
475,192,123056,128,0,123213:0:0:0:0:
402,192,123213,128,0,123371:0:0:0:0:
109,192,123213,1,0,0:0:0:0:
329,192,123371,128,0,123529:0:0:0:0:
36,192,123529,1,0,0:0:0:0:
182,192,123529,1,0,0:0:0:0:
182,192,123687,1,0,0:0:0:0:
475,192,123845,1,0,0:0:0:0:
329,192,123845,1,0,0:0:0:0:
329,192,124003,1,0,0:0:0:0:
402,192,124161,1,0,0:0:0:0:
182,192,124161,1,0,0:0:0:0:
36,192,124477,1,0,0:0:0:0:
256,192,124477,1,0,0:0:0:0:
109,192,124635,1,0,0:0:0:0:
182,192,124792,1,0,0:0:0:0:
329,192,124792,1,0,0:0:0:0:
402,192,124950,1,0,0:0:0:0:
256,192,125108,1,0,0:0:0:0:
475,192,125108,1,0,0:0:0:0:
182,192,125266,1,0,0:0:0:0:
402,192,125424,1,0,0:0:0:0:
109,192,125424,1,0,0:0:0:0:
329,192,125582,1,0,0:0:0:0:
36,192,125740,1,0,0:0:0:0:
256,192,125740,1,0,0:0:0:0:
109,192,125898,1,0,0:0:0:0:
329,192,126056,1,0,0:0:0:0:
182,192,126056,1,0,0:0:0:0:
402,192,126213,1,0,0:0:0:0:
256,192,126371,1,0,0:0:0:0:
475,192,126371,1,0,0:0:0:0:
182,192,126529,1,0,0:0:0:0:
109,192,126687,1,0,0:0:0:0:
256,192,126845,1,0,0:0:0:0:
475,192,127003,1,0,0:0:0:0:
329,192,127161,1,0,0:0:0:0:
182,192,127319,1,0,0:0:0:0:
36,192,127477,1,0,0:0:0:0:
109,192,127792,128,0,128266:0:0:0:0:
402,192,127792,128,0,128266:0:0:0:0:
329,192,128266,128,0,128582:0:0:0:0:
182,192,128266,128,0,128582:0:0:0:0:
109,192,128582,1,0,0:0:0:0:
402,192,128582,1,0,0:0:0:0:
256,192,128740,1,0,0:0:0:0:
329,192,128898,1,0,0:0:0:0:
182,192,128898,1,0,0:0:0:0:
475,192,129056,128,0,130477:0:0:0:0:
256,192,129056,128,0,130477:0:0:0:0:
36,192,129056,128,0,130477:0:0:0:0:
