osu file format v14

[General]
AudioFilename: audio.mp3
AudioLeadIn: 0
PreviewTime: 75687
Countdown: 0
SampleSet: Soft
StackLeniency: 0.7
Mode: 3
LetterboxInBreaks: 0
SpecialStyle: 0
WidescreenStoryboard: 1

[Editor]
Bookmarks: 40792,76161,96371
DistanceSpacing: 0.8
BeatDivisor: 4
GridSize: 32
TimelineZoom: 2.5

[Metadata]
Title:Happy Time wa Owaranai (Cut Ver.)
TitleUnicode:ハッピータイムは終わらない (Cut Ver.)
Artist:Nanamori-chu * Goraku-bu
ArtistUnicode:七森中☆ごらく部
Creator:MapleSyrup-
Version:Easy
Source:ゆるゆり
Tags:YuruYuri 三上枝織 大坪由佳 津田美波 大久保瑠美 Mikami Shiori Otsubo Yuka Tsuda Minami Okubo Rumi 赤座あかり Akaza Akari 歳納京子 Toshino Kyoko 船見結衣 Funami Yui 吉川ちなつ Yoshikawa Chinatsu YRYR Yuru Yuri NON-STOP MIX ALBUM NON STOP 2nd Series 2nd.Series BESTALBUM ゆるゆりずむ 2 ゆるゆりみっくす Anime Japanese
BeatmapID:4046509
BeatmapSetID:1440947

[Difficulty]
HPDrainRate:6.3
CircleSize:7
OverallDifficulty:6.3
ApproachRate:5
SliderMultiplier:1.4
SliderTickRate:1

[Events]
//Background and Video events
0,0,"Akari Yui Kyouko Chinatsu 457.jpg",0,0
//Break Periods
//Storyboard Layer 0 (Background)
//Storyboard Layer 1 (Fail)
//Storyboard Layer 2 (Pass)
//Storyboard Layer 3 (Foreground)
//Storyboard Layer 4 (Overlay)
//Storyboard Sound Samples

[TimingPoints]
1635,315.789473684211,4,2,1,60,1,0

[HitObjects]
36,192,5424,5,0,0:0:0:0:
182,192,5740,1,0,0:0:0:0:
475,192,6056,1,0,0:0:0:0:
329,192,6371,1,0,0:0:0:0:
109,192,6687,1,0,0:0:0:0:
256,192,7003,1,0,0:0:0:0:
402,192,7319,1,0,0:0:0:0:
109,192,7635,1,0,0:0:0:0:
475,192,7950,1,0,0:0:0:0:
329,192,8266,1,0,0:0:0:0:
36,192,8582,1,0,0:0:0:0:
182,192,8898,1,0,0:0:0:0:
402,192,9213,1,0,0:0:0:0:
182,192,9529,1,0,0:0:0:0:
329,192,9687,1,0,0:0:0:0:
256,192,10003,128,0,10477:0:0:0:0:
36,192,10477,1,0,0:0:0:0:
475,192,10477,1,0,0:0:0:0:
402,192,10792,1,0,0:0:0:0:
329,192,11108,1,0,0:0:0:0:
256,192,11424,1,0,0:0:0:0:
182,192,11740,1,0,0:0:0:0:
109,192,12056,1,0,0:0:0:0:
36,192,12371,1,0,0:0:0:0:
256,192,12687,128,0,13003:0:0:0:0:
475,192,13003,1,0,0:0:0:0:
36,192,13003,1,0,0:0:0:0:
109,192,13319,1,0,0:0:0:0:
182,192,13635,1,0,0:0:0:0:
256,192,13950,1,0,0:0:0:0:
475,192,14266,1,0,0:0:0:0:
329,192,14266,128,0,14740:0:0:0:0:
256,192,14740,128,0,15056:0:0:0:0:
182,192,15056,128,0,15371:0:0:0:0:
402,192,15371,128,0,15845:0:0:0:0:
109,192,15845,128,0,16319:0:0:0:0:
256,192,16319,128,0,16792:0:0:0:0:
475,192,16792,1,0,0:0:0:0:
36,192,16792,128,0,17108:0:0:0:0:
329,192,17108,1,0,0:0:0:0:
36,192,17266,128,0,17582:0:0:0:0:
256,192,17582,128,0,18056:0:0:0:0:
36,192,18056,1,0,0:0:0:0:
475,192,18056,128,0,18371:0:0:0:0:
182,192,18371,1,0,0:0:0:0:
475,192,18529,128,0,18845:0:0:0:0:
256,192,18845,128,0,19319:0:0:0:0:
36,192,19319,1,0,0:0:0:0:
182,192,19319,1,0,0:0:0:0:
475,192,19635,1,0,0:0:0:0:
329,192,19635,1,0,0:0:0:0:
256,192,20108,128,0,20582:0:0:0:0:
36,192,20582,128,0,20898:0:0:0:0:
475,192,20582,1,0,0:0:0:0:
329,192,20898,128,0,21213:0:0:0:0:
182,192,20898,1,0,0:0:0:0:
109,192,21213,128,0,21529:0:0:0:0:
402,192,21529,128,0,21845:0:0:0:0:
256,192,21529,1,0,0:0:0:0:
182,192,21845,128,0,22161:0:0:0:0:
475,192,22161,128,0,22477:0:0:0:0:
36,192,22161,1,0,0:0:0:0:
109,192,22477,1,0,0:0:0:0:
182,192,22792,1,0,0:0:0:0:
329,192,22792,1,0,0:0:0:0:
475,192,23108,128,0,23424:0:0:0:0:
182,192,23424,128,0,23740:0:0:0:0:
329,192,23424,1,0,0:0:0:0:
402,192,23740,128,0,24056:0:0:0:0:
109,192,24056,128,0,24371:0:0:0:0:
256,192,24056,1,0,0:0:0:0:
329,192,24371,128,0,24687:0:0:0:0:
475,192,24687,1,0,0:0:0:0:
36,192,24687,1,0,0:0:0:0:
182,192,24845,128,0,25161:0:0:0:0:
402,192,25161,128,0,25477:0:0:0:0:
109,192,25477,128,0,25950:0:0:0:0:
475,192,25950,128,0,26266:0:0:0:0:
329,192,25950,128,0,26266:0:0:0:0:
109,192,26266,1,0,0:0:0:0:
256,192,26582,1,0,0:0:0:0:
256,192,26898,1,0,0:0:0:0:
402,192,26898,128,0,27213:0:0:0:0:
182,192,27213,128,0,27529:0:0:0:0:
329,192,27529,128,0,27845:0:0:0:0:
256,192,27845,128,0,28161:0:0:0:0:
36,192,27845,1,0,0:0:0:0:
475,192,28161,1,0,0:0:0:0:
109,192,28161,1,0,0:0:0:0:
182,192,28477,1,0,0:0:0:0:
256,192,28792,1,0,0:0:0:0:
329,192,29108,1,0,0:0:0:0:
36,192,29424,1,0,0:0:0:0:
475,192,29424,1,0,0:0:0:0:
402,192,29740,1,0,0:0:0:0:
329,192,30056,1,0,0:0:0:0:
256,192,30371,1,0,0:0:0:0:
36,192,30687,1,0,0:0:0:0:
475,192,30687,1,0,0:0:0:0:
36,192,31003,128,0,31319:0:0:0:0:
182,192,31319,1,0,0:0:0:0:
256,192,31635,1,0,0:0:0:0:
475,192,31950,1,0,0:0:0:0:
475,192,32266,128,0,32582:0:0:0:0:
329,192,32582,1,0,0:0:0:0:
182,192,32582,1,0,0:0:0:0:
182,192,32898,1,0,0:0:0:0:
329,192,32898,1,0,0:0:0:0:
402,192,33213,1,0,0:0:0:0:
109,192,33213,1,0,0:0:0:0:
109,192,33529,128,0,33845:0:0:0:0:
256,192,33845,1,0,0:0:0:0:
329,192,34161,1,0,0:0:0:0:
402,192,34477,1,0,0:0:0:0:
402,192,34792,128,0,35108:0:0:0:0:
329,192,35108,1,0,0:0:0:0:
182,192,35108,1,0,0:0:0:0:
109,192,35424,1,0,0:0:0:0:
475,192,35740,1,0,0:0:0:0:
36,192,35740,1,0,0:0:0:0:
475,192,36056,128,0,36371:0:0:0:0:
329,192,36371,1,0,0:0:0:0:
256,192,36687,1,0,0:0:0:0:
36,192,37003,1,0,0:0:0:0:
36,192,37319,128,0,37635:0:0:0:0:
182,192,37635,1,0,0:0:0:0:
329,192,37635,1,0,0:0:0:0:
329,192,37950,1,0,0:0:0:0:
182,192,37950,1,0,0:0:0:0:
109,192,38266,1,0,0:0:0:0:
402,192,38266,1,0,0:0:0:0:
402,192,38582,128,0,38898:0:0:0:0:
182,192,38898,128,0,39213:0:0:0:0:
329,192,39213,128,0,39529:0:0:0:0:
109,192,39529,128,0,39845:0:0:0:0:
475,192,39845,128,0,40161:0:0:0:0:
36,192,40161,128,0,40477:0:0:0:0:
256,192,40477,128,0,40792:0:0:0:0:
402,192,40792,128,0,41266:0:0:0:0:
109,192,41266,1,0,0:0:0:0:
109,192,41898,1,0,0:0:0:0:
402,192,42213,1,0,0:0:0:0:
475,192,42687,128,0,43003:0:0:0:0:
329,192,43003,128,0,43319:0:0:0:0:
182,192,43319,128,0,43792:0:0:0:0:
329,192,43792,1,0,0:0:0:0:
329,192,44424,1,0,0:0:0:0:
182,192,44740,1,0,0:0:0:0:
109,192,45213,128,0,45529:0:0:0:0:
256,192,45529,128,0,45845:0:0:0:0:
475,192,45845,128,0,46319:0:0:0:0:
36,192,46319,1,0,0:0:0:0:
36,192,46950,1,0,0:0:0:0:
475,192,47266,1,0,0:0:0:0:
402,192,47740,128,0,48056:0:0:0:0:
256,192,48056,128,0,48371:0:0:0:0:
109,192,48371,128,0,48845:0:0:0:0:
402,192,48845,1,0,0:0:0:0:
109,192,49319,1,0,0:0:0:0:
402,192,49477,1,0,0:0:0:0:
256,192,49792,128,0,50266:0:0:0:0:
329,192,50266,1,0,0:0:0:0:
182,192,50266,1,0,0:0:0:0:
402,192,50582,1,0,0:0:0:0:
109,192,50582,1,0,0:0:0:0:
475,192,50898,1,0,0:0:0:0:
36,192,50898,1,0,0:0:0:0:
109,192,51213,1,0,0:0:0:0:
182,192,51529,1,0,0:0:0:0:
256,192,51845,1,0,0:0:0:0:
475,192,52161,1,0,0:0:0:0:
36,192,52161,1,0,0:0:0:0:
402,192,52477,1,0,0:0:0:0:
329,192,52792,1,0,0:0:0:0:
256,192,53108,1,0,0:0:0:0:
109,192,53424,1,0,0:0:0:0:
402,192,53424,1,0,0:0:0:0:
182,192,53740,1,0,0:0:0:0:
256,192,54056,1,0,0:0:0:0:
329,192,54371,1,0,0:0:0:0:
402,192,54687,1,0,0:0:0:0:
109,192,54687,1,0,0:0:0:0:
329,192,55003,1,0,0:0:0:0:
256,192,55319,1,0,0:0:0:0:
182,192,55635,1,0,0:0:0:0:
109,192,55950,1,0,0:0:0:0:
475,192,55950,1,0,0:0:0:0:
329,192,56266,1,0,0:0:0:0:
182,192,56582,1,0,0:0:0:0:
36,192,56898,1,0,0:0:0:0:
475,192,57213,1,0,0:0:0:0:
329,192,57213,1,0,0:0:0:0:
256,192,57529,1,0,0:0:0:0:
182,192,57845,1,0,0:0:0:0:
109,192,58161,1,0,0:0:0:0:
329,192,58477,1,0,0:0:0:0:
329,192,58792,1,0,0:0:0:0:
182,192,59108,1,0,0:0:0:0:
182,192,59424,1,0,0:0:0:0:
475,192,59740,128,0,60056:0:0:0:0:
36,192,60056,128,0,60371:0:0:0:0:
475,192,60371,128,0,60687:0:0:0:0:
36,192,60687,128,0,61003:0:0:0:0:
329,192,61003,128,0,61319:0:0:0:0:
475,192,61003,1,0,0:0:0:0:
182,192,61319,1,0,0:0:0:0:
182,192,61635,128,0,61950:0:0:0:0:
329,192,61950,1,0,0:0:0:0:
36,192,62266,1,0,0:0:0:0:
182,192,62582,1,0,0:0:0:0:
329,192,62898,1,0,0:0:0:0:
475,192,63213,1,0,0:0:0:0:
109,192,63529,128,0,63845:0:0:0:0:
182,192,63845,128,0,64161:0:0:0:0:
402,192,64161,128,0,64477:0:0:0:0:
329,192,64477,128,0,64792:0:0:0:0:
36,192,64792,128,0,65108:0:0:0:0:
256,192,65108,128,0,65424:0:0:0:0:
475,192,65424,128,0,65740:0:0:0:0:
256,192,65740,1,0,0:0:0:0:
182,192,66056,128,0,66371:0:0:0:0:
36,192,66056,1,0,0:0:0:0:
329,192,66371,1,0,0:0:0:0:
329,192,66687,128,0,67003:0:0:0:0:
182,192,67003,1,0,0:0:0:0:
475,192,67319,1,0,0:0:0:0:
329,192,67635,1,0,0:0:0:0:
182,192,67950,1,0,0:0:0:0:
109,192,68266,1,0,0:0:0:0:
402,192,68582,128,0,68898:0:0:0:0:
36,192,68582,1,0,0:0:0:0:
329,192,68898,1,0,0:0:0:0:
256,192,69213,1,0,0:0:0:0:
182,192,69529,1,0,0:0:0:0:
109,192,69845,128,0,70161:0:0:0:0:
475,192,69845,1,0,0:0:0:0:
182,192,70161,1,0,0:0:0:0:
256,192,70477,1,0,0:0:0:0:
329,192,70792,1,0,0:0:0:0:
402,192,71108,128,0,71424:0:0:0:0:
475,192,71108,128,0,71424:0:0:0:0:
109,192,71740,128,0,72056:0:0:0:0:
36,192,71740,128,0,72056:0:0:0:0:
329,192,72371,128,0,72687:0:0:0:0:
402,192,72371,128,0,72687:0:0:0:0:
182,192,73003,128,0,73319:0:0:0:0:
109,192,73003,128,0,73319:0:0:0:0:
256,192,73635,1,0,0:0:0:0:
475,192,73635,1,0,0:0:0:0:
402,192,73950,1,0,0:0:0:0:
329,192,74266,1,0,0:0:0:0:
36,192,74266,1,0,0:0:0:0:
109,192,74582,1,0,0:0:0:0:
182,192,74898,1,0,0:0:0:0:
329,192,74898,1,0,0:0:0:0:
475,192,75213,1,0,0:0:0:0:
36,192,75213,1,0,0:0:0:0:
329,192,75529,1,0,0:0:0:0:
182,192,75529,1,0,0:0:0:0:
36,192,76161,128,0,76477:0:0:0:0:
475,192,76161,1,0,0:0:0:0:
256,192,76477,128,0,76792:0:0:0:0:
402,192,76477,1,0,0:0:0:0:
109,192,76792,128,0,77108:0:0:0:0:
329,192,77108,128,0,77424:0:0:0:0:
475,192,77108,1,0,0:0:0:0:
182,192,77424,128,0,77740:0:0:0:0:
402,192,77740,128,0,78056:0:0:0:0:
109,192,77740,1,0,0:0:0:0:
256,192,78056,128,0,78371:0:0:0:0:
182,192,78371,1,0,0:0:0:0:
36,192,78371,1,0,0:0:0:0:
475,192,78687,128,0,79003:0:0:0:0:
182,192,79003,128,0,79319:0:0:0:0:
36,192,79003,1,0,0:0:0:0:
402,192,79319,128,0,79635:0:0:0:0:
109,192,79635,128,0,79950:0:0:0:0:
256,192,79635,1,0,0:0:0:0:
329,192,79950,128,0,80266:0:0:0:0:
182,192,80266,1,0,0:0:0:0:
36,192,80266,1,0,0:0:0:0:
329,192,80424,128,0,80740:0:0:0:0:
182,192,80740,128,0,81056:0:0:0:0:
475,192,81056,128,0,81371:0:0:0:0:
256,192,81371,1,0,0:0:0:0:
36,192,81529,128,0,81845:0:0:0:0:
109,192,81845,1,0,0:0:0:0:
402,192,81845,1,0,0:0:0:0:
182,192,82161,1,0,0:0:0:0:
329,192,82161,1,0,0:0:0:0:
402,192,82477,128,0,82792:0:0:0:0:
109,192,82792,1,0,0:0:0:0:
402,192,82950,128,0,83266:0:0:0:0:
256,192,83266,128,0,83740:0:0:0:0:
109,192,83740,128,0,84056:0:0:0:0:
402,192,84056,1,0,0:0:0:0:
109,192,84213,128,0,84529:0:0:0:0:
256,192,84529,128,0,85003:0:0:0:0:
475,192,85003,1,0,0:0:0:0:
36,192,85003,1,0,0:0:0:0:
109,192,85319,1,0,0:0:0:0:
402,192,85319,1,0,0:0:0:0:
329,192,85635,1,0,0:0:0:0:
182,192,85635,1,0,0:0:0:0:
475,192,86266,128,0,86582:0:0:0:0:
36,192,86266,1,0,0:0:0:0:
256,192,86582,128,0,86898:0:0:0:0:
109,192,86582,1,0,0:0:0:0:
402,192,86898,128,0,87213:0:0:0:0:
182,192,87213,128,0,87529:0:0:0:0:
36,192,87213,1,0,0:0:0:0:
329,192,87529,128,0,87845:0:0:0:0:
109,192,87845,128,0,88161:0:0:0:0:
402,192,87845,1,0,0:0:0:0:
256,192,88161,128,0,88477:0:0:0:0:
329,192,88477,1,0,0:0:0:0:
475,192,88477,1,0,0:0:0:0:
36,192,88792,128,0,89108:0:0:0:0:
329,192,89108,128,0,89424:0:0:0:0:
475,192,89108,1,0,0:0:0:0:
109,192,89424,128,0,89740:0:0:0:0:
402,192,89740,128,0,90056:0:0:0:0:
256,192,89740,1,0,0:0:0:0:
182,192,90056,128,0,90371:0:0:0:0:
36,192,90371,1,0,0:0:0:0:
475,192,90371,1,0,0:0:0:0:
329,192,90529,128,0,90845:0:0:0:0:
109,192,90845,128,0,91161:0:0:0:0:
402,192,91161,128,0,91635:0:0:0:0:
36,192,91635,128,0,91950:0:0:0:0:
182,192,91635,128,0,91950:0:0:0:0:
402,192,91950,1,0,0:0:0:0:
256,192,92266,128,0,92582:0:0:0:0:
402,192,92582,1,0,0:0:0:0:
109,192,92582,128,0,92898:0:0:0:0:
329,192,92898,128,0,93213:0:0:0:0:
36,192,92898,1,0,0:0:0:0:
182,192,93213,128,0,93529:0:0:0:0:
256,192,93529,128,0,93845:0:0:0:0:
475,192,93529,1,0,0:0:0:0:
36,192,93845,1,0,0:0:0:0:
402,192,93845,1,0,0:0:0:0:
329,192,94161,1,0,0:0:0:0:
256,192,94477,1,0,0:0:0:0:
182,192,94792,1,0,0:0:0:0:
475,192,95108,1,0,0:0:0:0:
36,192,95108,1,0,0:0:0:0:
109,192,95424,1,0,0:0:0:0:
182,192,95740,1,0,0:0:0:0:
256,192,96056,1,0,0:0:0:0:
475,192,96371,1,0,0:0:0:0:
36,192,96371,1,0,0:0:0:0:
329,192,96687,1,0,0:0:0:0:
182,192,96687,1,0,0:0:0:0:
475,192,97003,1,0,0:0:0:0:
329,192,97319,1,0,0:0:0:0:
182,192,97319,1,0,0:0:0:0:
475,192,97635,1,0,0:0:0:0:
402,192,97950,1,0,0:0:0:0:
182,192,97950,1,0,0:0:0:0:
329,192,98266,1,0,0:0:0:0:
182,192,98424,1,0,0:0:0:0:
329,192,98582,1,0,0:0:0:0:
256,192,98582,1,0,0:0:0:0:
36,192,98898,1,0,0:0:0:0:
475,192,98898,1,0,0:0:0:0:
182,192,99213,1,0,0:0:0:0:
329,192,99213,1,0,0:0:0:0:
36,192,99529,1,0,0:0:0:0:
182,192,99845,1,0,0:0:0:0:
329,192,99845,1,0,0:0:0:0:
36,192,100161,1,0,0:0:0:0:
109,192,100477,1,0,0:0:0:0:
329,192,100477,1,0,0:0:0:0:
182,192,100792,1,0,0:0:0:0:
329,192,100950,1,0,0:0:0:0:
182,192,101108,1,0,0:0:0:0:
256,192,101108,1,0,0:0:0:0:
402,192,101424,1,0,0:0:0:0:
36,192,101424,1,0,0:0:0:0:
329,192,101740,1,0,0:0:0:0:
256,192,102056,1,0,0:0:0:0:
182,192,102371,1,0,0:0:0:0:
109,192,102687,1,0,0:0:0:0:
475,192,102687,1,0,0:0:0:0:
402,192,103003,1,0,0:0:0:0:
329,192,103319,1,0,0:0:0:0:
256,192,103635,1,0,0:0:0:0:
109,192,103950,1,0,0:0:0:0:
475,192,103950,1,0,0:0:0:0:
182,192,104266,1,0,0:0:0:0:
256,192,104582,1,0,0:0:0:0:
329,192,104898,1,0,0:0:0:0:
402,192,105213,1,0,0:0:0:0:
36,192,105213,1,0,0:0:0:0:
109,192,105529,1,0,0:0:0:0:
182,192,105845,1,0,0:0:0:0:
329,192,105845,1,0,0:0:0:0:
402,192,106161,1,0,0:0:0:0:
109,192,106161,1,0,0:0:0:0:
36,192,106477,1,0,0:0:0:0:
475,192,106477,1,0,0:0:0:0:
182,192,106792,1,0,0:0:0:0:
329,192,106792,1,0,0:0:0:0:
36,192,107108,1,0,0:0:0:0:
182,192,107424,1,0,0:0:0:0:
329,192,107424,1,0,0:0:0:0:
36,192,107740,1,0,0:0:0:0:
109,192,108056,1,0,0:0:0:0:
329,192,108056,1,0,0:0:0:0:
182,192,108371,1,0,0:0:0:0:
329,192,108529,1,0,0:0:0:0:
182,192,108687,1,0,0:0:0:0:
402,192,108687,1,0,0:0:0:0:
475,192,109003,1,0,0:0:0:0:
36,192,109003,1,0,0:0:0:0:
329,192,109319,1,0,0:0:0:0:
182,192,109319,1,0,0:0:0:0:
475,192,109635,1,0,0:0:0:0:
329,192,109950,1,0,0:0:0:0:
182,192,109950,1,0,0:0:0:0:
475,192,110266,1,0,0:0:0:0:
402,192,110582,1,0,0:0:0:0:
182,192,110582,1,0,0:0:0:0:
329,192,110898,1,0,0:0:0:0:
182,192,111056,1,0,0:0:0:0:
109,192,111213,1,0,0:0:0:0:
329,192,111213,1,0,0:0:0:0:
475,192,111529,1,0,0:0:0:0:
36,192,111529,1,0,0:0:0:0:
402,192,111845,1,0,0:0:0:0:
329,192,112161,1,0,0:0:0:0:
256,192,112477,1,0,0:0:0:0:
475,192,112792,1,0,0:0:0:0:
36,192,112792,1,0,0:0:0:0:
109,192,113108,1,0,0:0:0:0:
182,192,113424,1,0,0:0:0:0:
256,192,113740,1,0,0:0:0:0:
36,192,114056,1,0,0:0:0:0:
402,192,114056,128,0,114371:0:0:0:0:
182,192,114371,128,0,114687:0:0:0:0:
329,192,114687,128,0,115003:0:0:0:0:
109,192,115003,128,0,115319:0:0:0:0:
329,192,115319,1,0,0:0:0:0:
475,192,115319,128,0,115635:0:0:0:0:
182,192,115635,1,0,0:0:0:0:
36,192,115635,128,0,115950:0:0:0:0:
329,192,115950,1,0,0:0:0:0:
402,192,115950,128,0,116266:0:0:0:0:
182,192,116266,1,0,0:0:0:0:
109,192,116266,128,0,116582:0:0:0:0:
475,192,116582,1,0,0:0:0:0:
329,192,116582,1,0,0:0:0:0:
475,192,116898,128,0,117213:0:0:0:0:
329,192,117213,1,0,0:0:0:0:
256,192,117529,1,0,0:0:0:0:
36,192,117845,1,0,0:0:0:0:
36,192,118161,128,0,118477:0:0:0:0:
182,192,118477,1,0,0:0:0:0:
329,192,118477,1,0,0:0:0:0:
329,192,118792,1,0,0:0:0:0:
182,192,118792,1,0,0:0:0:0:
109,192,119108,1,0,0:0:0:0:
402,192,119108,1,0,0:0:0:0:
402,192,119424,128,0,119740:0:0:0:0:
256,192,119740,1,0,0:0:0:0:
182,192,120056,1,0,0:0:0:0:
109,192,120371,1,0,0:0:0:0:
109,192,120687,128,0,121003:0:0:0:0:
182,192,121003,1,0,0:0:0:0:
329,192,121003,1,0,0:0:0:0:
402,192,121319,1,0,0:0:0:0:
36,192,121635,1,0,0:0:0:0:
475,192,121635,1,0,0:0:0:0:
36,192,121950,128,0,122266:0:0:0:0:
182,192,122266,1,0,0:0:0:0:
256,192,122582,1,0,0:0:0:0:
475,192,122898,1,0,0:0:0:0:
475,192,123213,128,0,123529:0:0:0:0:
329,192,123529,1,0,0:0:0:0:
182,192,123529,1,0,0:0:0:0:
182,192,123845,1,0,0:0:0:0:
329,192,123845,1,0,0:0:0:0:
402,192,124161,1,0,0:0:0:0:
109,192,124161,1,0,0:0:0:0:
109,192,124477,128,0,124792:0:0:0:0:
329,192,124792,128,0,125108:0:0:0:0:
182,192,125108,128,0,125424:0:0:0:0:
402,192,125424,128,0,125740:0:0:0:0:
36,192,125740,128,0,126056:0:0:0:0:
475,192,126056,128,0,126371:0:0:0:0:
256,192,126371,128,0,126687:0:0:0:0:
109,192,126687,1,0,0:0:0:0:
402,192,127003,1,0,0:0:0:0:
329,192,127319,1,0,0:0:0:0:
182,192,127477,1,0,0:0:0:0:
36,192,127792,128,0,128266:0:0:0:0:
475,192,127792,128,0,128266:0:0:0:0:
402,192,128266,128,0,128582:0:0:0:0:
109,192,128266,128,0,128582:0:0:0:0:
329,192,128582,128,0,128898:0:0:0:0:
182,192,128582,128,0,128898:0:0:0:0:
256,192,128898,1,0,0:0:0:0:
475,192,129056,128,0,130477:0:0:0:0:
36,192,129056,128,0,130477:0:0:0:0:
