osu file format v14

[General]
AudioFilename: audio.mp3
AudioLeadIn: 0
PreviewTime: 75687
Countdown: 0
SampleSet: Soft
StackLeniency: 0.2
Mode: 0
LetterboxInBreaks: 0
WidescreenStoryboard: 1

[Editor]
Bookmarks: 64161
DistanceSpacing: 1
BeatDivisor: 8
GridSize: 16
TimelineZoom: 3.099999

[Metadata]
Title:Happy Time wa Owaranai (Cut Ver.)
TitleUnicode:ハッピータイムは終わらない (Cut Ver.)
Artist:Nanamori-chu * Goraku-bu
ArtistUnicode:七森中☆ごらく部
Creator:-Keitaro
Version:Osu's Extra
Source:ゆるゆり
Tags:japanese anime pop YuruYuri 三上枝織 大坪由佳 津田美波 大久保瑠美 Mikami Shiori Otsubo Yuka Tsuda Minami Okubo Rumi 赤座あかり Akaza Akari 歳納京子 Toshino Kyoko 船見結衣 Funami Yui 吉川ちなつ Yoshikawa Chinatsu ioexception deadcode ceo of osu ceo_of_osu
BeatmapID:2234458
BeatmapSetID:1057015

[Difficulty]
HPDrainRate:5
CircleSize:3.8
OverallDifficulty:9
ApproachRate:8
SliderMultiplier:1.6
SliderTickRate:1

[Events]
//Background and Video events
0,0,"Akari Yui Kyouko Chinatsu 486.jpg",0,0
//Break Periods
//Storyboard Layer 0 (Background)
//Storyboard Layer 1 (Fail)
//Storyboard Layer 2 (Pass)
//Storyboard Layer 3 (Foreground)
//Storyboard Layer 4 (Overlay)
//Storyboard Sound Samples

[TimingPoints]
1635,315.789473684211,4,2,22,32,1,0
5424,-100,4,2,22,42,0,0
5582,-100,4,2,22,62,0,0
7950,-100,4,2,22,52,0,0
8266,-133.333333333333,4,2,22,52,0,0
10477,-133.333333333333,4,2,22,62,0,0
17740,-100,4,2,22,62,0,0
18056,-133.333333333333,4,2,22,62,0,0
20582,-76.9230769230769,4,2,22,72,0,0
40792,-100,4,2,22,62,0,0
50424,-50,4,2,22,62,0,0
50898,-83.3333333333333,4,2,22,72,0,0
61358,-83.3333333333333,4,2,22,5,0,0
61398,-83.3333333333333,4,2,22,72,0,0
61990,-83.3333333333333,4,2,22,5,0,0
62030,-83.3333333333333,4,2,22,72,0,0
62621,-83.3333333333333,4,2,22,5,0,0
62661,-83.3333333333333,4,2,22,72,0,0
63253,-83.3333333333333,4,2,22,5,0,0
63293,-83.3333333333333,4,2,22,72,0,0
66411,-83.3333333333333,4,2,22,5,0,0
66451,-83.3333333333333,4,2,22,72,0,0
67042,-83.3333333333333,4,2,22,5,0,0
67082,-83.3333333333333,4,2,22,72,0,0
76161,-83.3333333333333,4,2,22,82,0,0
83740,-117.647058823529,4,2,22,82,0,0
85003,-66.6666666666667,4,2,22,82,0,0
85674,-66.6666666666667,4,2,22,5,0,0
85713,-66.6666666666667,4,2,22,82,0,0
86266,-83.3333333333333,4,2,22,82,0,0
96371,-50,4,2,22,82,0,0
101266,-83.3333333333333,4,2,22,82,0,0
102687,-41.6666666666667,4,2,22,82,0,0
103713,-133.333333333333,4,2,22,82,0,0
105213,-71.4285714285714,4,2,22,82,0,0
105845,-50,4,2,22,82,0,0
111371,-83.3333333333333,4,2,22,82,0,0
112792,-50,4,2,22,82,0,0
116582,-83.3333333333333,4,2,22,72,0,0
124161,-83.3333333333333,4,2,22,82,0,0
127792,-66.6666666666667,4,2,22,72,0,0

[Colours]
Combo1 : 95,20,250
Combo2 : 0,64,128
Combo3 : 18,124,255
Combo4 : 255,145,91

[HitObjects]
447,337,1635,5,2,0:0:0:0:
447,337,1950,1,2,0:0:0:0:
447,337,2266,1,2,0:0:0:0:
447,337,2424,1,2,0:0:0:0:
447,337,2582,1,2,0:0:0:0:
447,337,2740,1,2,0:0:0:0:
447,337,2898,1,2,0:0:0:0:
447,337,3213,1,2,0:0:0:0:
447,337,3529,1,2,0:0:0:0:
447,337,3845,1,2,0:0:0:0:
447,337,4161,1,2,0:0:0:0:
447,337,4477,1,2,0:0:0:0:
447,337,4792,1,2,0:0:0:0:
447,337,4950,1,2,0:0:0:0:
447,337,5108,1,2,0:0:0:0:
447,337,5266,1,2,0:0:0:0:
447,337,5424,1,6,0:0:0:0:
256,192,5582,12,2,7950,0:0:0:0:
439,168,8266,6,0,P|476:175|519:185,1,60.0000022888184,2|0,0:0|0:0,0:0:0:0:
384,79,8582,2,0,P|391:42|401:-1,1,60.0000022888184,2|0,0:0|0:0,0:0:0:0:
295,134,8898,2,0,P|258:127|215:117,1,60.0000022888184,2|0,0:0|0:0,0:0:0:0:
367,151,9213,1,2,0:0:0:0:
367,151,9529,1,2,0:0:0:0:
367,151,9687,1,2,0:0:0:0:
93,350,10003,6,0,P|86:307|82:273,2,60.0000022888184,2|2|2,0:0|0:0|0:0,0:0:0:0:
0,374,10477,2,0,P|240:363|493:351,1,480.000018310548,4|2,1:0|0:0,0:0:0:0:
443,344,12056,2,0,P|478:347|514:351,1,60.0000022888184,0|2,0:0|0:0,0:0:0:0:
503,350,12529,6,0,P|510:307|514:273,2,60.0000022888184,2|2|0,0:0|0:0|0:0,0:0:0:0:
473,172,13003,2,0,B|352:180|397:285|257:284,1,240.000009155274,4|0,1:0|0:0,0:0:0:0:
271,283,13792,1,0,0:0:0:0:
240,42,13950,5,2,0:0:0:0:
240,42,14108,1,0,0:0:0:0:
182,111,14266,2,0,B|2:80|2:80|167:-4,1,360.000013732911,4|0,1:2|0:0,0:0:0:0:
240,42,15371,1,0,0:0:0:0:
347,88,15529,6,0,P|205:110|148:242,1,300.000011444092,4|0,1:2|0:0,0:0:0:0:
147,241,16477,1,2,0:0:0:0:
147,241,16635,1,0,0:0:0:0:
0,319,16792,6,0,P|59:323|119:328,1,120.000004577637,4|0,1:2|0:0,0:0:0:0:
195,334,17266,2,0,P|255:338|315:343,1,120.000004577637
391,349,17740,2,0,P|451:353|511:358,1,120.000004577637,2|0,0:0|0:0,0:0:0:0:
511,358,18056,6,0,P|503:290|492:239,1,120.000004577637,4|0,1:2|0:0,0:0:0:0:
444,17,18687,2,0,P|452:85|463:136,1,120.000004577637,4|0,1:2|0:0,0:0:0:0:
307,349,19319,6,0,L|228:341,1,60.0000022888184,4|0,1:2|0:0,0:0:0:0:
224,267,19635,2,0,L|145:259,1,60.0000022888184,4|0,1:2|0:0,0:0:0:0:
23,369,20108,5,2,0:0:0:0:
159,346,20266,2,0,P|125:351|83:357,1,60.0000022888184,2|2,0:0|0:0,0:0:0:0:
3,140,20582,6,0,P|68:124|110:231,1,155.999992858887,4|0,1:0|0:0,0:0:0:0:
120,185,20898,2,0,P|126:125|136:65,1,103.999995239258,8|2,0:0|0:0,0:0:0:0:
222,4,21213,1,0,1:0:0:0:
268,77,21371,1,2,0:0:0:0:
412,52,21529,1,8,0:0:0:0:
490,31,21687,2,0,P|497:64|491:101,1,51.999997619629,2|0,0:0|0:0,0:0:0:0:
301,286,21845,5,0,1:0:0:0:
282,167,22003,1,2,0:0:0:0:
301,286,22161,1,8,0:0:0:0:
282,167,22319,1,2,0:0:0:0:
61,312,22477,6,0,P|25:323|-3:336,1,51.999997619629,0|0,1:0|0:0,0:0:0:0:
142,361,22635,1,2,0:0:0:0:
370,361,22792,5,8,0:0:0:0:
450,311,22950,2,0,P|476:319|500:328,1,51.999997619629,2|0,0:0|0:0,0:0:0:0:
203,292,23108,6,0,P|198:233|195:165,1,103.999995239258,4|2,1:2|0:0,0:0:0:0:
78,0,23424,2,0,P|73:58|70:126,1,103.999995239258,8|2,0:0|0:0,0:0:0:0:
11,179,23740,1,0,1:0:0:0:
102,191,23898,1,2,0:2:0:0:
391,195,24056,5,8,0:0:0:0:
300,183,24214,1,2,0:0:0:0:
186,233,24371,6,0,P|261:225|223:107,1,207.999990478516,0|8,1:2|0:0,0:0:0:0:
102,191,24845,2,0,P|96:249|134:302,1,103.999995239258,2|0,0:0|1:2,0:0:0:0:
345,351,25161,1,2,0:0:0:0:
345,351,25240,1,2,0:0:0:0:
345,351,25319,1,10,0:0:0:0:
345,351,25477,1,2,0:0:0:0:
345,351,25635,6,0,P|281:365|223:370,1,103.999995239258,4|2,1:2|0:0,0:0:0:0:
299,195,25950,2,0,B|399:193|374:294|489:282,1,207.999990478516,8|0,0:0|1:2,0:0:0:0:
153,84,26424,1,2,0:0:0:0:
179,166,26582,2,0,P|252:160|283:68,1,155.999992858887,8|0,0:0|0:0,0:0:0:0:
287,92,26898,6,0,P|297:152|300:203,1,103.999995239258,0|2,1:2|0:0,0:0:0:0:
45,366,27213,2,0,P|35:306|32:255,1,103.999995239258,8|2,0:0|0:0,0:0:0:0:
99,16,27529,5,0,1:2:0:0:
87,136,27687,1,2,0:0:0:0:
87,136,27845,1,8,0:0:0:0:
321,372,28003,6,0,L|271:383,1,51.999997619629,2|0,0:0|0:0,0:0:0:0:
216,323,28161,5,4,1:2:0:0:
399,353,28319,1,2,0:0:0:0:
399,353,28477,5,8,0:0:0:0:
216,323,28635,1,2,0:0:0:0:
216,323,28792,5,0,1:2:0:0:
399,353,28950,1,2,0:0:0:0:
399,353,29108,5,8,0:0:0:0:
216,323,29266,1,2,0:0:0:0:
356,216,29424,5,0,1:2:0:0:
166,241,29582,1,2,0:0:0:0:
166,241,29740,5,8,0:0:0:0:
448,203,29898,1,2,0:0:0:0:
356,216,30056,5,0,1:2:0:0:
232,165,30213,1,2,3:2:0:0:
232,165,30292,1,0,3:0:0:0:
232,165,30371,1,8,0:0:0:0:
107,132,30529,2,0,L|89:180,1,51.999997619629,2|0,0:0|0:0,0:0:0:0:
190,355,30687,6,0,P|160:284|21:289,1,207.999990478516,4|8,1:0|0:0,0:0:0:0:
41,272,31161,1,2,0:0:0:0:
247,252,31319,2,0,P|298:240|350:239,1,103.999995239258,0|2,1:0|0:0,0:0:0:0:
247,252,31635,1,8,0:0:0:0:
70,71,31792,6,0,P|120:83|172:84,1,103.999995239258,2|0,0:0|1:0,0:0:0:0:
172,84,32108,1,2,0:0:0:0:
101,206,32266,1,8,0:0:0:0:
70,71,32424,1,2,0:0:0:0:
391,57,32582,5,8,0:0:0:0:
476,180,32740,1,8,0:0:0:0:
428,318,32898,1,8,0:0:0:0:
476,180,33056,1,8,0:0:0:0:
216,352,33213,6,0,P|288:327|328:324,1,103.999995239258,4|2,1:2|0:0,0:0:0:0:
229,87,33529,2,0,P|299:115|339:120,1,103.999995239258,8|2,0:0|0:0,0:0:0:0:
327,120,33845,1,0,1:0:0:0:
154,217,34003,2,0,L|286:224,1,103.999995239258,2|8,0:0|0:0,0:0:0:0:
457,235,34319,6,0,L|325:228,1,103.999995239258,2|0,0:0|1:0,0:0:0:0:
258,223,34635,1,2,0:0:0:0:
457,235,34792,1,8,0:0:0:0:
473,49,34950,1,2,0:0:0:0:
283,74,35108,6,0,L|389:61,1,103.999995239258,2|0,1:2|3:0,0:0:0:0:
133,95,35345,1,0,3:0:0:0:
156,93,35424,2,0,L|216:85,1,51.999997619629,8|0,0:0|0:0,0:0:0:0:
0,114,35582,2,0,L|83:104,1,51.999997619629,2|0,0:0|0:0,0:0:0:0:
41,320,35740,6,0,P|113:293|94:161,1,207.999990478516,4|8,1:2|0:0,0:0:0:0:
47,8,36213,2,0,P|36:65|54:112,1,103.999995239258,2|0,0:0|1:0,0:0:0:0:
50,107,36529,1,2,0:0:0:0:
313,45,36687,1,8,0:0:0:0:
304,140,36845,2,0,P|237:151|178:158,1,103.999995239258,2|0,0:0|1:0,0:0:0:0:
201,155,37161,1,2,0:0:0:0:
397,25,37319,1,8,0:0:0:0:
313,45,37477,1,2,0:0:0:0:
317,214,37635,5,8,0:0:0:0:
507,246,37792,1,8,0:0:0:0:
317,214,37950,1,8,0:0:0:0:
125,180,38108,1,8,0:0:0:0:
166,376,38266,5,0,1:0:0:0:
166,376,38424,1,2,0:0:0:0:
160,293,38582,2,0,P|223:282|272:279,1,103.999995239258,8|2,0:0|0:0,0:0:0:0:
6,50,38898,5,0,1:0:0:0:
6,50,39056,1,2,0:0:0:0:
0,133,39214,2,0,P|63:144|112:147,1,103.999995239258,8|2,0:0|0:0,0:0:0:0:
350,361,39529,5,0,1:0:0:0:
364,270,39687,1,2,0:0:0:0:
241,104,39845,5,8,0:0:0:0:
255,195,40003,1,2,0:0:0:0:
232,348,40161,5,0,1:0:0:0:
153,375,40319,1,2,3:2:0:0:
149,350,40398,1,0,3:2:0:0:
153,325,40477,1,8,0:0:0:0:
316,341,40635,1,2,0:0:0:0:
232,348,40792,5,2,0:0:0:0:
232,348,40950,2,0,P|153:357|49:368,1,160,2|2,0:0|0:0,0:0:0:0:
0,294,41424,2,0,P|39:261|48:205,2,80,2|0|2,0:0|0:0|0:0,0:0:0:0:
12,140,41898,1,0,0:0:0:0:
12,140,42056,2,0,P|60:214|162:225,1,160,2|0,0:0|0:0,0:0:0:0:
227,139,42529,2,0,L|215:80,2,40,2|0|0,0:0|0:0|0:0,0:0:0:0:
245,17,42845,2,0,P|203:16|151:42,1,80,2|0,0:0|0:0,0:0:0:0:
241,219,43161,1,2,0:0:0:0:
137,151,43319,5,0,0:0:0:0:
352,134,43477,1,2,0:0:0:0:
352,134,43635,2,0,P|347:71|324:30,1,80,0|2,0:0|0:0,0:0:0:0:
199,251,43950,1,2,0:0:0:0:
289,259,44108,2,0,B|302:176|233:193|272:73,1,160,2|2,0:0|0:0,0:0:0:0:
431,121,44582,1,2,0:0:0:0:
431,121,44740,2,0,L|346:134,1,80
199,251,45056,2,0,P|206:300|231:345,1,80,2|0,0:0|0:0,0:0:0:0:
376,249,45371,1,2,0:0:0:0:
376,249,45450,1,2,0:0:0:0:
376,249,45529,2,0,P|362:310|334:343,1,80,0|2,0:0|0:0,0:0:0:0:
286,384,45845,5,0,0:0:0:0:
352,323,46003,1,2,0:0:0:0:
422,361,46161,2,0,P|378:332|329:320,1,80
211,338,46477,2,0,P|132:343|34:354,1,160,2|2,0:0|0:0,0:0:0:0:
112,163,46950,1,0,0:0:0:0:
189,218,47108,6,0,B|119:259|119:259|29:230,1,160,2|2,0:0|0:0,0:0:0:0:
71,77,47582,2,0,P|117:79|158:83,1,80,2|0,0:0|0:0,0:0:0:0:
241,92,47898,2,0,P|287:94|328:98,1,80,2|0,0:0|0:0,0:0:0:0:
411,107,48213,1,2,0:0:0:0:
411,107,48371,6,0,P|457:109|498:113,1,80,2|0,0:0|0:0,0:0:0:0:
490,112,48687,1,0,0:0:0:0:
241,92,48845,1,2,0:0:0:0:
241,92,49003,2,0,P|287:94|328:98,1,80,2|0,0:0|0:0,0:0:0:0:
320,97,49319,1,2,0:0:0:0:
71,77,49635,6,0,P|117:79|158:83,1,80,2|0,0:0|0:0,0:0:0:0:
150,82,49951,1,2,0:0:0:0:
241,92,50108,2,0,P|287:94|328:98,1,80,0|2,0:0|0:0,0:0:0:0:
411,107,50582,6,0,P|457:109|498:113,1,80,8|0,0:0|0:0,0:0:0:0:
304,326,50898,5,4,1:2:0:0:
291,240,51056,1,2,0:0:0:0:
411,107,51213,2,0,P|402:170|386:224,1,95.9999970703126,8|2,0:0|0:0,0:0:0:0:
214,297,51529,1,0,1:0:0:0:
374,282,51687,2,0,L|470:294,1,95.9999970703126,2|8,0:0|0:0,0:0:0:0:
60,243,52003,1,2,0:0:0:0:
35,323,52161,2,0,P|88:320|125:291,1,95.9999970703126,0|2,1:0|0:0,0:0:0:0:
23,168,52477,2,0,P|93:170|125:196,1,95.9999970703126,8|2,0:0|0:0,0:0:0:0:
60,243,52792,5,0,1:0:0:0:
191,164,52950,1,2,0:0:0:0:
349,104,53108,5,8,0:0:0:0:
480,25,53266,1,2,0:0:0:0:
379,21,53424,5,4,1:2:0:0:
424,205,53582,2,0,P|433:123|488:14,1,191.999994140625,2|2,0:0|0:0,0:0:0:0:
264,196,54056,2,0,B|370:214|312:293|446:302,1,191.999994140625,0|8,1:2|0:0,0:0:0:0:
417,298,54529,1,2,0:0:0:0:
197,351,54687,1,0,1:2:0:0:
159,275,54845,2,0,P|206:272|254:278,1,95.9999970703126,2|8,0:0|0:0,0:0:0:0:
404,208,55161,2,0,L|472:203,1,47.9999985351563,2|0,0:0|0:0,0:0:0:0:
197,351,55319,5,0,1:2:0:0:
165,187,55477,1,2,0:0:0:0:
165,187,55556,1,2,0:0:0:0:
165,187,55635,1,8,0:0:0:0:
44,289,55793,1,2,0:0:0:0:
129,274,55950,1,4,1:2:0:0:
129,274,56108,6,0,P|192:320|292:257,1,191.999994140625,2|2,0:0|0:0,0:0:0:0:
285,273,56582,2,0,P|278:216|276:161,1,95.9999970703126,0|2,1:2|0:0,0:0:0:0:
29,15,56898,2,0,P|36:72|38:127,1,95.9999970703126,8|2,0:0|0:0,0:0:0:0:
38,110,57135,1,2,0:0:0:0:
38,110,57213,5,0,1:2:0:0:
165,44,57371,1,2,0:0:0:0:
348,67,57529,1,8,0:0:0:0:
316,198,57687,1,2,0:0:0:0:
256,0,57845,5,0,1:2:0:0:
233,124,58003,1,2,0:0:0:0:
211,250,58161,1,8,0:0:0:0:
188,374,58319,1,2,0:0:0:0:
37,378,58477,6,0,P|-8:323|58:203,1,191.999994140625,0|8,1:2|0:0,0:0:0:0:
115,253,58950,2,0,P|189:251|229:248,1,95.9999970703126,2|0,0:0|1:0,0:0:0:0:
209,155,59266,2,0,B|304:161|269:240|388:252,1,191.999994140625,2|2,0:0|0:0,0:0:0:0:
475,210,59740,5,0,1:2:0:0:
408,153,60056,1,8,0:0:0:0:
490,123,60372,1,0,1:0:0:0:
475,210,60529,5,2,0:2:0:0:
408,153,60687,1,8,0:0:0:0:
490,123,60845,1,2,0:0:0:0:
405,367,61003,6,0,P|397:319|393:271,1,95.9999970703126,4|0,1:2|0:0,0:0:0:0:
290,109,61319,2,0,L|287:148,1,23.9999992675781,8|0,0:0|0:0,0:0:0:0:
405,367,61477,6,0,P|397:319|393:271,1,95.9999970703126,0|2,0:0|1:2,0:0:0:0:
290,109,61792,1,0,0:0:0:0:
290,109,61950,2,0,L|287:148,1,23.9999992675781,8|0,0:0|0:0,0:0:0:0:
405,367,62108,5,2,0:0:0:0:
405,367,62266,2,0,P|397:319|393:271,1,95.9999970703126,2|0,1:2|0:0,0:0:0:0:
189,175,62582,2,0,L|186:136,1,23.9999992675781,8|0,0:0|0:0,0:0:0:0:
405,367,62740,1,2,0:0:0:0:
317,336,62898,5,0,1:0:0:0:
483,298,63056,1,0,0:0:0:0:
189,175,63213,6,0,L|186:136,1,23.9999992675781,10|0,0:0|0:0,0:0:0:0:
149,372,63371,1,0,0:0:0:0:
399,223,63529,6,0,P|340:214|288:199,1,95.9999970703126,2|0,1:2|0:0,0:0:0:0:
412,148,63845,2,0,P|353:139|301:124,1,95.9999970703126,8|0,0:0|0:0,0:0:0:0:
113,223,64161,6,0,P|172:214|224:199,1,95.9999970703126,2|0,1:2|0:0,0:0:0:0:
100,148,64477,2,0,P|159:139|211:124,1,95.9999970703126,8|0,0:0|0:0,0:0:0:0:
404,192,64792,5,2,1:2:0:0:
301,50,64950,1,0,0:0:0:0:
134,103,65108,1,8,0:0:0:0:
134,279,65266,1,2,0:0:0:0:
301,333,65424,1,2,1:2:0:0:
136,364,65582,5,2,3:2:0:0:
174,356,65660,1,0,3:0:0:0:
212,349,65739,1,8,0:0:0:0:
384,315,65898,1,0,1:0:0:0:
6,225,66056,6,0,P|53:212|101:208,1,95.9999970703126,4|0,1:2|0:0,0:0:0:0:
328,222,66371,2,0,L|327:186,1,23.9999992675781,8|0,0:0|0:0,0:0:0:0:
7,225,66529,5,0,0:0:0:0:
7,225,66687,2,0,P|54:213|102:208,1,95.9999970703126,2|0,1:2|0:0,0:0:0:0:
328,222,67003,2,0,L|327:186,1,23.9999992675781,8|0,0:0|0:0,0:0:0:0:
7,225,67161,5,0,0:0:0:0:
7,225,67319,2,0,P|54:213|102:208,1,95.9999970703126,2|0,1:2|0:0,0:0:0:0:
423,240,67635,2,0,P|375:234|328:222,1,95.9999970703126,8|2,0:0|0:0,0:0:0:0:
222,10,67950,5,0,1:0:0:0:
340,70,68108,1,0,1:0:0:0:
242,167,68266,1,10,0:0:0:0:
124,107,68424,1,0,1:0:0:0:
408,161,68582,6,0,B|316:174|353:252|250:264,1,191.999994140625,2|8,1:2|0:0,0:0:0:0:
254,263,69056,1,0,0:0:0:0:
426,255,69213,1,2,1:2:0:0:
426,255,69371,2,0,P|433:319|439:371,1,95.9999970703126,0|8,0:0|0:0,0:0:0:0:
192,124,69687,2,0,P|197:76|202:28,1,95.9999970703126,0|2,0:0|1:2,0:0:0:0:
202,28,70161,5,8,0:0:0:0:
233,190,70319,1,0,1:2:0:0:
248,278,70477,1,2,1:2:0:0:
259,333,70635,5,0,1:0:0:0:
265,357,70713,1,0,1:0:0:0:
267,369,70792,1,8,0:0:0:0:
269,378,70950,1,0,1:2:0:0:
269,378,71108,5,4,1:2:0:0:
309,142,71424,1,0,3:0:0:0:
74,102,71740,5,4,1:2:0:0:
309,142,72056,1,0,3:0:0:0:
269,378,72371,5,4,1:2:0:0:
309,142,72687,1,0,3:0:0:0:
74,102,73003,5,12,1:2:0:0:
309,142,73161,1,0,3:0:0:0:
269,378,73477,1,0,3:0:0:0:
404,131,73635,6,0,P|352:139|282:142,1,95.9999970703126,4|0,1:0|0:0,0:0:0:0:
182,355,73950,2,0,P|174:303|171:233,1,95.9999970703126,0|0,1:0|0:0,0:0:0:0:
404,131,74266,6,0,P|352:139|282:142,1,95.9999970703126,4|0,1:0|0:0,0:0:0:0:
182,355,74582,2,0,P|174:303|171:233,1,95.9999970703126,0|0,1:0|0:0,0:0:0:0:
404,131,74898,5,4,1:0:0:0:
404,131,75056,2,0,P|352:139|282:142,1,95.9999970703126,2|4,0:0|1:0,0:0:0:0:
182,355,75371,2,0,P|174:303|171:233,1,95.9999970703126,2|4,0:0|1:0,0:0:0:0:
171,259,75687,5,2,0:0:0:0:
289,275,75845,1,2,0:0:0:0:
404,290,76003,1,2,0:0:0:0:
95,337,76161,6,0,P|31:343|-22:352,1,95.9999970703126,4|0,1:0|0:0,0:0:0:0:
174,78,76477,1,8,0:0:0:0:
201,232,76635,1,2,0:0:0:0:
458,155,76792,1,0,1:0:0:0:
273,139,76950,2,0,P|320:145|368:149,1,95.9999970703126,2|8,0:0|0:0,0:0:0:0:
368,149,77266,1,2,0:0:0:0:
41,226,77424,5,0,1:0:0:0:
149,287,77582,1,2,0:0:0:0:
123,139,77740,1,8,0:0:0:0:
95,4,77898,1,2,0:0:0:0:
173,52,78056,5,0,1:0:0:0:
304,28,78213,1,2,0:0:0:0:
208,356,78371,5,8,0:0:0:0:
339,332,78528,1,2,0:0:0:0:
414,384,78687,5,4,1:2:0:0:
377,142,78845,1,2,0:0:0:0:
377,142,79003,2,0,P|386:198|393:258,1,95.9999970703126,8|2,0:0|0:0,0:0:0:0:
139,363,79319,2,0,P|132:315|125:268,1,95.9999970703126,0|2,1:0|0:0,0:0:0:0:
51,337,79635,1,8,0:0:0:0:
90,188,79792,1,2,0:0:0:0:
19,24,79950,6,0,P|68:84|165:28,1,191.999994140625,0|8,1:0|0:0,0:0:0:0:
160,43,80424,1,2,0:0:0:0:
409,19,80582,2,0,P|335:24|289:37,1,95.9999970703126,0|2,1:0|3:2,0:0:0:0:
313,28,80819,1,0,3:0:0:0:
313,28,80898,1,8,0:0:0:0:
89,187,81056,6,0,P|137:179|185:178,1,95.9999970703126,2|4,0:0|1:2,0:0:0:0:
486,219,81371,1,2,0:0:0:0:
411,145,81529,1,8,0:0:0:0:
349,229,81687,1,2,0:0:0:0:
422,302,81845,1,0,1:0:0:0:
501,131,82003,1,2,0:0:0:0:
511,304,82161,1,8,0:0:0:0:
349,229,82319,1,2,0:0:0:0:
327,353,82477,5,0,1:0:0:0:
233,371,82635,1,2,0:0:0:0:
233,371,82792,1,8,0:0:0:0:
327,353,82950,5,2,0:0:0:0:
421,335,83108,1,0,1:0:0:0:
421,335,83265,1,2,0:0:0:0:
327,353,83424,5,8,0:0:0:0:
233,371,83582,1,2,0:0:0:0:
97,248,83740,6,0,P|54:246|7:253,7,68.0000012969971,4|2|8|2|0|2|8|2,1:2|0:0|0:0|0:0|1:0|0:0|0:0|0:0,0:0:0:0:
12,113,85003,6,0,P|101:146|135:48,1,180.000006866455,0|0,1:2|0:0,0:0:0:0:
181,240,85319,2,0,P|270:273|304:175,1,180.000006866455,8|0,0:0|0:0,0:0:0:0:
395,365,85635,2,0,L|423:357,1,30.0000011444092,0|0,1:0|0:0,0:0:0:0:
402,271,85792,5,2,0:0:0:0:
393,169,85950,1,2,0:0:0:0:
385,75,86108,1,2,0:0:0:0:
501,310,86266,6,0,P|507:244|516:191,1,95.9999970703126,4|2,1:0|0:0,0:0:0:0:
312,214,86582,2,0,P|308:261|301:309,1,95.9999970703126,8|2,0:0|0:0,0:0:0:0:
501,310,86898,2,0,P|507:244|516:191,1,95.9999970703126,0|2,1:0|0:0,0:0:0:0:
312,214,87214,2,0,P|308:261|301:309,1,95.9999970703126,8|2,0:0|0:0,0:0:0:0:
501,310,87529,1,0,1:0:0:0:
501,310,87687,2,0,P|507:244|516:191,1,95.9999970703126,2|8,0:0|0:0,0:0:0:0:
360,121,88003,1,2,0:0:0:0:
417,244,88161,5,0,1:0:0:0:
459,113,88319,1,2,0:0:0:0:
53,271,88477,5,8,0:0:0:0:
95,140,88635,1,2,0:0:0:0:
0,126,88792,6,0,P|61:133|106:142,1,95.9999970703126,4|2,1:2|0:0,0:0:0:0:
136,282,89108,2,0,P|197:289|242:298,1,95.9999970703126,8|2,0:0|0:0,0:0:0:0:
0,208,89424,5,0,1:0:0:0:
40,364,89582,1,2,0:0:0:0:
129,50,89740,5,8,0:0:0:0:
169,206,89898,1,2,0:0:0:0:
329,199,90056,6,0,P|419:164|512:144,1,191.999994140625,0|8,1:0|0:0,0:0:0:0:
512,144,90529,1,2,0:0:0:0:
242,364,90687,2,0,P|186:346|131:339,1,95.9999970703126,0|2,1:0|3:2,0:0:0:0:
149,340,90924,1,0,3:0:0:0:
149,340,91003,1,8,0:0:0:0:
475,322,91161,1,2,0:0:0:0:
391,377,91319,6,0,P|381:321|370:263,1,95.9999970703126,4|2,1:2|0:0,0:0:0:0:
266,57,91635,2,0,P|256:113|245:171,1,95.9999970703126,8|2,0:0|0:0,0:0:0:0:
248,151,91950,1,0,1:0:0:0:
6,143,92108,5,2,0:0:0:0:
76,107,92266,1,8,0:0:0:0:
145,72,92424,1,2,0:0:0:0:
161,323,92582,6,0,P|220:292|259:280,1,95.9999970703126,0|2,1:0|0:0,0:0:0:0:
248,151,92898,2,0,P|307:182|346:194,1,95.9999970703126,8|2,0:0|0:0,0:0:0:0:
456,235,93213,5,0,1:0:0:0:
433,151,93371,1,2,0:0:0:0:
56,235,93529,5,8,0:0:0:0:
79,151,93687,1,2,0:0:0:0:
256,192,93845,5,2,1:2:0:0:
256,192,93924,1,2,0:2:0:0:
256,192,94003,1,2,0:2:0:0:
256,192,94082,1,2,0:2:0:0:
256,192,94161,1,10,0:2:0:0:
256,192,94240,1,2,0:2:0:0:
256,192,94319,1,2,0:2:0:0:
256,192,94398,1,2,0:2:0:0:
256,192,94477,5,2,1:2:0:0:
256,192,94556,1,2,0:2:0:0:
256,192,94635,1,2,0:2:0:0:
256,192,94714,1,2,0:2:0:0:
256,192,94793,1,10,0:2:0:0:
256,192,94872,1,2,0:2:0:0:
256,192,94951,1,2,0:2:0:0:
256,192,95030,1,2,0:2:0:0:
256,192,95108,5,0,1:0:0:0:
203,265,95266,1,2,0:0:0:0:
309,265,95424,5,8,0:0:0:0:
256,192,95582,1,2,0:0:0:0:
256,192,95740,5,0,1:0:0:0:
203,119,95898,1,2,3:2:0:0:
203,119,95977,1,0,3:0:0:0:
203,119,96056,1,8,0:0:0:0:
309,119,96213,1,2,0:0:0:0:
265,350,96371,6,0,P|256:185|244:5,5,320,4|8|0|8|0|8,1:2|0:2|1:2|0:2|1:2|0:2,0:0:0:0:
83,229,98266,5,0,1:0:0:0:
160,207,98424,1,0,1:0:0:0:
429,229,98582,5,8,0:0:0:0:
352,207,98740,1,0,1:0:0:0:
102,316,98898,6,0,B|182:294|255:271|255:271|339:300|426:321,5,320,4|8|0|8|0|8,1:2|0:2|1:2|0:2|1:2|0:2,0:0:0:0:
190,97,100792,5,0,1:0:0:0:
190,97,100950,1,0,1:0:0:0:
184,57,101028,1,0,1:0:0:0:
179,17,101107,1,8,0:0:0:0:
225,195,101266,6,0,P|174:188|117:182,1,95.9999970703126,0|4,1:0|0:0,0:0:0:0:
190,97,101582,1,2,0:0:0:0:
159,314,101740,2,0,P|278:272|380:250,2,191.999994140625,8|0|8,0:0|1:2|0:0,0:0:0:0:
446,314,102529,1,2,0:0:0:0:
446,314,102608,1,2,0:0:0:0:
446,314,102687,6,0,P|246:275|40:255,2,383.99998828125,0|8|0,1:2|0:0|1:2,0:0:0:0:
446,88,103635,5,8,0:0:0:0:
377,138,103792,2,0,P|349:134|302:123,1,60.0000022888184,2|0,0:0|1:0,0:0:0:0:
66,88,104108,5,2,0:0:0:0:
135,138,104266,2,0,P|163:132|210:123,5,60.0000022888184,8|2|0|2|8|2,0:0|0:0|1:2|0:0|0:0|0:0,0:0:0:0:
383,231,105213,6,0,P|327:218|274:208,3,111.999996582031,0|2|8|2,1:2|0:0|0:0|0:0,0:0:0:0:
92,348,105845,6,0,P|141:331|264:312,3,160,0|2|8|2,1:2|3:2|0:0|0:0,0:0:0:0:
374,371,106477,6,0,B|415:217|272:232|328:66,5,320,4|8|0|8|0|8,1:2|0:2|1:2|0:2|1:2|0:2,0:0:0:0:
445,222,108371,5,0,1:0:0:0:
512,177,108529,1,0,1:0:0:0:
67,222,108687,5,8,0:0:0:0:
0,177,108845,1,0,1:0:0:0:
13,290,109003,6,0,P|129:257|351:232,5,320,4|8|0|8|0|8,1:2|0:2|1:2|0:2|1:2|0:2,0:0:0:0:
492,362,110898,1,0,1:0:0:0:
492,362,111056,1,0,1:0:0:0:
451,335,111135,1,0,1:0:0:0:
494,312,111214,1,8,0:0:0:0:
326,232,111371,6,0,P|311:301|308:358,1,95.9999970703126,2|4,1:2|1:2,0:0:0:0:
340,144,111687,1,2,0:0:0:0:
451,335,111845,2,0,P|444:226|424:122,2,191.999994140625,8|0|8,0:0|1:2|0:0,0:0:0:0:
178,120,112792,6,0,P|349:103|505:85,2,320,0|8|0,1:2|0:0|1:2,0:0:0:0:
90,130,113582,1,2,0:0:0:0:
261,155,113740,1,8,0:0:0:0:
36,208,113898,1,2,3:2:0:0:
36,208,113977,1,0,3:2:0:0:
36,208,114056,2,0,P|38:148|53:-2,1,160,6|2,1:2|0:0,0:0:0:0:
502,3,114371,5,10,0:0:0:0:
406,73,114529,1,2,0:0:0:0:
315,139,114687,1,2,1:2:0:0:
197,245,114845,5,2,0:0:0:0:
106,311,115003,1,10,0:2:0:0:
10,381,115161,1,2,0:0:0:0:
9,369,115240,1,2,0:2:0:0:
9,357,115319,5,2,1:2:0:0:
105,287,115477,1,2,0:0:0:0:
196,221,115635,1,10,0:0:0:0:
320,163,115793,5,2,0:0:0:0:
411,97,115951,1,2,1:2:0:0:
507,27,116109,1,2,3:2:0:0:
507,27,116187,1,0,3:2:0:0:
507,27,116266,1,10,0:0:0:0:
411,0,116424,1,2,0:0:0:0:
487,208,116582,6,0,P|488:146|498:88,1,95.9999970703126,4|2,1:0|0:0,0:0:0:0:
391,340,116898,1,8,0:0:0:0:
310,334,117056,1,2,0:0:0:0:
227,324,117213,1,0,1:0:0:0:
146,318,117371,1,2,0:0:0:0:
140,151,117529,5,8,0:0:0:0:
221,157,117687,1,2,0:0:0:0:
304,167,117844,1,0,1:0:0:0:
385,173,118002,1,2,0:0:0:0:
38,378,118161,2,0,P|43:330|43:282,1,95.9999970703126,8|2,0:0|0:0,0:0:0:0:
104,122,118477,5,8,0:0:0:0:
128,258,118635,1,8,0:0:0:0:
384,126,118792,5,8,0:0:0:0:
408,262,118950,1,8,0:0:0:0:
381,356,119108,6,0,B|422:333|422:333|476:345,1,95.9999970703126,4|2,1:2|0:0,0:0:0:0:
245,173,119424,1,8,0:0:0:0:
241,256,119582,1,2,0:0:0:0:
154,252,119740,1,0,1:0:0:0:
158,169,119898,1,2,0:0:0:0:
416,357,120056,5,8,0:0:0:0:
420,274,120214,1,2,0:0:0:0:
333,270,120372,1,0,1:0:0:0:
329,353,120530,1,2,0:0:0:0:
178,51,120687,2,0,B|137:74|137:74|89:63,1,95.9999970703126,8|2,0:0|0:0,0:0:0:0:
13,47,121003,6,0,L|8:-17,1,47.9999985351563,2|0,1:2|0:0,0:0:0:0:
31,231,121161,1,0,3:0:0:0:
28,207,121239,1,0,3:0:0:0:
26,183,121319,2,0,L|21:119,1,47.9999985351563,8|0,0:0|0:0,0:0:0:0:
46,357,121477,2,0,L|41:293,1,47.9999985351563,2|0,0:0|0:0,0:0:0:0:
136,362,121635,6,0,P|145:291|156:242,1,95.9999970703126,4|2,1:2|0:0,0:0:0:0:
221,120,121950,1,8,0:0:0:0:
238,210,122108,1,2,0:0:0:0:
254,297,122266,1,0,1:0:0:0:
152,176,122424,1,2,0:0:0:0:
420,270,122582,5,8,0:0:0:0:
318,149,122740,1,2,0:0:0:0:
334,236,122898,1,0,1:0:0:0:
351,326,123056,1,2,0:0:0:0:
435,83,123214,2,0,P|430:130|422:178,1,95.9999970703126,8|2,0:0|0:0,0:0:0:0:
480,12,123529,5,8,0:0:0:0:
325,33,123687,1,8,0:0:0:0:
375,271,123845,5,8,0:0:0:0:
220,292,124003,1,8,0:0:0:0:
146,344,124161,5,0,1:0:0:0:
151,180,124319,1,2,0:0:0:0:
151,180,124477,5,8,0:0:0:0:
146,344,124635,1,2,0:0:0:0:
146,344,124792,5,0,1:0:0:0:
151,180,124950,1,2,0:0:0:0:
151,180,125108,5,8,0:0:0:0:
146,344,125266,1,2,0:0:0:0:
255,371,125424,5,0,1:0:0:0:
226,101,125582,1,2,0:0:0:0:
226,101,125740,5,8,0:0:0:0:
255,371,125898,1,2,0:0:0:0:
255,371,126056,5,0,1:0:0:0:
291,162,126213,1,0,3:0:0:0:
291,162,126292,1,0,3:0:0:0:
291,162,126371,1,0,3:0:0:0:
226,101,126529,1,2,0:0:0:0:
226,101,127792,6,0,B|68:74|68:74|129:172,1,240.000009155274,14|2,0:0|0:0,0:0:0:0:
326,252,128266,2,0,B|484:225|484:225|423:323,1,240.000009155274,14|12,0:0|0:0,0:0:0:0:
148,384,128740,1,2,1:2:0:0:
90,376,128819,1,0,3:0:0:0:
31,366,128898,1,12,0:0:0:0:
148,384,129056,1,0,1:2:0:0:
256,192,129213,12,0,130477,0:0:0:0:
