osu file format v14

[General]
AudioFilename: audio.mp3
AudioLeadIn: 0
PreviewTime: 75687
Countdown: 0
SampleSet: Soft
StackLeniency: 0.2
Mode: 0
LetterboxInBreaks: 0
WidescreenStoryboard: 1

[Editor]
DistanceSpacing: 1.6
BeatDivisor: 4
GridSize: 8
TimelineZoom: 3.099999

[Metadata]
Title:Happy Time wa Owaranai (Cut Ver.)
TitleUnicode:ハッピータイムは終わらない (Cut Ver.)
Artist:Nanamori-chu * Goraku-bu
ArtistUnicode:七森中☆ごらく部
Creator:-Keitaro
Version:Osu's Expert
Source:ゆるゆり
Tags:japanese anime pop YuruYuri 三上枝織 大坪由佳 津田美波 大久保瑠美 Mikami Shiori Otsubo Yuka Tsuda Minami Okubo Rumi 赤座あかり Akaza Akari 歳納京子 Toshino Kyoko 船見結衣 Funami Yui 吉川ちなつ Yoshikawa Chinatsu ioexception deadcode ceo of osu ceo_of_osu
BeatmapID:2745510
BeatmapSetID:1057015

[Difficulty]
HPDrainRate:6
CircleSize:3.8
OverallDifficulty:9
ApproachRate:8
SliderMultiplier:1.6
SliderTickRate:1

[Events]
//Background and Video events
0,0,"Akari Yui Kyouko Chinatsu 486.jpg",0,0
//Break Periods
//Storyboard Layer 0 (Background)
//Storyboard Layer 1 (Fail)
//Storyboard Layer 2 (Pass)
//Storyboard Layer 3 (Foreground)
//Storyboard Layer 4 (Overlay)
//Storyboard Sound Samples

[TimingPoints]
1635,315.789473684211,4,2,22,32,1,0
1637,-100,4,2,22,32,0,0
2266,-100,4,2,22,32,0,0
2898,-100,4,2,22,32,0,0
3529,-100,4,2,22,32,0,0
4161,-100,4,2,22,32,0,0
4793,-100,4,2,22,32,0,0
5424,-100,4,2,22,42,0,0
6056,-100,4,2,22,42,0,0
6687,-100,4,2,22,42,0,0
7319,-100,4,2,22,42,0,0
7950,-100,4,2,22,52,0,0
10003,-100,4,2,22,52,0,0
10477,-200,4,2,22,62,0,0
13003,-133.333333333333,4,2,22,62,0,0
15529,-111.111111111111,4,2,22,62,0,0
20582,-100,4,2,22,72,0,0
32582,-33.3333333333333,4,2,22,72,0,0
33214,-100,4,2,22,72,0,0
37635,-33.3333333333333,4,2,22,72,0,0
38266,-100,4,2,22,72,0,0
38898,-100,4,2,22,72,0,0
39529,-100,4,2,22,72,0,0
40161,-100,4,2,22,72,0,0
40793,-100,4,2,22,62,0,0
50582,-100,4,2,22,62,0,0
50740,-100,4,2,22,62,0,0
50898,-100,4,2,22,72,0,0
61003,-100,4,2,22,72,0,0
61358,-100,4,2,22,72,0,0
61477,-100,4,2,22,72,0,0
61990,-100,4,2,22,72,0,0
62108,-100,4,2,22,72,0,0
68582,-100,4,2,22,72,0,0
69845,-100,4,2,22,72,0,0
71108,-100,4,2,22,72,0,0
71128,-100,4,2,22,72,0,0
71427,-100,4,2,22,72,0,0
71760,-100,4,2,22,72,0,0
72056,-100,4,2,22,72,0,0
72391,-100,4,2,22,72,0,0
72687,-100,4,2,22,72,0,0
73023,-100,4,2,22,72,0,0
73161,-100,4,2,22,72,0,0
76161,-76.9230769230769,4,2,22,82,0,0
116584,-76.9230769230769,4,2,22,72,0,0
116661,-76.9230769230769,4,2,22,72,0,0
118477,-25.6410256410256,4,2,22,72,0,0
119108,-76.9230769230769,4,2,22,72,0,0
123529,-25.6410256410256,4,2,22,72,0,0
124161,-76.9230769230769,4,2,22,82,0,0
124793,-76.9230769230769,4,2,22,82,0,0
125424,-76.9230769230769,4,2,22,82,0,0
127793,-33.3333333333333,4,2,22,72,0,0
128266,-133.333333333333,4,2,22,72,0,0
130477,-133.333333333333,4,2,22,72,0,0

[Colours]
Combo1 : 95,20,250
Combo2 : 0,64,128
Combo3 : 18,124,255
Combo4 : 255,145,91

[HitObjects]
37,348,1635,5,2,0:0:0:0:
37,348,1950,1,2,0:0:0:0:
37,348,2266,1,2,0:0:0:0:
37,348,2424,1,2,0:0:0:0:
37,348,2582,1,2,0:0:0:0:
37,348,2740,1,2,0:0:0:0:
37,348,2898,1,2,0:0:0:0:
37,348,3214,1,2,0:0:0:0:
37,348,3529,1,2,0:0:0:0:
37,348,3845,1,2,0:0:0:0:
37,348,4161,1,2,0:0:0:0:
37,348,4477,1,2,0:0:0:0:
37,348,4793,1,2,0:0:0:0:
37,348,4950,1,2,0:0:0:0:
37,348,5108,1,2,0:0:0:0:
37,348,5266,1,2,0:0:0:0:
103,297,5424,5,6,0:0:0:0:
103,297,5740,1,2,0:0:0:0:
103,297,6056,1,2,0:0:0:0:
103,297,6372,1,2,0:0:0:0:
103,297,6687,1,2,0:0:0:0:
103,297,7003,1,2,0:0:0:0:
103,297,7319,1,2,0:0:0:0:
103,297,7477,1,2,0:0:0:0:
103,297,7635,1,2,0:0:0:0:
103,297,7793,1,2,0:0:0:0:
191,282,7950,5,2,0:0:0:0:
187,265,8266,1,2,0:0:0:0:
208,287,8582,1,2,0:0:0:0:
178,294,8898,1,2,0:0:0:0:
191,282,9214,1,2,0:0:0:0:
191,282,9529,1,2,0:0:0:0:
191,282,9687,1,2,0:0:0:0:
473,0,10003,5,2,0:0:0:0:
467,85,10161,1,2,0:0:0:0:
461,170,10319,1,2,0:0:0:0:
455,255,10477,2,0,B|289:226|332:382|156:339,1,320,4|2,1:0|0:0,0:0:0:0:
163,340,12214,1,2,0:0:0:0:
163,340,12529,1,2,0:0:0:0:
163,340,12687,1,2,0:0:0:0:
20,57,13003,6,0,P|14:150|157:17,1,480,4|4,1:0|1:2,0:0:0:0:
170,24,14740,1,2,0:0:0:0:
170,24,15056,1,2,0:0:0:0:
380,313,15372,5,2,0:0:0:0:
380,313,15529,2,0,B|353:161|353:161|428:98|428:98|498:164|498:164|468:317,1,503.999984619141,4|0,1:2|0:0,0:0:0:0:
292,373,16793,6,0,B|79:356|250:101|-6:100,1,431.999986816407,4|2,1:2|0:0,0:0:0:0:
11,100,17898,1,0,0:0:0:0:
255,36,18056,5,4,1:2:0:0:
170,41,18214,2,0,P|202:104|281:115,1,143.999995605469
336,71,18687,1,4,1:2:0:0:
270,251,18845,2,0,P|333:219|344:140,1,143.999995605469
79,202,19319,5,4,1:2:0:0:
68,291,19477,1,0,0:0:0:0:
444,291,19635,5,4,1:2:0:0:
433,202,19793,1,0,0:0:0:0:
444,291,20108,5,2,0:0:0:0:
433,202,20266,1,2,0:0:0:0:
421,103,20424,1,2,0:0:0:0:
410,14,20582,6,0,P|360:10|302:0,1,80,4|2,1:0|0:0,0:0:0:0:
180,170,20898,2,0,L|285:161,1,80,8|2,0:0|0:0,0:0:0:0:
325,92,21214,5,0,1:0:0:0:
239,75,21372,1,2,0:0:0:0:
189,0,21529,5,8,0:0:0:0:
20,175,21687,1,2,0:0:0:0:
20,175,21766,1,2,0:0:0:0:
20,175,21845,5,0,1:0:0:0:
3,89,22003,1,2,0:0:0:0:
89,72,22161,1,8,0:0:0:0:
106,157,22319,2,0,P|104:212|96:266,1,80,2|0,0:0|1:0,0:0:0:0:
492,175,22635,5,2,0:0:0:0:
509,89,22793,1,8,0:0:0:0:
423,72,22951,1,2,0:0:0:0:
406,157,23109,6,0,P|408:212|416:266,1,80,4|2,1:2|0:0,0:0:0:0:
447,364,23424,2,0,L|346:354,1,80,8|2,0:0|0:0,0:0:0:0:
367,356,23661,1,2,0:0:0:0:
367,356,23740,1,0,1:0:0:0:
283,350,23898,1,2,0:2:0:0:
126,324,24056,1,8,0:0:0:0:
28,311,24214,1,2,0:0:0:0:
28,311,24293,1,2,0:0:0:0:
28,311,24372,6,0,B|40:250|-10:227|12:155,1,160,0|8,1:2|0:0,0:0:0:0:
178,192,24845,2,0,L|277:200,1,80,2|0,0:0|1:2,0:0:0:0:
51,82,25161,2,0,L|39:31,1,40,2|2,0:0|0:0,0:0:0:0:
96,181,25319,2,0,P|129:125|192:110,1,120,10|0,0:0|0:0,0:0:0:0:
178,108,25635,6,0,P|155:63|158:8,1,80,4|2,1:2|0:0,0:0:0:0:
350,211,25950,2,0,P|339:293|335:386,1,160,8|0,0:0|1:2,0:0:0:0:
456,28,26424,1,2,0:0:0:0:
481,109,26582,2,0,P|432:108|389:77,1,80,8|2,0:0|0:0,0:0:0:0:
288,21,26898,6,0,P|311:63|306:116,1,80,0|2,1:2|0:0,0:0:0:0:
61,76,27214,2,0,L|234:85,1,160,8|0,0:0|1:2,0:0:0:0:
8,8,27687,5,2,0:0:0:0:
42,162,27845,1,8,0:0:0:0:
25,248,28003,1,2,0:0:0:0:
0,337,28161,6,0,P|44:340|90:353,1,80,4|2,1:2|0:0,0:0:0:0:
281,223,28477,1,8,0:0:0:0:
193,237,28635,1,2,0:0:0:0:
255,366,28793,5,0,1:2:0:0:
259,370,28950,2,0,L|264:321,1,40,2|0,0:0|0:0,0:0:0:0:
289,132,29108,1,8,0:0:0:0:
344,279,29266,1,2,0:0:0:0:
404,349,29424,5,0,1:2:0:0:
436,63,29582,1,2,0:0:0:0:
504,11,29740,5,8,0:0:0:0:
447,147,29898,1,2,0:0:0:0:
357,29,30056,1,0,1:2:0:0:
57,30,30214,5,2,3:2:0:0:
57,30,30293,1,0,3:0:0:0:
57,30,30372,2,0,L|114:36,1,40,8|0,0:0|0:0,0:0:0:0:
51,103,30529,2,0,L|108:109,1,40,2|0,0:0|0:0,0:0:0:0:
31,346,30687,6,0,P|86:358|147:259,1,160,4|8,1:0|0:0,0:0:0:0:
122,207,31161,1,2,0:0:0:0:
167,141,31319,1,0,1:0:0:0:
415,114,31477,1,2,0:0:0:0:
372,44,31635,1,8,0:0:0:0:
332,119,31793,2,0,P|327:174|331:227,1,80,2|0,0:0|1:0,0:0:0:0:
404,348,32108,5,2,0:0:0:0:
379,271,32266,1,8,0:0:0:0:
301,291,32424,1,2,0:0:0:0:
493,87,32582,6,0,B|505:132|505:132|484:328,3,240.000009155274,8|8|8|8,0:0|0:0|0:0|0:0,0:0:0:0:
484,324,33214,5,4,1:2:0:0:
484,324,33529,1,8,0:0:0:0:
404,344,33687,1,2,0:0:0:0:
393,263,33845,1,0,1:0:0:0:
192,113,34003,2,0,P|193:65|214:14,1,80,2|8,0:0|0:0,0:0:0:0:
347,31,34319,2,0,P|357:69|357:109,1,80,2|0,0:0|1:0,0:0:0:0:
274,87,34635,5,2,0:0:0:0:
30,129,34793,2,0,L|127:111,1,80,8|2,0:0|0:0,0:0:0:0:
512,41,35108,2,0,L|433:55,1,80,2|0,1:2|3:0,0:0:0:0:
500,148,35345,1,0,3:0:0:0:
500,148,35424,2,0,P|446:149|412:104,1,80,8|2,0:0|0:0,0:0:0:0:
274,87,35740,6,0,P|302:155|256:245,1,160,4|8,1:2|0:0,0:0:0:0:
179,290,36214,1,2,0:0:0:0:
184,207,36372,1,0,1:0:0:0:
332,371,36529,1,2,0:0:0:0:
337,288,36687,1,8,0:0:0:0:
87,351,36845,2,0,P|90:305|91:261,1,80,2|0,0:0|1:0,0:0:0:0:
423,252,37161,1,2,0:0:0:0:
427,256,37319,2,0,P|424:295|423:335,1,80,8|2,0:0|0:0,0:0:0:0:
512,130,37635,6,0,B|522:184|522:184|514:369,3,240.000009155274,8|8|8|8,0:0|0:0|0:0|0:0,0:0:0:0:
512,130,38266,5,0,1:0:0:0:
207,257,38582,5,8,0:0:0:0:
189,143,38740,1,2,0:0:0:0:
303,125,38898,1,0,1:0:0:0:
321,239,39056,1,2,0:0:0:0:
368,174,39214,5,8,0:0:0:0:
238,78,39372,1,2,0:0:0:0:
142,209,39530,1,0,1:0:0:0:
273,304,39688,1,2,0:0:0:0:
160,322,39845,5,8,0:0:0:0:
124,96,40003,1,2,0:0:0:0:
350,60,40161,1,0,1:0:0:0:
386,286,40319,1,2,0:0:0:0:
386,286,40398,1,2,0:0:0:0:
386,286,40477,1,8,0:0:0:0:
256,192,40635,1,2,0:0:0:0:
488,148,40793,5,2,0:0:0:0:
492,152,40950,2,0,P|503:101|428:17,1,160,2|2,0:0|0:0,0:0:0:0:
422,201,41424,2,0,P|375:188|348:143,1,80,2|0,0:0|0:0,0:0:0:0:
191,231,41740,2,0,P|225:196|278:195,1,80,2|0,0:0|0:0,0:0:0:0:
276,12,42056,1,2,0:0:0:0:
280,16,42214,2,0,P|292:63|266:109,1,80
38,51,42529,6,0,P|116:52|218:60,1,160,2|2,0:0|0:0,0:0:0:0:
70,139,43003,2,0,P|120:140|171:145,1,80,0|2,0:0|0:0,0:0:0:0:
149,142,43240,1,2,0:0:0:0:
149,142,43319,1,2,0:0:0:0:
344,355,43477,5,2,0:0:0:0:
332,273,43635,1,0,0:0:0:0:
430,338,43793,1,2,0:0:0:0:
418,256,43951,1,2,0:0:0:0:
201,93,44108,5,2,0:0:0:0:
201,93,44424,1,2,0:0:0:0:
189,175,44582,1,2,0:0:0:0:
287,110,44740,1,0,0:0:0:0:
275,192,44898,1,2,0:0:0:0:
44,359,45056,5,2,0:0:0:0:
32,277,45372,1,2,0:0:0:0:
130,342,45530,1,0,0:0:0:0:
118,260,45688,1,2,0:0:0:0:
374,287,45845,5,0,0:0:0:0:
450,250,46003,2,0,P|416:212|369:204,1,80,0|2,0:0|0:0,0:0:0:0:
358,370,46319,2,0,P|321:355|298:324,1,80,0|2,0:0|0:0,0:0:0:0:
27,140,46793,6,0,P|61:102|108:94,1,80,2|0,0:0|0:0,0:0:0:0:
118,260,47109,2,0,P|154:245|178:213,1,80,2|0,0:0|0:0,0:0:0:0:
403,102,47424,5,2,0:0:0:0:
387,185,47582,2,0,P|350:170|326:138,1,80,2|0,0:0|0:0,0:0:0:0:
479,65,47898,2,0,P|445:27|398:19,1,80,2|0,0:0|0:0,0:0:0:0:
103,12,48214,5,2,0:0:0:0:
103,12,48293,1,2,0:0:0:0:
103,12,48372,1,2,0:0:0:0:
171,54,48687,2,0,P|133:87|81:91,1,80,0|2,0:0|0:0,0:0:0:0:
103,12,49003,1,2,0:0:0:0:
266,81,49161,2,0,P|256:31|278:-15,1,80,0|2,0:0|0:0,0:0:0:0:
344,51,49477,1,2,0:0:0:0:
344,51,49556,1,2,0:0:0:0:
344,51,49635,1,2,0:0:0:0:
195,149,49793,2,0,P|242:165|272:208,1,80,0|2,0:0|0:0,0:0:0:0:
170,222,50108,2,0,P|189:227|205:240,1,40
479,128,50266,5,2,0:0:0:0:
204,239,50582,6,0,P|189:227|170:222,1,40,8|0,0:0|0:0,0:0:0:0:
85,349,50898,5,4,1:2:0:0:
215,336,51056,1,2,0:0:0:0:
345,323,51214,1,8,0:0:0:0:
475,310,51372,1,2,0:0:0:0:
345,323,51529,1,0,1:0:0:0:
215,336,51687,1,2,0:0:0:0:
85,349,52003,5,2,0:0:0:0:
215,336,52161,1,0,1:0:0:0:
345,323,52319,1,2,0:0:0:0:
475,310,52477,1,8,0:0:0:0:
345,323,52634,1,2,0:0:0:0:
215,336,52950,1,2,0:0:0:0:
85,349,53266,1,2,0:0:0:0:
125,114,53424,5,4,1:2:0:0:
228,241,53582,1,2,0:0:0:0:
365,202,53898,1,2,0:0:0:0:
373,41,54056,1,0,1:2:0:0:
365,202,54372,1,8,0:0:0:0:
228,241,54529,1,2,0:0:0:0:
125,114,54687,5,0,1:2:0:0:
228,241,55003,1,8,0:0:0:0:
365,202,55160,1,2,0:0:0:0:
373,41,55477,5,0,3:2:0:0:
373,41,55556,1,0,3:2:0:0:
373,41,55635,1,8,0:0:0:0:
322,118,55792,1,2,0:0:0:0:
409,130,55950,1,4,1:2:0:0:
487,361,56108,6,0,P|459:309|346:298,1,160,2|2,0:0|0:0,0:0:0:0:
302,347,56582,1,0,1:2:0:0:
393,371,56740,1,2,0:0:0:0:
393,371,57056,1,2,0:0:0:0:
373,149,57214,5,0,1:2:0:0:
284,172,57372,1,2,0:0:0:0:
195,195,57529,1,8,0:0:0:0:
106,218,57687,1,2,0:0:0:0:
17,241,57845,5,0,1:2:0:0:
41,12,58003,1,2,0:0:0:0:
255,44,58161,1,8,0:0:0:0:
231,273,58319,1,2,0:0:0:0:
155,309,58477,6,0,B|128:227|190:232|153:135,1,160,0|8,1:2|0:0,0:0:0:0:
174,70,58950,2,0,P|128:74|69:78,1,80,2|0,0:0|1:0,0:0:0:0:
225,376,59266,2,0,P|249:316|341:303,1,160,2|2,0:0|0:0,0:0:0:0:
512,294,59740,6,0,P|504:352|478:381,1,80,0|2,1:2|0:0,0:0:0:0:
256,96,60056,2,0,P|255:139|256:192,1,80,8|2,0:0|0:0,0:0:0:0:
81,309,60372,5,0,1:0:0:0:
0,294,60529,2,0,P|8:352|34:381,1,80,2|8,0:2|0:0,0:0:0:0:
199,299,60845,2,0,L|137:305,1,40,2|0,0:0|0:0,0:0:0:0:
81,309,61003,5,4,1:2:0:0:
261,241,61161,2,0,P|279:275|280:315,1,80,0|8,0:0|0:0,0:0:0:0:
167,214,61477,1,0,0:0:0:0:
176,133,61635,1,2,1:2:0:0:
41,40,61793,1,0,0:0:0:0:
122,49,61951,1,8,0:0:0:0:
122,49,62108,1,2,0:0:0:0:
47,318,62266,6,0,P|88:310|131:309,1,80,2|0,1:2|0:0,0:0:0:0:
364,119,62582,1,8,0:0:0:0:
393,211,62740,2,0,P|353:209|313:201,1,80,2|0,0:0|1:0,0:0:0:0:
142,12,63056,5,0,0:0:0:0:
168,221,63214,1,10,0:0:0:0:
142,12,63372,1,0,0:0:0:0:
106,98,63529,5,2,1:2:0:0:
208,61,63687,1,0,0:0:0:0:
394,118,63845,5,8,0:0:0:0:
217,155,64003,1,0,0:0:0:0:
106,98,64161,5,2,1:2:0:0:
208,61,64319,1,0,0:0:0:0:
394,118,64477,5,8,0:0:0:0:
217,155,64635,1,0,0:0:0:0:
38,163,64793,6,0,P|17:112|-17:86,1,80,2|0,1:2|0:0,0:0:0:0:
256,80,65108,2,0,P|257:44|256:0,1,80,8|2,0:0|0:0,0:0:0:0:
474,163,65424,2,0,P|495:112|529:86,1,80,2|0,0:0|0:0,0:0:0:0:
416,232,65661,1,0,1:0:0:0:
416,232,65740,2,0,P|389:180|387:124,1,80,8|0,0:0|1:0,0:0:0:0:
423,70,66056,5,4,1:2:0:0:
470,344,66214,1,0,0:0:0:0:
385,363,66372,1,8,0:0:0:0:
300,382,66529,1,0,0:0:0:0:
233,110,66687,5,2,1:2:0:0:
300,382,66845,1,0,0:0:0:0:
385,363,67002,1,8,0:0:0:0:
470,344,67160,1,0,0:0:0:0:
219,291,67319,6,0,P|279:293|319:310,1,80,2|0,1:2|0:0,0:0:0:0:
123,243,67635,2,0,P|175:214|219:209,1,80,8|2,0:0|0:0,0:0:0:0:
11,245,67950,1,0,1:0:0:0:
15,249,68108,2,0,P|46:198|81:171,1,80,0|10,1:0|0:0,0:0:0:0:
178,123,68424,1,0,1:0:0:0:
1,100,68582,6,0,P|31:157|0:267,1,160,2|8,1:2|0:0,0:0:0:0:
106,22,69056,1,0,0:0:0:0:
120,338,69214,1,2,1:2:0:0:
124,342,69372,2,0,P|124:293|109:253,2,80,0|8|0,0:0|0:0|0:0,0:0:0:0:
199,135,69845,5,2,1:2:0:0:
199,135,70161,1,8,0:0:0:0:
117,174,70319,1,0,1:2:0:0:
438,213,70477,5,2,1:2:0:0:
271,219,70635,1,0,1:0:0:0:
239,222,70713,1,0,1:0:0:0:
214,242,70792,1,8,0:0:0:0:
502,145,70950,6,0,L|489:75,1,40,0|0,1:2|0:0,0:0:0:0:
477,29,71108,5,4,1:2:0:0:
428,341,71424,1,0,3:0:0:0:
477,29,71740,5,4,1:2:0:0:
329,302,72056,1,0,3:0:0:0:
477,29,72372,5,4,1:2:0:0:
230,263,72687,1,0,3:0:0:0:
477,29,73003,5,12,1:2:0:0:
131,224,73161,1,0,3:0:0:0:
477,29,73477,5,0,3:0:0:0:
32,185,73635,2,0,P|79:166|113:100,1,120,4|0,1:0|0:0,0:0:0:0:
145,304,73950,2,0,L|152:344,1,40,0|0,1:0|0:0,0:0:0:0:
480,185,74266,6,0,P|433:166|399:100,1,120,4|0,1:0|0:0,0:0:0:0:
366,304,74582,2,0,L|360:344,1,40,0|0,1:0|0:0,0:0:0:0:
256,40,74898,5,4,1:0:0:0:
256,128,75214,5,4,1:0:0:0:
256,368,75372,2,0,L|256:304,1,40,2|0,0:0|0:0,0:0:0:0:
256,40,75529,5,4,1:0:0:0:
168,310,75687,5,2,0:0:0:0:
89,325,75845,1,2,0:0:0:0:
10,340,76003,1,2,0:0:0:0:
439,337,76161,6,0,P|362:315|377:188,1,207.999990478516,4|8,1:0|0:0,0:0:0:0:
359,202,76635,1,2,0:0:0:0:
124,14,76793,2,0,P|120:77|112:154,1,103.999995239258,0|2,1:0|0:0,0:0:0:0:
489,258,77108,2,0,P|492:206|496:154,1,103.999995239258,8|2,0:0|0:0,0:0:0:0:
496,154,77345,1,2,0:0:0:0:
496,154,77424,1,2,1:2:0:0:
253,378,77582,5,2,0:0:0:0:
241,286,77740,1,8,0:0:0:0:
229,194,77898,1,2,0:0:0:0:
263,17,78056,5,0,1:0:0:0:
64,129,78214,2,0,P|99:135|129:152,1,51.999997619629,2|0,0:0|0:0,0:0:0:0:
274,105,78372,5,8,0:0:0:0:
472,217,78530,2,0,P|446:220|422:229,1,51.999997619629,2|0,0:0|0:0,0:0:0:0:
288,198,78687,5,4,1:2:0:0:
175,344,78845,1,2,0:0:0:0:
0,285,79003,1,8,0:0:0:0:
175,344,79161,1,2,0:0:0:0:
288,198,79319,5,0,1:0:0:0:
175,344,79477,1,2,0:0:0:0:
175,344,79635,1,8,0:0:0:0:
0,285,79793,1,2,0:0:0:0:
340,46,79950,6,0,P|308:109|175:46,1,207.999990478516,0|8,1:0|0:0,0:0:0:0:
189,0,80424,2,0,L|53:27,1,103.999995239258,2|0,0:0|1:0,0:0:0:0:
342,228,80740,1,2,3:2:0:0:
306,225,80818,1,0,3:0:0:0:
270,223,80897,1,8,0:0:0:0:
479,91,81056,2,0,L|412:86,1,51.999997619629,2|0,0:0|0:0,0:0:0:0:
365,0,81214,6,0,P|309:33|293:92,1,103.999995239258,4|2,1:2|0:0,0:0:0:0:
213,333,81529,2,0,P|201:232|182:101,1,207.999990478516,8|0,0:0|1:0,0:0:0:0:
186,126,82003,1,2,0:0:0:0:
384,88,82161,1,8,0:0:0:0:
7,5,82319,5,2,3:2:0:0:
7,5,82398,1,0,3:0:0:0:
7,5,82477,2,0,P|18:65|25:123,1,103.999995239258,0|2,1:0|0:0,0:0:0:0:
33,192,82793,1,8,0:0:0:0:
220,166,82950,2,0,P|160:177|102:184,1,103.999995239258,2|0,0:0|1:0,0:0:0:0:
33,192,83266,1,2,0:0:0:0:
59,379,83424,2,0,P|48:319|41:261,1,103.999995239258,8|2,0:0|0:0,0:0:0:0:
453,379,83740,6,0,P|464:319|471:261,1,103.999995239258,4|2,1:2|0:0,0:0:0:0:
479,192,84056,1,8,0:0:0:0:
292,166,84214,2,0,P|352:177|410:184,1,103.999995239258,2|0,0:0|1:0,0:0:0:0:
479,192,84529,1,2,0:0:0:0:
501,1,84687,1,8,0:0:0:0:
505,5,84845,2,0,P|494:65|487:123,1,103.999995239258,2|0,0:0|1:2,0:0:0:0:
512,369,85161,5,2,0:0:0:0:
357,287,85319,1,8,0:0:0:0:
155,97,85477,5,2,0:0:0:0:
0,15,85635,1,0,1:0:0:0:
69,263,85793,5,2,0:0:0:0:
92,340,85950,1,2,0:0:0:0:
69,263,86108,1,2,0:0:0:0:
6,327,86266,5,4,1:0:0:0:
155,97,86424,2,0,P|156:154|139:222,2,103.999995239258,2|8|2,0:0|0:0|0:0,0:0:0:0:
155,97,86819,1,2,0:0:0:0:
155,97,86898,1,0,1:0:0:0:
322,367,87056,1,2,0:0:0:0:
232,240,87214,2,0,P|230:291|240:342,1,103.999995239258,8|2,0:0|0:0,0:0:0:0:
477,272,87529,5,0,1:0:0:0:
481,276,87687,2,0,P|427:272|369:267,1,103.999995239258,2|8,0:0|0:0,0:0:0:0:
55,237,88003,1,2,0:0:0:0:
283,154,88161,5,0,1:0:0:0:
197,371,88319,2,0,P|223:356|248:330,1,51.999997619629,2|0,0:0|0:0,0:0:0:0:
368,120,88477,5,8,0:0:0:0:
87,42,88635,2,0,P|128:46|155:54,1,51.999997619629,2|0,0:0|0:0,0:0:0:0:
456,84,88793,6,0,P|462:147|466:207,1,103.999995239258,4|2,1:2|0:0,0:0:0:0:
139,49,89108,2,0,P|145:112|149:172,1,103.999995239258,8|2,0:0|0:0,0:0:0:0:
147,152,89345,1,2,0:0:0:0:
147,152,89424,1,0,1:0:0:0:
51,365,89582,1,2,0:0:0:0:
56,221,89740,1,8,0:0:0:0:
226,236,89898,1,2,0:0:0:0:
0,0,90056,6,0,P|26:69|145:37,1,207.999990478516,0|8,1:0|0:0,0:0:0:0:
484,71,90529,2,0,P|419:79|363:90,1,103.999995239258,2|0,0:0|1:0,0:0:0:0:
159,237,90845,1,2,3:2:0:0:
107,231,90923,1,0,3:0:0:0:
56,221,91002,1,8,0:0:0:0:
486,354,91161,6,0,P|421:362|365:373,1,103.999995239258,2|4,0:0|1:2,0:0:0:0:
304,16,91477,1,2,0:0:0:0:
319,212,91635,5,8,0:0:0:0:
401,177,91793,1,2,0:0:0:0:
401,177,91872,1,2,0:2:0:0:
401,177,91950,1,2,1:2:0:0:
473,224,92108,5,2,0:0:0:0:
237,190,92266,1,8,0:0:0:0:
1,156,92424,1,2,0:0:0:0:
69,102,92582,6,0,P|61:45|50:-14,1,103.999995239258,0|2,1:0|0:0,0:0:0:0:
340,199,92898,2,0,P|332:142|321:83,1,103.999995239258,8|2,0:0|0:0,0:0:0:0:
42,351,93214,1,0,1:0:0:0:
46,355,93372,2,0,P|38:298|27:239,1,103.999995239258,2|8,0:0|0:0,0:0:0:0:
224,18,93687,1,2,0:0:0:0:
228,22,93845,5,2,1:2:0:0:
223,68,93924,1,2,0:2:0:0:
218,115,94003,1,2,0:2:0:0:
214,161,94082,1,2,0:2:0:0:
236,194,94161,1,10,0:2:0:0:
231,240,94240,1,2,0:2:0:0:
226,287,94319,1,2,0:2:0:0:
222,333,94398,1,2,0:2:0:0:
244,366,94477,5,2,1:2:0:0:
222,333,94556,1,2,0:2:0:0:
226,287,94635,1,2,0:2:0:0:
231,240,94714,1,2,0:2:0:0:
236,194,94793,1,10,0:2:0:0:
214,161,94872,1,2,0:2:0:0:
218,115,94950,1,2,0:2:0:0:
223,68,95029,1,2,0:2:0:0:
228,22,95108,6,0,P|172:29|104:37,1,103.999995239258,0|2,1:0|0:0,0:0:0:0:
436,341,95424,2,0,P|380:348|312:356,1,103.999995239258,8|2,0:0|0:0,0:0:0:0:
42,284,95740,5,0,1:0:0:0:
184,234,95898,1,2,3:2:0:0:
232,215,95976,1,0,3:0:0:0:
280,196,96055,1,8,0:0:0:0:
429,143,96214,1,2,0:0:0:0:
322,27,96372,6,0,P|266:20|199:16,1,103.999995239258,4|2,1:2|0:0,0:0:0:0:
287,244,96687,2,0,P|231:237|164:233,1,103.999995239258,8|2,0:2|0:2,0:0:0:0:
322,27,97003,6,0,P|266:20|199:16,1,103.999995239258,0|2,1:2|0:2,0:0:0:0:
287,244,97319,2,0,P|231:237|164:233,1,103.999995239258,8|2,0:2|0:2,0:0:0:0:
322,27,97635,6,0,P|266:20|199:16,1,103.999995239258,0|2,1:2|0:2,0:0:0:0:
287,244,97950,2,0,P|231:237|164:233,1,103.999995239258,8|2,0:2|0:2,0:0:0:0:
0,0,98266,5,0,1:0:0:0:
140,130,98424,1,0,1:0:0:0:
372,254,98582,5,8,0:0:0:0:
512,384,98740,1,0,1:0:0:0:
460,305,98898,6,0,P|455:245|451:170,1,103.999995239258,4|2,1:2|0:0,0:0:0:0:
143,328,99214,2,0,P|138:268|134:193,1,103.999995239258,8|2,0:2|0:2,0:0:0:0:
460,305,99529,6,0,P|455:245|451:170,1,103.999995239258,0|2,1:2|0:2,0:0:0:0:
143,328,99845,2,0,P|138:268|134:193,1,103.999995239258,8|2,0:2|0:2,0:0:0:0:
460,305,100161,6,0,P|455:245|451:170,1,103.999995239258,0|2,1:2|0:2,0:0:0:0:
143,328,100477,2,0,P|138:268|134:193,1,103.999995239258,8|2,0:2|0:2,0:0:0:0:
460,305,100793,5,0,1:0:0:0:
135,224,100950,2,0,P|138:276|143:328,1,103.999995239258,0|8,1:0|0:0,0:0:0:0:
142,327,101266,6,0,P|193:324|245:319,1,103.999995239258,0|4,1:0|0:0,0:0:0:0:
351,96,101582,1,2,0:0:0:0:
244,2,101740,6,0,P|256:51|240:100,1,103.999995239258,8|2,0:0|0:0,0:0:0:0:
447,136,102056,2,0,P|410:171|359:182,1,103.999995239258,0|2,1:2|0:0,0:0:0:0:
432,378,102372,2,0,P|382:364|348:325,1,103.999995239258,8|2,0:0|0:0,0:0:0:0:
239,100,102687,6,0,P|305:86|361:79,1,103.999995239258,0|2,1:2|0:0,0:0:0:0:
103,370,103003,2,0,P|37:356|-19:349,1,103.999995239258,8|2,0:0|0:0,0:0:0:0:
275,352,103319,5,0,1:2:0:0:
244,183,103477,1,2,0:0:0:0:
213,15,103635,1,8,0:0:0:0:
138,182,103793,2,0,P|124:232|118:284,1,103.999995239258,2|0,0:0|1:0,0:0:0:0:
482,186,104108,5,2,0:0:0:0:
486,190,104266,1,8,0:0:0:0:
452,16,104424,1,2,0:0:0:0:
278,50,104582,1,0,1:2:0:0:
312,224,104740,1,2,0:0:0:0:
364,300,104898,5,8,0:0:0:0:
405,92,105056,1,2,0:0:0:0:
196,51,105214,1,0,1:2:0:0:
156,260,105372,1,2,0:0:0:0:
222,340,105529,5,8,0:0:0:0:
316,118,105687,1,2,0:0:0:0:
93,22,105845,1,0,1:2:0:0:
0,245,106003,1,2,3:2:0:0:
0,245,106082,1,0,3:0:0:0:
0,245,106161,1,8,0:0:0:0:
98,197,106319,1,2,0:0:0:0:
19,131,106477,6,0,P|5:71|-1:13,1,103.999995239258,4|2,1:2|0:0,0:0:0:0:
387,108,106793,2,0,P|373:48|367:-10,1,103.999995239258,8|2,0:2|0:2,0:0:0:0:
461,246,107108,6,0,P|475:186|481:128,1,103.999995239258,0|2,1:2|0:2,0:0:0:0:
93,223,107424,2,0,P|107:163|113:105,1,103.999995239258,8|2,0:2|0:2,0:0:0:0:
19,384,107740,6,0,P|5:324|-1:266,1,103.999995239258,0|2,1:2|0:2,0:0:0:0:
387,361,108056,2,0,P|373:301|367:243,1,103.999995239258,8|2,0:2|0:2,0:0:0:0:
512,384,108372,5,0,1:0:0:0:
367,258,108529,1,0,1:0:0:0:
145,126,108687,5,8,0:0:0:0:
0,0,108844,1,0,1:0:0:0:
226,4,109003,6,0,P|163:-2|102:2,1,103.999995239258,4|2,1:2|0:0,0:0:0:0:
103,251,109319,2,0,P|40:245|-21:249,1,103.999995239258,8|2,0:2|0:2,0:0:0:0:
380,64,109635,6,0,P|317:58|256:62,1,103.999995239258,0|2,1:2|0:2,0:0:0:0:
257,311,109951,2,0,P|194:305|133:309,1,103.999995239258,8|2,0:2|0:2,0:0:0:0:
512,137,110266,6,0,P|449:131|388:135,1,103.999995239258,0|2,1:2|0:2,0:0:0:0:
389,384,110582,2,0,P|326:378|265:382,1,103.999995239258,8|2,0:2|0:2,0:0:0:0:
243,125,110898,5,0,1:0:0:0:
246,171,110976,1,0,1:0:0:0:
250,218,111055,1,0,1:0:0:0:
254,264,111134,1,0,1:0:0:0:
257,311,111213,1,8,0:0:0:0:
107,109,111372,6,0,P|116:52|121:-21,1,103.999995239258,2|4,1:2|1:2,0:0:0:0:
119,5,111687,1,2,0:0:0:0:
83,198,111845,6,0,P|134:197|190:149,1,103.999995239258,8|2,0:0|0:0,0:0:0:0:
257,311,112161,2,0,P|301:284|325:215,1,103.999995239258,0|2,1:2|0:0,0:0:0:0:
464,322,112477,2,0,P|489:277|476:205,1,103.999995239258,8|2,0:0|0:0,0:0:0:0:
394,2,112793,5,0,1:2:0:0:
411,171,112950,1,2,0:0:0:0:
497,63,113108,5,8,0:0:0:0:
309,93,113266,1,2,0:0:0:0:
233,260,113424,5,0,1:2:0:0:
152,223,113582,1,2,3:2:0:0:
107,207,113660,1,0,3:2:0:0:
64,192,113739,1,8,0:0:0:0:
447,192,113898,5,2,0:0:0:0:
447,192,113977,1,2,0:0:0:0:
447,192,114056,1,6,1:2:0:0:
391,56,114214,1,2,0:0:0:0:
256,0,114372,1,10,0:0:0:0:
120,56,114530,1,2,0:0:0:0:
64,192,114688,1,2,1:2:0:0:
120,327,114845,1,2,0:0:0:0:
256,383,115003,1,10,0:2:0:0:
391,327,115161,1,2,0:0:0:0:
447,192,115319,5,2,1:2:0:0:
391,328,115477,1,2,0:0:0:0:
256,384,115635,1,10,0:0:0:0:
120,328,115793,1,2,0:0:0:0:
64,192,115951,1,2,1:2:0:0:
120,57,116108,1,2,3:2:0:0:
120,57,116187,1,0,3:2:0:0:
120,57,116266,1,10,0:0:0:0:
256,1,116424,1,2,0:0:0:0:
391,57,116582,6,0,P|396:119|399:195,1,103.999995239258,4|2,1:0|0:0,0:0:0:0:
159,384,116898,1,8,0:0:0:0:
52,350,117056,1,2,0:0:0:0:
123,264,117214,1,0,1:0:0:0:
127,268,117372,2,0,P|183:274|243:295,1,103.999995239258,2|8,0:0|0:0,0:0:0:0:
492,36,117687,2,0,P|442:51|390:56,1,103.999995239258,2|0,0:0|1:0,0:0:0:0:
12,48,118003,5,2,0:0:0:0:
95,94,118161,1,8,0:0:0:0:
148,8,118319,1,2,0:0:0:0:
78,347,118477,6,0,P|209:336|405:319,3,312.000001190186,8|8|8|8,0:0|0:0|0:0|0:0,0:0:0:0:
484,358,119108,6,0,P|486:269|497:217,1,103.999995239258,4|2,1:2|0:0,0:0:0:0:
189,12,119424,1,8,0:0:0:0:
202,103,119582,1,2,0:0:0:0:
221,198,119740,1,0,1:0:0:0:
154,290,119898,2,0,P|82:305|30:321,1,103.999995239258,2|8,0:0|0:0,0:0:0:0:
321,30,120214,2,0,P|371:43|422:53,1,103.999995239258,2|0,0:0|1:0,0:0:0:0:
36,149,120529,5,2,0:0:0:0:
89,74,120687,1,8,0:0:0:0:
22,12,120845,1,2,0:0:0:0:
259,319,121003,6,0,P|261:265|276:197,1,103.999995239258,2|0,1:2|3:0,0:0:0:0:
367,346,121240,1,0,3:0:0:0:
367,346,121319,2,0,P|369:292|384:224,1,103.999995239258,8|2,0:0|0:0,0:0:0:0:
378,243,121635,6,0,P|446:231|494:226,1,103.999995239258,4|2,1:2|0:0,0:0:0:0:
192,49,121950,1,8,0:0:0:0:
271,116,122108,1,2,0:0:0:0:
348,46,122266,1,0,1:0:0:0:
102,0,122424,2,0,P|92:63|91:113,1,103.999995239258,2|8,0:0|0:0,0:0:0:0:
259,319,122740,2,0,P|269:256|270:206,1,103.999995239258,2|0,0:0|1:0,0:0:0:0:
455,38,123056,5,2,0:0:0:0:
407,116,123214,1,8,0:0:0:0:
500,149,123372,1,2,0:0:0:0:
14,166,123529,6,0,P|145:155|341:138,3,312.000001190186,8|8|8|8,0:0|0:0|0:0|0:0,0:0:0:0:
306,259,124161,5,0,1:0:0:0:
325,140,124319,1,2,0:0:0:0:
206,121,124477,1,8,0:0:0:0:
187,240,124635,1,2,0:0:0:0:
138,172,124793,5,0,1:0:0:0:
274,73,124951,1,2,0:0:0:0:
373,209,125109,1,8,0:0:0:0:
237,308,125267,1,2,0:0:0:0:
355,327,125424,5,0,1:0:0:0:
393,91,125582,1,2,0:0:0:0:
157,53,125740,1,8,0:0:0:0:
119,289,125898,1,2,0:0:0:0:
45,157,126056,5,0,1:0:0:0:
256,192,126214,1,0,3:0:0:0:
256,192,126293,1,0,3:0:0:0:
256,192,126371,1,8,3:2:0:0:
467,223,126529,1,2,0:0:0:0:
107,384,127793,6,0,P|230:190|498:271,1,480.000018310548,14|2,0:0|0:0,0:0:0:0:
452,219,128266,2,0,P|447:158|421:126,1,90.0000034332277,14|0,0:0|0:0,0:0:0:0:
387,37,128582,5,12,0:0:0:0:
234,66,128740,1,2,1:2:0:0:
99,91,128898,1,0,1:2:0:0:
2,109,129056,1,12,0:0:0:0:
256,192,129214,12,0,130477,0:0:0:0:
