osu file format v14

[General]
AudioFilename: audio.mp3
AudioLeadIn: 0
PreviewTime: 75687
Countdown: 0
SampleSet: Soft
StackLeniency: 0.2
Mode: 0
LetterboxInBreaks: 0
WidescreenStoryboard: 1

[Editor]
Bookmarks: 76161
DistanceSpacing: 1.3
BeatDivisor: 4
GridSize: 8
TimelineZoom: 2.3

[Metadata]
Title:Happy Time wa Owaranai (Cut Ver.)
TitleUnicode:ハッピータイムは終わらない (Cut Ver.)
Artist:Nanamori-chu * Goraku-bu
ArtistUnicode:七森中☆ごらく部
Creator:-Keitaro
Version:Keitarosu's Hard
Source:ゆるゆり
Tags:japanese anime pop YuruYuri 三上枝織 大坪由佳 津田美波 大久保瑠美 Mikami Shiori Otsubo Yuka Tsuda Minami Okubo Rumi 赤座あかり Akaza Akari 歳納京子 Toshino Kyoko 船見結衣 Funami Yui 吉川ちなつ Yoshikawa Chinatsu ioexception deadcode ceo of osu ceo_of_osu
BeatmapID:2776487
BeatmapSetID:1057015

[Difficulty]
HPDrainRate:4.5
CircleSize:3.8
OverallDifficulty:6
ApproachRate:7.2
SliderMultiplier:1.3
SliderTickRate:1

[Events]
//Background and Video events
0,0,"Akari Yui Kyouko Chinatsu 486.jpg",0,0
//Break Periods
//Storyboard Layer 0 (Background)
//Storyboard Layer 1 (Fail)
//Storyboard Layer 2 (Pass)
//Storyboard Layer 3 (Foreground)
//Storyboard Layer 4 (Overlay)
//Storyboard Sound Samples

[TimingPoints]
1635,315.789473684211,4,2,22,32,1,0
1635,-125,4,2,22,32,0,0
2898,-111.111111111111,4,2,22,32,0,0
5424,-111.111111111111,4,2,22,42,0,0
7950,-111.111111111111,4,2,22,52,0,0
10477,-111.111111111111,4,2,22,62,0,0
20582,-100,4,2,22,72,0,0
32582,-90.9090909090909,4,2,22,72,0,0
33213,-100,4,2,22,72,0,0
37635,-90.9090909090909,4,2,22,72,0,0
38266,-100,4,2,22,72,0,0
40792,-111.111111111111,4,2,22,62,0,0
50898,-100,4,2,22,72,0,0
61003,-125,4,2,22,72,0,0
68582,-100,4,2,22,72,0,0
76161,-83.3333333333333,4,2,22,82,0,0
116582,-100,4,2,22,72,0,0
118477,-71.4285714285714,4,2,22,72,0,0
119108,-100,4,2,22,72,0,0
123529,-71.4285714285714,4,2,22,72,0,0
124160,-100,4,2,22,82,0,0
127792,-90.9090909090909,4,2,22,72,0,0

[Colours]
Combo1 : 95,20,250
Combo2 : 0,64,128
Combo3 : 18,124,255
Combo4 : 255,145,91

[HitObjects]
63,91,10003,6,0,L|56:21,2,58.4999982147217,2|2|2,0:0|0:0|0:0,0:0:0:0:
8,142,10477,2,0,L|501:106,1,467.999985717774,4|2,1:0|0:0,0:0:0:0:
493,263,12056,1,0,0:0:0:0:
493,263,12213,2,0,L|369:275,1,116.999996429443,2|2,0:0|0:0,0:0:0:0:
320,222,12687,1,2,0:0:0:0:
216,333,13003,6,0,P|236:229|38:189,1,350.99998928833,4|0,1:0|0:0,0:0:0:0:
30,335,14266,2,0,L|392:360,1,350.99998928833,4|0,1:2|0:0,0:0:0:0:
463,231,15529,2,0,B|507:146|435:73|435:73|348:110|376:222,1,350.99998928833,4|0,1:2|0:0,0:0:0:0:
376,222,16635,1,0,0:0:0:0:
319,272,16792,6,0,P|251:242|261:192,1,116.999996429443,4|0,1:2|0:0,0:0:0:0:
275,136,17266,2,0,P|215:179|176:146,1,116.999996429443
179,86,17740,2,0,L|192:12,1,58.4999982147217,2|0,0:0|0:0,0:0:0:0:
113,17,18056,6,0,L|297:34,1,175.499994644165,4|0,1:2|0:0,0:0:0:0:
275,108,18687,2,0,L|100:91,1,175.499994644165,4|0,1:2|0:0,0:0:0:0:
39,139,19319,2,0,L|57:222,1,58.4999982147217,4|0,1:2|0:0,0:0:0:0:
20,266,19635,2,0,L|38:349,1,58.4999982147217,4|0,1:2|0:0,0:0:0:0:
178,379,20108,5,2,0:0:0:0:
178,379,20266,2,0,L|188:301,1,58.4999982147217,2|2,0:0|0:0,0:0:0:0:
234,262,20582,6,0,P|298:255|330:314,1,130,4|8,1:0|0:0,0:0:0:0:
358,380,21056,1,2,0:0:0:0:
358,380,21213,2,0,P|397:346|398:319,1,65,0|2,1:0|0:0,0:0:0:0:
477,344,21529,2,0,P|467:293|444:278,1,65,8|2,0:0|0:0,0:0:0:0:
390,256,21845,6,0,L|369:123,1,130,0|8,1:0|0:0,0:0:0:0:
445,88,22319,2,0,L|431:8,1,65,2|0,0:0|1:0,1:0:0:0:
349,0,22635,2,0,L|371:131,1,130,2|2,0:0|0:0,0:0:0:0:
309,174,23108,6,0,P|252:172|241:98,1,130,4|8,1:2|0:0,0:0:0:0:
180,33,23582,1,2,0:0:0:0:
180,33,23740,2,0,L|262:17,1,65,0|2,1:0|0:2,0:0:0:0:
234,109,24056,2,0,L|161:126,1,65,8|2,0:0|0:0,0:0:0:0:
75,140,24371,6,0,P|131:162|134:230,1,130,0|8,1:2|0:0,0:0:0:0:
89,304,24845,2,0,P|136:266|196:297,1,130,2|2,0:0|0:0,0:0:0:0:
193,303,25240,1,2,0:0:0:0:
192,317,25319,2,0,L|279:330,1,65,10|2,0:0|0:0,0:0:0:0:
332,368,25635,6,0,B|340:312|340:312|330:288|330:288|338:223,1,130,4|8,1:2|0:0,0:0:0:0:
335,240,26108,1,2,0:0:0:0:
277,191,26266,2,0,P|258:151|266:113,1,65,0|2,1:2|0:0,0:0:0:0:
336,104,26582,2,0,P|355:144|347:182,1,65,8|2,0:0|0:0,0:0:0:0:
277,191,26898,2,0,L|121:179,1,130,0|8,1:2|0:0,0:0:0:0:
15,57,27529,5,0,1:2:0:0:
15,57,27687,2,0,P|54:50|90:126,1,130,2|2,0:0|0:0,0:0:0:0:
147,181,28161,2,0,P|172:150|170:108,1,65,4|2,1:2|0:0,0:0:0:0:
162,40,28477,2,0,L|250:49,1,65,8|2,0:0|0:0,0:0:0:0:
316,38,28792,2,0,P|274:46|272:138,1,130,0|8,1:2|0:0,0:0:0:0:
327,155,29266,1,2,0:0:0:0:
377,94,29424,5,0,1:2:0:0:
174,125,29740,1,8,0:0:0:0:
300,290,30056,1,0,1:2:0:0:
358,229,30213,5,2,3:2:0:0:
366,229,30292,1,0,3:0:0:0:
373,228,30371,2,0,P|401:275|398:312,1,65,8|2,0:0|0:0,0:0:0:0:
354,361,30687,2,0,L|212:336,1,130,4|8,1:0|0:0,0:0:0:0:
154,374,31161,1,2,0:0:0:0:
154,374,31319,2,0,L|144:299,1,65,0|2,1:0|0:0,0:0:0:0:
13,193,31792,5,2,0:0:0:0:
13,193,31950,2,0,P|52:183|86:257,1,130,0|8,1:0|0:0,0:0:0:0:
145,309,32424,1,2,0:0:0:0:
212,265,32582,2,0,L|221:182,3,71.5000021820069,8|8|8|8,0:0|0:0|0:0|0:0,0:0:0:0:
295,237,33213,6,0,P|350:205|331:124,1,130,4|8,1:2|0:0,0:0:0:0:
294,74,33687,1,2,0:0:0:0:
294,74,33845,2,0,L|373:56,1,65,0|2,1:0|0:0,0:0:0:0:
478,164,34319,5,2,0:0:0:0:
478,164,34477,2,0,L|322:140,1,130,0|8,1:0|0:0,0:0:0:0:
198,22,35108,1,2,1:2:0:0:
135,84,35266,1,0,3:0:0:0:
136,91,35345,1,0,3:0:0:0:
138,98,35424,2,0,L|146:170,1,65,8|2,0:0|0:0,0:0:0:0:
75,213,35740,2,0,P|140:203|174:268,1,130,4|8,1:2|0:0,0:0:0:0:
218,321,36213,1,2,0:0:0:0:
218,321,36371,2,0,L|136:329,1,65,0|2,1:0|0:0,0:0:0:0:
346,366,36845,5,2,0:0:0:0:
346,366,37003,2,0,P|311:327|342:238,1,130,0|8,1:0|0:0,0:0:0:0:
403,239,37477,1,2,0:0:0:0:
464,299,37635,2,0,L|419:366,3,71.5000021820069,8|8|8|8,0:0|0:0|0:0|0:0,0:0:0:0:
346,366,38266,5,0,1:0:0:0:
482,220,38582,6,0,L|492:134,1,65,8|2,0:0|0:0,0:0:0:0:
403,239,38898,2,0,L|413:153,1,65,0|2,1:0|0:0,0:0:0:0:
334,101,39213,6,0,L|324:187,1,65,8|2,0:0|0:0,0:0:0:0:
255,120,39529,2,0,L|245:206,1,65,0|2,1:0|0:0,0:0:0:0:
161,233,39845,6,0,L|171:147,1,65,8|2,0:0|0:0,0:0:0:0:
172,80,40161,2,0,L|92:114,1,65,0|2,1:0|0:0,0:0:0:0:
35,147,40477,2,0,L|104:198,1,65,8|2,0:0|0:0,0:0:0:0:
161,233,40792,6,0,P|110:277|117:345,1,116.999996429443,2|0,0:0|0:0,0:0:0:0:
168,368,41266,2,0,L|296:357,1,116.999996429443,2|0,0:0|0:0,0:0:0:0:
378,237,41898,2,0,L|388:168,1,58.4999982147217,2|0,0:0|0:0,0:0:0:0:
461,191,42213,2,0,L|452:248,1,58.4999982147217,2|0,0:0|0:0,0:0:0:0:
303,225,42687,2,0,L|313:156,3,58.4999982147217,2|2|2|2,0:0|0:0|0:0|0:0,0:0:0:0:
347,99,43319,6,0,P|289:89|245:126,1,116.999996429443,2|0,0:0|0:0,0:0:0:0:
187,75,43792,2,0,L|54:83,1,116.999996429443,2|0,0:0|0:0,0:0:0:0:
76,234,44424,2,0,L|152:230,1,58.4999982147217,2|0,0:0|0:0,0:0:0:0:
130,154,44740,2,0,L|71:156,1,58.4999982147217,2|0,0:0|0:0,0:0:0:0:
80,311,45213,2,0,L|156:307,3,58.4999982147217,2|2|2|2,0:0|0:0|0:0|0:0,0:0:0:0:
208,339,45845,6,0,P|248:280|302:293,1,116.999996429443,2|0,0:0|0:0,0:0:0:0:
342,335,46319,2,0,L|327:200,1,116.999996429443,2|0,0:0|0:0,0:0:0:0:
418,95,46950,2,0,L|498:90,1,58.4999982147217,2|0,0:0|0:0,0:0:0:0:
466,15,47266,2,0,L|407:18,1,58.4999982147217,2|0,0:0|0:0,0:0:0:0:
428,171,47740,2,0,L|508:166,3,58.4999982147217,2|2|2|2,0:0|0:0|0:0|0:0,0:0:0:0:
499,242,48371,6,0,P|448:270|442:338,1,116.999996429443,2|0,0:0|0:0,0:0:0:0:
364,334,48845,1,2,0:0:0:0:
364,334,49003,2,0,L|284:324,2,58.4999982147217,2|0|2,0:0|0:0|0:0,0:0:0:0:
214,363,49635,6,0,P|170:303|111:311,1,116.999996429443,2|2,0:0|0:0,0:0:0:0:
64,335,50108,1,0,0:0:0:0:
135,310,50266,1,2,0:0:0:0:
52,182,50582,1,8,0:0:0:0:
115,43,50898,6,0,L|188:56,1,65,4|2,1:2|0:0,0:0:0:0:
134,126,51213,2,0,L|207:139,1,65,8|2,0:0|0:0,0:0:0:0:
263,82,51529,1,0,1:0:0:0:
263,82,51687,2,0,P|230:138|253:202,1,130,2|2,0:0|0:0,0:0:0:0:
300,263,52161,1,0,1:0:0:0:
468,249,52477,1,8,0:0:0:0:
368,119,52792,1,0,1:0:0:0:
368,119,52950,2,0,L|360:47,1,65,2|8,0:0|0:0,0:0:0:0:
428,14,53266,1,2,0:0:0:0:
428,14,53424,6,0,P|498:45|496:94,1,130,4|8,1:2|0:0,0:0:0:0:
446,158,53898,1,2,0:0:0:0:
446,158,54056,2,0,L|429:296,1,130,0|8,1:2|0:0,0:0:0:0:
418,373,54529,1,2,0:0:0:0:
418,373,54687,6,0,L|497:363,1,65,0|2,1:2|0:0,0:0:0:0:
430,287,55003,2,0,L|509:277,1,65,8|2,0:0|0:0,0:0:0:0:
351,310,55319,1,0,1:2:0:0:
306,242,55477,1,2,0:0:0:0:
303,233,55556,1,2,0:0:0:0:
300,226,55635,2,0,P|259:205|224:218,1,65,8|2,0:0|0:0,0:0:0:0:
179,255,55950,6,0,B|110:277|118:213|45:237,1,130,4|8,1:2|0:0,0:0:0:0:
56,233,56424,1,2,0:0:0:0:
12,168,56582,1,0,1:2:0:0:
12,168,56740,2,0,P|28:118|104:106,1,130,2|2,0:0|0:0,0:0:0:0:
172,63,57213,2,0,L|181:151,2,65,0|2|8,1:2|0:0|0:0,0:0:0:0:
257,88,57687,1,2,0:0:0:0:
257,88,57845,2,0,P|309:143|375:117,1,130,0|8,1:2|0:0,0:0:0:0:
410,69,58319,5,2,0:0:0:0:
410,69,58477,2,0,L|401:206,1,130,0|8,1:2|0:0,0:0:0:0:
429,278,58950,2,0,P|477:278|500:192,2,130,2|2|2,0:0|0:0|0:0,0:0:0:0:
401,198,59740,6,0,L|310:207,1,65,0|2,1:2|0:0,0:0:0:0:
294,278,60056,2,0,L|203:287,1,65,8|2,0:0|0:0,0:0:0:0:
173,347,60371,2,0,L|183:188,1,130,0|8,1:0|0:0,0:0:0:0:
90,116,61003,6,0,P|56:72|84:22,1,104,4|8,1:2|0:0,0:0:0:0:
204,5,61635,2,0,P|238:49|210:99,1,104,0|8,1:2|0:0,0:0:0:0:
94,134,62266,2,0,L|24:125,2,52,2|0|8,1:2|0:0|0:0,0:0:0:0:
139,202,62740,2,0,P|95:231|94:296,1,104,2|0,0:0|0:0,0:0:0:0:
135,339,63213,1,10,0:0:0:0:
256,280,63529,6,0,L|384:290,1,104,2|8,1:2|0:0,0:0:0:0:
375,153,64161,2,0,L|271:144,1,104,0|8,1:0|0:0,0:0:0:0:
145,94,64792,2,0,P|173:29|218:26,1,104,2|8,1:2|0:0,0:0:0:0:
266,54,65266,2,0,L|336:47,1,52,2|2,0:0|0:0,0:0:0:0:
452,34,65740,1,8,0:0:0:0:
384,149,66056,6,0,B|368:206|368:206|396:248,1,104,4|8,1:2|0:0,0:0:0:0:
485,341,66687,2,0,B|501:284|501:284|473:242,1,104,0|8,1:0|0:0,0:0:0:0:
364,323,67319,2,0,L|245:306,1,104,2|8,1:2|0:0,0:0:0:0:
185,289,67792,1,2,0:0:0:0:
185,289,67950,2,0,L|191:350,2,52,0|0|10,1:0|1:0|0:0,0:0:0:0:
110,327,68424,1,0,1:0:0:0:
110,327,68582,6,0,P|69:280|92:220,1,130,2|8,1:2|0:0,0:0:0:0:
158,178,69056,1,0,0:0:0:0:
158,178,69213,2,0,L|146:105,1,65,2|0,1:2|0:0,0:0:0:0:
313,154,69687,1,0,0:0:0:0:
313,154,69845,2,0,L|301:81,1,65,2|0,1:2|0:0,0:0:0:0:
382,72,70161,2,0,L|392:136,1,65,8|0,0:0|1:2,0:0:0:0:
474,162,70477,2,0,P|420:174|403:250,1,130,2|8,1:2|0:0,0:0:0:0:
453,305,70950,1,0,1:2:0:0:
512,249,71108,5,4,1:2:0:0:
162,310,71740,1,4,1:2:0:0:
512,368,72371,1,4,1:2:0:0:
256,192,73003,5,12,1:2:0:0:
264,280,73161,1,0,3:0:0:0:
264,280,73477,5,0,3:0:0:0:
256,192,73635,2,0,P|224:136|143:133,1,130,4|0,1:0|1:0,0:0:0:0:
132,291,74266,2,0,P|164:347|245:350,1,130,4|0,1:0|1:0,0:0:0:0:
264,280,74740,1,0,0:0:0:0:
333,232,74898,2,0,L|418:226,1,65,4|2,1:0|0:0,0:0:0:0:
372,308,75213,2,0,L|457:302,1,65,4|2,1:0|0:0,0:0:0:0:
489,213,75529,1,4,1:0:0:0:
489,213,75687,2,0,L|499:130,2,65
512,306,76161,6,0,P|474:238|392:241,1,155.999995239258,4|8,1:0|0:0,0:0:0:0:
334,284,76635,1,2,0:0:0:0:
266,336,76792,1,0,1:0:0:0:
266,336,76950,2,0,P|246:298|281:181,1,155.999995239258,2|2,0:0|0:0,0:0:0:0:
219,111,77424,2,0,L|318:102,1,77.999997619629,0|2,1:0|0:0,0:0:0:0:
362,164,77740,1,8,0:0:0:0:
362,164,77898,2,0,P|335:86|370:-5,1,155.999995239258,2|2,0:0|0:0,0:0:0:0:
436,38,78371,2,0,L|524:55,1,77.999997619629,8|2,0:0|0:0,0:0:0:0:
488,138,78687,6,0,B|482:177|482:177|501:230,1,77.999997619629,4|2,1:2|0:0,0:0:0:0:
512,299,79003,2,0,L|417:287,1,77.999997619629,8|2,0:0|0:0,0:0:0:0:
382,216,79319,1,0,1:0:0:0:
382,216,79477,1,2,0:0:0:0:
298,231,79635,2,0,L|207:244,1,77.999997619629,8|2,0:0|0:0,0:0:0:0:
218,337,79950,6,0,P|197:269|110:238,1,155.999995239258,0|8,1:0|0:0,0:0:0:0:
36,269,80424,2,0,L|50:158,1,77.999997619629,2|0,0:0|1:0,0:0:0:0:
8,114,80740,1,2,3:2:0:0:
8,114,80819,1,0,3:0:0:0:
8,114,80898,1,8,0:0:0:0:
74,53,81056,6,0,B|153:61|123:120|225:129,1,155.999995239258,2|2,0:0|0:0,0:0:0:0:
342,140,81529,2,0,B|263:148|293:207|191:216,1,155.999995239258,8|0,0:0|1:0,0:0:0:0:
124,207,82003,1,2,0:0:0:0:
124,207,82161,2,0,P|118:251|148:291,1,77.999997619629,8|2,0:0|0:0,0:0:0:0:
204,340,82477,6,0,P|154:308|47:338,1,155.999995239258,0|8,1:0|0:0,0:0:0:0:
204,340,82950,2,0,P|236:290|206:183,1,155.999995239258,2|2,0:0|0:0,0:0:0:0:
204,340,83424,2,0,P|235:372|277:384,1,77.999997619629,8|2,0:0|0:0,0:0:0:0:
340,337,83740,6,0,L|512:321,1,155.999995239258,4|8,1:2|0:0,0:0:0:0:
434,232,84213,2,0,L|527:242,1,77.999997619629,2|0,0:0|1:0,0:0:0:0:
486,154,84529,1,2,0:0:0:0:
486,154,84687,1,8,0:0:0:0:
453,78,84845,2,0,B|458:114|458:114|430:249,1,155.999995239258,2|2,0:0|0:0,0:0:0:0:
374,122,85319,2,0,L|362:34,1,77.999997619629,8|2,0:0|0:0,0:0:0:0:
435,0,85635,1,0,1:0:0:0:
435,0,86266,6,0,L|341:17,1,77.999997619629,4|2,1:0|0:0,0:0:0:0:
286,76,86582,2,0,L|269:-18,1,77.999997619629,8|2,0:0|0:0,0:0:0:0:
201,53,86898,1,0,1:0:0:0:
201,53,87056,1,2,0:0:0:0:
121,71,87213,2,0,L|27:88,1,77.999997619629,8|2,0:0|0:0,0:0:0:0:
88,163,87529,6,0,L|79:252,2,77.999997619629,0|2|8,1:0|0:0|0:0,0:0:0:0:
174,162,88003,2,0,L|250:148,1,77.999997619629,2|0,0:0|1:0,0:0:0:0:
208,297,88319,2,0,P|174:253|62:248,1,155.999995239258,2|2,0:0|0:0,0:0:0:0:
0,267,88792,6,0,L|11:174,1,77.999997619629,4|2,1:2|0:0,0:0:0:0:
18,106,89108,2,0,L|111:117,1,77.999997619629,8|2,0:0|0:0,0:0:0:0:
175,123,89424,1,0,1:0:0:0:
175,123,89582,1,2,0:0:0:0:
255,137,89740,2,0,L|266:44,1,77.999997619629,8|2,0:0|0:0,0:0:0:0:
334,0,90056,6,0,P|392:5|432:107,1,155.999995239258,0|8,1:0|0:0,0:0:0:0:
479,160,90529,2,0,L|402:178,1,77.999997619629,2|0,0:0|1:0,0:0:0:0:
391,259,90845,2,0,B|308:235|360:180|233:169,1,155.999995239258,2|2,3:2|0:0,0:0:0:0:
200,252,91319,6,0,L|32:279,2,155.999995239258,4|8|0,1:2|0:0|1:0,0:0:0:0:
200,252,92108,1,2,0:0:0:0:
245,179,92266,2,0,L|260:75,1,77.999997619629,8|2,0:0|0:0,0:0:0:0:
256,101,92582,6,0,L|99:58,2,155.999995239258,0|8|0,1:0|0:0|1:0,0:0:0:0:
315,24,93371,2,0,P|348:11|408:4,1,77.999997619629,2|8,0:0|0:0,0:0:0:0:
467,86,93687,1,2,0:0:0:0:
467,86,93845,6,0,B|193:41|313:390|21:355,1,545.999983337403,2|2,1:2|0:2,0:0:0:0:
45,357,95108,6,0,B|53:318|53:318|38:262,1,77.999997619629,0|2,1:0|0:0,0:0:0:0:
0,200,95424,2,0,L|103:209,1,77.999997619629,8|2,0:0|0:0,0:0:0:0:
159,213,95740,1,0,1:0:0:0:
245,223,95898,1,2,3:2:0:0:
245,223,95977,1,0,3:0:0:0:
245,223,96056,2,0,L|348:232,1,77.999997619629,8|2,0:0|0:0,0:0:0:0:
363,300,96371,6,0,P|359:232|389:132,1,155.999995239258,4|8,1:2|0:2,0:0:0:0:
381,147,97003,2,0,P|315:129|229:70,1,155.999995239258,0|8,1:2|0:2,0:0:0:0:
241,82,97635,2,0,P|204:139|121:202,1,155.999995239258,0|8,1:2|0:2,0:0:0:0:
136,194,98266,1,0,1:0:0:0:
205,247,98424,2,0,P|221:285|220:327,1,77.999997619629,0|8,1:0|0:0,0:0:0:0:
173,384,98740,1,0,1:0:0:0:
173,384,98898,6,0,L|17:355,1,155.999995239258,4|8,1:2|0:2,0:0:0:0:
19,355,99529,2,0,L|48:199,1,155.999995239258,0|8,1:2|0:2,0:0:0:0:
47,201,100161,2,0,L|203:230,1,155.999995239258,0|8,1:2|0:2,0:0:0:0:
200,229,100792,1,0,1:0:0:0:
259,138,100950,2,0,L|268:198,2,38.9999988098145,0|0|8,1:0|1:0|0:0,0:0:0:0:
336,225,101266,6,0,L|182:196,1,155.999995239258,0|2,1:0|0:0,0:0:0:0:
97,204,101740,2,0,P|91:155|102:116,1,77.999997619629,8|2,0:0|0:0,0:0:0:0:
162,73,102056,1,0,1:2:0:0:
162,73,102213,1,2,0:0:0:0:
107,8,102371,2,0,L|29:22,1,77.999997619629,8|2,0:0|0:0,0:0:0:0:
20,100,102687,6,0,P|7:156|37:268,1,155.999995239258,0|8,1:2|0:0,0:0:0:0:
26,250,103319,1,0,1:2:0:0:
104,276,103477,1,2,0:0:0:0:
171,230,103635,1,8,0:0:0:0:
202,153,103792,6,0,L|217:317,1,155.999995239258,2|2,0:0|0:0,0:0:0:0:
224,384,104266,1,8,0:0:0:0:
256,192,104424,12,0,105845,1:2:0:0:
438,51,106477,6,0,P|371:51|290:98,1,155.999995239258,4|8,1:2|0:2,0:0:0:0:
294,93,107108,2,0,P|260:151|260:244,1,155.999995239258,0|8,1:2|0:2,0:0:0:0:
258,238,107740,2,0,P|291:296|372:342,1,155.999995239258,0|8,1:2|0:2,0:0:0:0:
366,341,108371,1,0,1:0:0:0:
445,355,108529,2,0,P|491:337|525:292,1,77.999997619629,0|8,1:0|0:0,0:0:0:0:
470,242,108845,1,0,1:0:0:0:
470,242,109003,6,0,L|301:225,1,155.999995239258,4|8,1:2|0:2,0:0:0:0:
314,226,109635,2,0,L|297:395,1,155.999995239258,0|8,1:2|0:2,0:0:0:0:
298,381,110266,2,0,L|129:364,1,155.999995239258,0|8,1:2|0:2,0:0:0:0:
142,365,110898,1,0,1:0:0:0:
64,326,111056,1,0,1:0:0:0:
60,345,111134,1,0,1:0:0:0:
57,364,111213,1,8,0:0:0:0:
144,285,111371,6,0,B|153:251|153:251|126:103,1,155.999995239258,2|2,1:2|0:0,0:0:0:0:
91,47,111845,2,0,L|194:60,1,77.999997619629,8|2,0:0|0:0,0:0:0:0:
242,109,112161,2,0,P|257:71|251:24,1,77.999997619629,0|2,1:2|0:0,0:0:0:0:
254,34,112477,2,0,L|357:47,1,77.999997619629,8|2,0:0|0:0,0:0:0:0:
373,110,112792,6,0,P|412:77|526:58,1,155.999995239258,0|8,1:2|0:0,0:0:0:0:
512,55,113424,1,0,1:2:0:0:
509,133,113582,1,2,0:0:0:0:
502,209,113740,1,8,0:0:0:0:
496,286,113898,1,2,0:0:0:0:
496,364,114056,6,0,L|410:383,1,77.999997619629,6|2,1:2|0:0,0:0:0:0:
397,309,114371,2,0,L|378:223,1,77.999997619629,10|2,0:0|0:0,0:0:0:0:
305,248,114687,6,0,L|219:267,1,77.999997619629,2|2,1:2|0:0,0:0:0:0:
206,193,115003,2,0,L|187:107,1,77.999997619629,10|2,0:2|0:0,0:0:0:0:
115,135,115319,6,0,L|29:154,1,77.999997619629,2|2,1:2|0:0,0:0:0:0:
16,80,115634,2,0,L|-3:-6,1,77.999997619629,10|2,0:0|0:0,0:0:0:0:
94,30,115950,5,2,1:2:0:0:
158,102,116108,1,2,3:2:0:0:
158,102,116187,1,0,3:2:0:0:
158,102,116266,2,0,B|163:141|163:141|148:184,1,77.999997619629,10|2,0:0|0:0,0:0:0:0:
67,238,116582,6,0,L|214:266,1,130,4|8,1:0|0:0,0:0:0:0:
263,308,117056,1,2,0:0:0:0:
334,345,117213,1,0,1:0:0:0:
334,345,117371,2,0,L|415:328,1,65,2|8,0:0|0:0,0:0:0:0:
508,272,117687,2,0,P|479:226|392:219,1,130,2|2,0:0|0:0,0:0:0:0:
332,191,118161,2,0,L|321:113,1,65,8|2,0:0|0:0,0:0:0:0:
302,267,118477,6,0,L|275:363,3,90.9999972229005,8|8|8|8,0:0|0:0|0:0|0:0,0:0:0:0:
210,273,119108,6,0,P|148:231|69:251,1,130,4|8,1:2|0:0,0:0:0:0:
30,285,119582,1,2,0:0:0:0:
0,378,119740,1,0,1:0:0:0:
0,378,119898,2,0,L|86:366,1,65,2|8,0:0|0:0,0:0:0:0:
144,383,120213,6,0,P|131:310|141:246,1,130,2|2,0:0|0:0,0:0:0:0:
219,273,120687,2,0,L|227:187,1,65,8|2,0:0|0:0,0:0:0:0:
240,123,121003,2,0,P|211:121|165:143,1,65,2|0,1:2|3:0,0:0:0:0:
158,157,121240,1,0,3:0:0:0:
158,157,121319,2,0,L|78:166,1,65,8|2,0:0|0:0,0:0:0:0:
17,132,121635,6,0,P|10:75|74:23,1,130,4|8,1:2|0:0,0:0:0:0:
134,48,122108,1,2,0:0:0:0:
211,77,122266,1,0,1:0:0:0:
211,77,122424,2,0,P|226:35|226:5,1,65,2|8,0:0|0:0,0:0:0:0:
305,40,122740,2,0,L|449:28,1,130,2|2,0:0|0:0,0:0:0:0:
434,29,123213,2,0,P|451:76|451:108,1,65,8|2,0:0|0:0,0:0:0:0:
406,163,123529,6,0,L|510:192,3,90.9999972229005,8|8|8|8,0:0|0:0|0:0|0:0,0:0:0:0:
512,276,124161,6,0,P|499:324|411:340,1,130,0|8,1:0|0:0,0:0:0:0:
348,363,124635,1,2,0:0:0:0:
348,363,124792,2,0,L|341:281,1,65,0|2,1:0|0:0,0:0:0:0:
338,212,125108,1,8,0:0:0:0:
338,212,125266,1,2,0:0:0:0:
260,220,125424,2,0,L|253:302,1,65,0|2,1:0|0:0,0:0:0:0:
175,377,125740,2,0,L|168:295,1,65,8|2,0:0|0:0,0:0:0:0:
101,185,126056,2,0,L|94:267,1,65,0|0,1:0|3:0,0:0:0:0:
95,249,126292,1,0,3:0:0:0:
95,249,126371,1,0,3:0:0:0:
36,314,126529,1,2,0:0:0:0:
36,314,127792,6,0,L|278:293,1,214.500006546021,14|14,0:0|0:0,0:0:0:0:
338,379,128582,1,12,0:0:0:0:
398,325,128740,1,2,1:2:0:0:
398,325,128898,1,0,1:2:0:0:
470,365,129056,1,12,0:0:0:0:
256,192,129213,12,0,130477,0:0:0:0:
