osu file format v14

[General]
AudioFilename: chochocho.mp3
AudioLeadIn: 0
PreviewTime: 49676
Countdown: 1
SampleSet: Soft
StackLeniency: 0.7
Mode: 0
LetterboxInBreaks: 0
WidescreenStoryboard: 0

[Editor]
DistanceSpacing: 0.7
BeatDivisor: 4
GridSize: 4
TimelineZoom: 2.1

[Metadata]
Title:Chochocho! YuruYuri * Capriccio!!!
TitleUnicode:ゆるゆり さん☆ハイ!
Artist:Nanamori-chu * Goraku-bu
ArtistUnicode:七森中☆ごらく部
Creator:Lufu
Version:fuck chinatsu
Source:ゆるゆり
Tags:三上枝織 大坪由佳 津田美波 大久保瑠美 mikami shiori otsubo yuka tsuda minami okubo rumi 赤座あかり akaza akari 歳納京子 toshino kyoko 船見結衣 funami
BeatmapID:1043654
BeatmapSetID:478595

[Difficulty]
HPDrainRate:6
CircleSize:4
OverallDifficulty:8
ApproachRate:9
SliderMultiplier:1.8
SliderTickRate:1

[Events]
//Background and Video events
0,0,"bg.jpg",0,0
//Break Periods
//Storyboard Layer 0 (Background)
//Storyboard Layer 1 (Fail)
//Storyboard Layer 2 (Pass)
//Storyboard Layer 3 (Foreground)
//Storyboard Sound Samples

[TimingPoints]
98,315.789473684211,4,2,0,60,1,0
729,-90.9090909090909,4,2,0,60,0,0
6413,-125,4,2,0,60,0,0
9571,-90.9090909090909,4,2,0,60,0,0
11466,-125,4,2,0,60,0,0
12571,-100,4,2,0,60,0,0
43045,-142.857142857143,4,2,0,60,0,0
48098,-100,4,2,0,60,0,0
53150,-83.3333333333333,4,2,0,60,0,1
72729,-100,4,2,0,60,0,0

[HitObjects]
256,192,729,12,8,2308,0:0:0:0:
324,256,2625,5,0,0:0:0:0:
354,267,2730,1,0,0:0:0:0:
385,279,2835,1,0,0:0:0:0:
416,290,2940,1,2,0:0:0:0:
464,104,3255,5,0,0:0:0:0:
433,115,3362,1,0,0:0:0:0:
402,127,3467,1,0,0:0:0:0:
371,138,3572,1,2,0:0:0:0:
192,200,3888,5,0,0:0:0:0:
164,188,3993,1,0,0:0:0:0:
131,172,4098,1,0,0:0:0:0:
102,158,4203,1,2,0:0:0:0:
288,152,4520,6,0,P|300:216|228:316,1,148.50000453186,2|0,0:0|0:0,0:0:0:0:
240,308,4834,1,8,0:0:0:0:
102,158,5151,5,0,0:0:0:0:
131,143,5256,1,0,0:0:0:0:
163,134,5361,1,0,0:0:0:0:
196,130,5466,1,2,0:0:0:0:
400,84,5783,5,0,0:0:0:0:
371,69,5888,1,0,0:0:0:0:
339,60,5993,1,0,0:0:0:0:
306,56,6098,1,2,0:0:0:0:
196,130,6413,6,2,P|184:196|208:240,2,108
296,324,7045,2,2,P|314:274|300:222,2,108
480,308,7676,5,0,0:0:0:0:
447,316,7782,1,0,0:0:0:0:
415,324,7887,1,0,0:0:0:0:
383,332,7992,1,2,0:0:0:0:
140,296,8309,5,0,0:0:0:0:
172,287,8414,1,0,0:0:0:0:
204,279,8519,1,0,0:0:0:0:
236,271,8624,1,2,0:0:0:0:
408,140,8940,5,0,0:0:0:0:
375,148,9045,1,0,0:0:0:0:
343,156,9150,1,0,0:0:0:0:
311,164,9255,1,2,0:0:0:0:
480,72,9572,6,0,P|504:152|464:224,1,148.50000453186,2|0,0:0|0:0,0:0:0:0:
452,228,9888,1,8,0:0:0:0:
284,316,10203,5,0,0:0:0:0:
284,316,10308,1,0,0:0:0:0:
284,316,10414,1,0,0:0:0:0:
284,316,10519,1,2,0:0:0:0:
128,220,10835,5,0,0:0:0:0:
128,220,10940,1,0,0:0:0:0:
128,220,11045,1,0,0:0:0:0:
128,220,11151,1,2,0:0:0:0:
276,140,11466,6,2,P|264:84|280:36,2,108
336,280,12098,1,2,0:0:0:0:
336,280,12572,6,0,B|296:272|296:272|232:316|164:272,1,180,4|0,0:0|0:0,0:0:0:0:
48,156,13045,2,0,P|96:148|152:160,1,90,8|0,0:0|0:0,0:0:0:0:
284,192,13361,2,0,P|336:200|392:180,1,90
508,124,13677,1,8,0:0:0:0:
496,280,13835,1,0,0:0:0:0:
496,280,13993,1,0,0:0:0:0:
371,191,14151,1,0,0:0:0:0:
304,320,14308,6,0,P|256:328|188:312,1,90,8|0,0:0|0:0,0:0:0:0:
84,238,14624,1,0,0:0:0:0:
169,109,14782,1,0,0:0:0:0:
297,193,14940,1,8,0:0:0:0:
220,60,15098,2,0,P|136:44|100:120,1,180,4|0,0:0|0:0,0:0:0:0:
207,206,15572,6,0,L|315:190,1,90,8|0,0:0|0:0,0:0:0:0:
400,312,15887,2,0,L|310:325,1,90
152,348,16203,1,8,0:0:0:0:
207,206,16361,1,0,0:0:0:0:
368,236,16519,2,0,P|380:192|352:132,1,90
252,48,16835,1,8,0:0:0:0:
148,160,16992,2,0,P|140:244|224:280,1,180,0|2,0:0|0:0,0:0:0:0:
425,58,17624,6,0,B|338:15|338:91|242:43,1,180,4|0,0:0|0:0,0:0:0:0:
36,24,18098,2,0,L|132:24,1,90,8|0,0:0|0:0,0:0:0:0:
232,148,18414,2,0,L|142:148,1,90
36,280,18730,2,0,L|132:280,1,90,8|0,0:0|0:0,0:0:0:0:
296,280,19045,1,0,0:0:0:0:
404,168,19203,1,0,0:0:0:0:
404,168,19361,2,0,P|356:172|308:168,1,90,8|0,0:0|0:0,0:0:0:0:
92,100,19677,1,0,0:0:0:0:
92,100,19835,2,0,P|140:96|188:100,1,90,0|8,0:0|0:0,0:0:0:0:
314,168,20150,1,4,0:0:0:0:
256,192,20229,12,0,21412,0:0:0:0:
297,206,21572,5,2,0:0:0:0:
297,206,21730,1,2,0:0:0:0:
140,56,22045,1,2,0:0:0:0:
72,268,22361,1,2,0:0:0:0:
250,108,22676,6,0,P|300:100|356:116,1,90,0|4,0:0|0:0,0:0:0:0:
480,188,22993,1,0,0:0:0:0:
480,188,23071,1,0,0:0:0:0:
480,188,23151,1,8,0:0:0:0:
376,304,23308,1,0,0:0:0:0:
220,320,23466,2,0,L|120:328,1,90
207,213,23782,2,0,L|296:205,1,90,8|0,0:0|0:0,0:0:0:0:
404,136,24098,5,0,0:0:0:0:
324,32,24256,1,0,0:0:0:0:
324,32,24335,1,0,0:0:0:0:
324,32,24414,1,8,0:0:0:0:
196,72,24572,1,0,0:0:0:0:
140,260,24730,1,0,0:0:0:0:
28,104,24887,1,0,0:0:0:0:
216,156,25045,1,8,0:0:0:0:
40,236,25203,1,0,0:0:0:0:
228,288,25361,5,2,0:0:0:0:
228,288,25519,1,0,0:0:0:0:
412,236,25677,1,2,0:0:0:0:
412,236,25835,1,0,0:0:0:0:
216,156,25993,2,0,L|264:72,2,90,2|0|0,0:0|0:0|0:0,0:0:0:0:
124,304,26466,1,0,0:0:0:0:
112,120,26624,1,2,0:0:0:0:
228,288,26782,2,0,P|304:320|380:272,1,180,2|0,0:0|0:0,0:0:0:0:
450,104,27255,2,0,P|384:88|308:109,1,135,2|0,0:0|0:0,0:0:0:0:
280,124,27572,2,0,L|264:240,1,90,2|0,0:0|0:0,0:0:0:0:
244,356,27887,5,4,0:0:0:0:
368,328,28045,1,0,0:0:0:0:
368,328,28124,1,0,0:0:0:0:
368,328,28203,1,8,0:0:0:0:
396,204,28361,1,0,0:0:0:0:
268,212,28519,2,0,L|144:220,1,90
112,120,28835,2,0,L|201:114,1,90,8|0,0:0|0:0,0:0:0:0:
348,100,29151,5,0,0:0:0:0:
464,196,29308,1,0,0:0:0:0:
464,196,29387,1,0,0:0:0:0:
464,196,29466,1,8,0:0:0:0:
373,301,29624,1,0,0:0:0:0:
258,109,29782,1,0,0:0:0:0:
236,330,29940,1,0,0:0:0:0:
384,164,30098,1,8,0:0:0:0:
165,212,30256,1,0,0:0:0:0:
240,36,30414,5,2,0:0:0:0:
240,36,30572,1,2,0:0:0:0:
240,36,30730,2,0,P|284:28|336:40,1,90,4|0,0:0|0:0,0:0:0:0:
392,172,31045,5,2,0:0:0:0:
392,172,31203,1,2,0:0:0:0:
392,172,31361,2,0,P|344:188|292:184,1,90,4|0,0:0|0:0,0:0:0:0:
88,208,31677,5,2,0:0:0:0:
88,208,31835,1,2,0:0:0:0:
88,208,31993,2,0,P|136:216|180:208,1,90,4|0,0:0|0:0,0:0:0:0:
288,104,32308,2,0,P|336:96|376:104,1,90,4|0,0:0|0:0,0:0:0:0:
448,244,32624,2,0,P|400:260|336:260,1,90,4|0,0:0|0:0,0:0:0:0:
324,252,32861,1,0,0:0:0:0:
292,240,32940,6,0,P|244:236|180:256,1,90,4|0,0:0|0:0,0:0:0:0:
72,296,33255,2,0,L|132:288,1,45,8|0,0:0|0:0,0:0:0:0:
56,212,33414,2,0,L|0:220,1,45
40,124,33572,2,0,P|128:80|224:124,1,180,0|8,0:0|0:0,0:0:0:0:
316,176,34045,1,0,0:0:0:0:
424,104,34203,6,0,L|416:212,1,90
354,352,34519,2,0,L|360:262,1,90,8|0,0:0|0:0,0:0:0:0:
360,262,34756,1,0,0:0:0:0:
360,262,34835,1,0,0:0:0:0:
306,79,34993,1,0,2:0:0:0:
174,215,35151,1,8,2:0:0:0:
368,268,35308,1,0,2:0:0:0:
306,79,35466,6,0,L|208:72,1,90,2|0,0:0|0:0,0:0:0:0:
84,208,35782,2,0,L|173:214,1,90,2|0,0:0|0:0,0:0:0:0:
352,164,36098,2,0,P|384:132|400:80,2,90,2|0|0,0:0|0:0|0:0,0:0:0:0:
228,268,36572,1,0,0:0:0:0:
352,164,36730,1,2,0:0:0:0:
173,214,36887,2,0,P|152:280|228:348,1,180,2|0,0:0|0:0,0:0:0:0:
392,340,37361,2,0,B|429:290|376:272|414:209,1,135,2|0,0:0|0:0,0:0:0:0:
436,184,37677,2,0,P|452:136|436:76,1,90,2|0,0:0|0:0,0:0:0:0:
428,68,37914,1,0,0:0:0:0:
396,52,37993,6,0,L|292:52,1,90,4|0,0:0|0:0,0:0:0:0:
176,52,38308,1,8,0:0:0:0:
272,144,38466,1,0,0:0:0:0:
148,176,38624,2,0,L|32:204,1,90
24,320,38940,2,0,L|111:298,1,90,8|0,0:0|0:0,0:0:0:0:
240,268,39256,1,0,0:0:0:0:
352,348,39414,1,0,0:0:0:0:
352,348,39493,1,0,0:0:0:0:
352,348,39572,5,8,0:0:0:0:
408,160,39730,1,0,0:0:0:0:
492,328,39887,1,0,0:0:0:0:
336,224,40045,1,0,0:0:0:0:
480,92,40203,1,8,0:0:0:0:
304,36,40361,1,0,0:0:0:0:
240,268,40519,5,2,0:0:0:0:
240,268,40677,1,2,0:0:0:0:
240,268,40835,2,0,P|188:272|136:264,1,90,4|0,0:0|0:0,0:0:0:0:
68,124,41151,5,2,0:0:0:0:
68,124,41308,1,2,0:0:0:0:
68,124,41466,2,0,P|112:120|164:124,1,90,4|0,0:0|0:0,0:0:0:0:
324,144,41782,5,2,0:0:0:0:
324,144,41940,1,2,0:0:0:0:
324,144,42098,2,0,P|368:148|416:144,1,90,4|0,0:0|0:0,0:0:0:0:
376,296,42414,5,2,0:0:0:0:
376,296,42572,1,0,0:0:0:0:
260,196,42730,1,2,0:0:0:0:
180,324,42887,1,0,0:0:0:0:
68,124,43045,6,0,B|136:112|184:76|184:76|248:80|312:56,1,251.999992309571,4|8,0:0|0:0,0:0:0:0:
444,88,43835,2,0,P|472:144|432:208,2,125.999996154785
332,160,44624,2,0,L|324:288,1,125.999996154785,0|8,0:0|0:0,0:0:0:0:
204,332,45256,5,0,0:0:0:0:
204,332,45414,1,0,0:0:0:0:
204,332,45572,2,0,B|132:204|256:204|188:88,1,251.999992309571,4|8,0:0|0:0,0:0:0:0:
88,28,46361,2,0,P|68:88|88:156,2,125.999996154785
212,24,47151,1,0,0:0:0:0:
264,232,47466,2,0,P|328:248|396:216,1,125.999996154785,8|0,0:0|0:0,0:0:0:0:
464,132,47940,1,0,0:0:0:0:
264,156,48098,6,6,P|196:196|200:268,2,135
416,48,48730,2,6,L|272:68,1,135
40,152,49203,2,6,L|168:136,1,90
129,140,49677,5,4,0:0:0:0:
320,248,49835,1,0,0:0:0:0:
104,252,49993,1,8,0:0:0:0:
296,144,50151,1,0,0:0:0:0:
296,144,50230,1,0,0:0:0:0:
296,144,50308,1,0,0:0:0:0:
264,324,50466,2,0,P|360:332|412:260,1,180,4|0,0:0|0:0,0:0:0:0:
388,84,50940,5,2,0:0:0:0:
388,84,51098,1,0,0:0:0:0:
236,204,51256,1,2,0:0:0:0:
236,204,51414,1,0,0:0:0:0:
88,84,51572,1,2,0:0:0:0:
88,84,51730,1,0,0:0:0:0:
420,184,51887,6,0,L|416:256,3,45
428,112,52203,2,0,L|456:148,3,45
388,84,52519,5,2,0:0:0:0:
343,76,52597,1,0,0:0:0:0:
299,82,52676,1,0,0:0:0:0:
259,102,52755,1,0,0:0:0:0:
227,133,52834,1,8,0:0:0:0:
185,148,52914,1,0,0:0:0:0:
140,151,52993,1,0,0:0:0:0:
96,141,53072,1,0,0:0:0:0:
57,120,53151,6,0,P|48:216|84:256,1,107.999996704102,4|0,0:0|0:0,0:0:0:0:
225,353,53466,2,0,P|243:298|225:249,1,107.999996704102,8|0,0:0|0:0,0:0:0:0:
209,229,53703,1,0,0:0:0:0:
209,229,53782,2,0,L|333:189,1,107.999996704102
504,132,54098,1,8,0:0:0:0:
480,312,54255,1,0,0:0:0:0:
380,148,54413,6,0,P|332:116|280:124,1,107.999996704102,0|0,2:0|2:0,2:0:0:0:
128,196,54729,1,8,0:0:0:0:
204,24,54887,1,0,0:0:0:0:
312,196,55045,1,0,0:0:0:0:
178,338,55203,1,0,0:0:0:0:
350,262,55361,1,8,0:0:0:0:
154,267,55519,1,0,0:0:0:0:
448,305,55676,6,0,P|458:252|438:196,1,107.999996704102,4|0,0:0|0:0,0:0:0:0:
418,180,55913,1,0,0:0:0:0:
418,180,55992,2,0,L|311:195,1,107.999996704102,8|0,0:0|0:0,0:0:0:0:
108,140,56308,2,0,L|214:124,1,107.999996704102
418,20,56624,2,0,L|311:35,1,107.999996704102,8|0,0:0|0:0,0:0:0:0:
235,315,56940,5,0,0:0:0:0:
214,123,57098,1,0,0:0:0:0:
343,266,57255,1,8,0:0:0:0:
155,226,57413,1,0,0:0:0:0:
331,148,57571,1,0,0:0:0:0:
160,300,57729,1,0,0:0:0:0:
284,92,57887,1,8,0:0:0:0:
308,332,58045,1,0,0:0:0:0:
144,152,58203,6,0,P|132:96|148:44,1,107.999996704102,4|0,0:0|0:0,0:0:0:0:
145,48,58440,1,0,0:0:0:0:
145,48,58519,1,8,0:0:0:0:
220,228,58676,1,0,0:0:0:0:
376,56,58992,1,2,0:0:0:0:
376,56,59150,1,2,0:0:0:0:
392,276,59308,5,0,0:0:0:0:
392,276,59466,2,0,P|336:288|284:272,1,107.999996704102,4|0,0:0|0:0,0:0:0:0:
288,275,59703,1,0,0:0:0:0:
288,275,59782,1,8,0:0:0:0:
468,200,59939,1,0,0:0:0:0:
264,116,60255,1,2,0:0:0:0:
264,116,60413,1,2,0:0:0:0:
128,232,60571,5,0,0:0:0:0:
128,232,60729,2,0,P|184:248|236:228,1,107.999996704102
444,156,61045,2,0,L|332:160,1,107.999996704102,4|0,0:0|0:0,0:0:0:0:
184,164,61361,1,0,0:0:0:0:
276,308,61519,1,0,0:0:0:0:
264,116,61676,1,6,0:0:0:0:
445,250,61834,6,0,B|437:318|373:324|373:324|331:297|271:308,1,215.999993408203,4|0,0:0|0:0,0:0:0:0:
60,248,62308,2,2,L|168:236,1,107.999996704102
264,116,62624,1,2,0:0:0:0:
267,100,62703,1,0,0:0:0:0:
270,84,62782,1,0,0:0:0:0:
273,68,62861,1,0,0:0:0:0:
276,53,62940,2,0,P|328:36|380:52,1,107.999996704102,8|0,0:0|0:0,0:0:0:0:
492,208,63255,6,0,P|440:222|390:205,1,107.999996704102,4|0,0:0|0:0,0:0:0:0:
368,184,63492,1,0,0:0:0:0:
368,184,63571,2,0,L|280:264,1,107.999996704102,8|0,0:0|0:0,0:0:0:0:
172,364,63887,1,0,0:0:0:0:
224,180,64045,1,0,0:0:0:0:
348,332,64203,1,8,0:0:0:0:
136,262,64361,1,0,0:0:0:0:
312,96,64519,6,0,L|420:88,1,107.999996704102
224,180,64834,2,0,L|116:188,1,107.999996704102,8|0,0:0|0:0,0:0:0:0:
316,236,65150,1,0,0:0:0:0:
492,152,65308,1,0,0:0:0:0:
393,286,65466,1,8,0:0:0:0:
419,88,65624,1,0,0:0:0:0:
480,296,65782,6,0,P|456:348|408:376,1,107.999996704102,4|0,0:0|0:0,0:0:0:0:
260,324,66098,2,0,P|208:312|152:328,1,107.999996704102,8|0,0:0|0:0,0:0:0:0:
128,340,66334,1,0,0:0:0:0:
128,340,66413,2,0,L|112:216,1,107.999996704102
224,48,66729,2,0,L|237:155,1,107.999996704102,8|0,0:0|0:0,0:0:0:0:
260,324,67045,5,0,0:0:0:0:
403,129,67203,1,0,0:0:0:0:
427,298,67361,1,8,0:0:0:0:
237,155,67519,1,0,0:0:0:0:
456,210,67676,1,2,0:0:0:0:
206,240,67834,1,2,0:0:0:0:
316,100,67992,1,2,0:0:0:0:
348,352,68150,1,0,0:0:0:0:
109,223,68308,5,2,0:0:0:0:
109,223,68466,1,2,0:0:0:0:
61,99,68624,2,0,P|105:83|165:107,1,107.999996704102,4|0,0:0|0:0,0:0:0:0:
248,260,68940,5,2,0:0:0:0:
109,223,69098,1,2,0:0:0:0:
236,168,69255,2,0,P|260:112|248:60,1,107.999996704102,4|0,0:0|0:0,0:0:0:0:
248,260,69571,5,2,0:0:0:0:
367,203,69729,1,2,0:0:0:0:
416,320,69887,2,0,P|452:300|480:240,1,107.999996704102,4|2,0:0|0:0,0:0:0:0:
412,64,70203,2,2,P|360:130|374:216,1,161.999995056153
384,228,70519,2,0,L|320:324,1,107.999996704102,8|0,0:0|0:0,0:0:0:0:
168,288,70834,6,0,L|196:224,3,53.9999983520508,4|0|0|0,0:0|0:0|0:0|0:0,0:0:0:0:
132,275,71150,1,8,0:0:0:0:
102,253,71229,1,0,0:0:0:0:
79,222,71308,1,0,0:0:0:0:
67,187,71387,1,0,0:0:0:0:
65,149,71466,6,0,L|120:144,3,53.9999983520508,4|0|0|0,0:0|0:0|0:0|0:0,0:0:0:0:
74,113,71782,1,8,0:0:0:0:
93,80,71861,1,0,0:0:0:0:
121,55,71940,1,0,0:0:0:0:
154,36,72019,1,0,0:0:0:0:
192,24,72098,5,6,0:0:0:0:
408,36,72255,1,6,0:0:0:0:
341,239,72413,1,6,0:0:0:0:
507,103,72571,1,6,0:0:0:0:
295,148,72729,1,6,0:0:0:0:
440,312,73203,6,0,B|384:336|384:336|372:320|372:320|320:340|264:316,1,180,4|0,0:0|0:0,0:0:0:0:
92,244,73676,2,0,L|196:236,1,90,8|0,0:0|0:0,0:0:0:0:
392,140,73992,2,0,L|302:146,1,90
84,72,74308,2,0,L|188:64,1,90,8|0,0:0|0:0,0:0:0:0:
340,56,74624,1,0,0:0:0:0:
440,208,74782,1,0,0:0:0:0:
440,208,74940,6,0,P|392:256|344:260,1,90,8|0,0:0|0:0,0:0:0:0:
216,276,75255,1,0,0:0:0:0:
208,124,75413,1,0,0:0:0:0:
356,168,75571,1,8,0:0:0:0:
264,76,75729,6,0,P|200:52|136:140,1,180,4|0,0:0|0:0,0:0:0:0:
128,277,76203,2,0,P|176:285|220:273,1,90,8|0,0:0|0:0,0:0:0:0:
284,152,76519,1,0,0:0:0:0:
312,316,76676,1,0,0:0:0:0:
284,152,76834,1,8,0:0:0:0:
312,316,76992,1,0,0:0:0:0:
360,168,77150,2,0,P|352:116|328:88,1,90
180,64,77466,1,8,0:0:0:0:
308,232,77624,2,0,B|394:275|394:215|484:236,1,180,0|2,0:0|0:0,0:0:0:0:
180,64,78255,6,0,B|116:68|116:68|64:36|4:72,1,180,4|0,0:0|0:0,0:0:0:0:
64,235,78729,2,0,P|56:187|67:134,1,90,8|0,0:0|0:0,0:0:0:0:
216,232,79045,2,0,P|222:276|214:320,1,90
168,144,79361,2,0,P|215:132|264:148,1,90,8|0,0:0|0:0,0:0:0:0:
392,208,79676,1,0,0:0:0:0:
468,64,79834,1,0,0:0:0:0:
468,64,79992,6,0,P|412:68|372:64,1,90,8|0,0:0|0:0,0:0:0:0:
220,40,80308,1,0,0:0:0:0:
220,40,80466,2,0,P|175:36|130:41,1,90,0|8,0:0|0:0,0:0:0:0:
256,144,80782,6,0,P|288:224|244:312,1,180,4|0,0:0|0:0,0:0:0:0:
108,360,81255,1,8,0:0:0:0:
108,360,81413,1,0,0:0:0:0:
184,224,81571,2,0,P|140:220|92:228,1,90
8,84,81887,2,0,P|52:91|97:87,1,90,8|0,0:0|0:0,0:0:0:0:
240,16,82203,6,0,P|252:60|244:108,1,90
184,224,82519,1,8,0:0:0:0:
372,161,82676,1,0,0:0:0:0:
330,355,82834,1,0,0:0:0:0:
362,364,82912,1,0,0:0:0:0:
395,368,82991,1,0,0:0:0:0:
429,364,83070,1,0,0:0:0:0:
461,354,83149,1,8,0:0:0:0:
303,199,83466,5,0,0:0:0:0:
263,207,83571,1,0,0:0:0:0:
224,215,83676,1,0,0:0:0:0:
184,224,83781,1,2,0:0:0:0:
324,104,84098,5,0,0:0:0:0:
364,95,84203,1,0,0:0:0:0:
403,87,84308,1,0,0:0:0:0:
443,79,84413,1,2,0:0:0:0:
264,24,84729,5,0,0:0:0:0:
224,32,84834,1,0,0:0:0:0:
185,40,84939,1,0,0:0:0:0:
145,49,85044,1,2,0:0:0:0:
40,176,85361,6,0,B|29:202|44:240|44:240|28:276|40:312,1,135,2|0,0:0|0:0,0:0:0:0:
56,332,85676,1,8,0:0:0:0:
172,136,85992,5,0,0:0:0:0:
205,169,86098,1,0,0:0:0:0:
172,203,86203,1,0,0:0:0:0:
138,169,86308,1,2,0:0:0:0:
384,275,86624,5,0,0:0:0:0:
417,242,86730,1,0,0:0:0:0:
384,208,86835,1,0,0:0:0:0:
350,242,86940,1,2,0:0:0:0:
196,316,87255,6,2,P|124:332|64:316,2,135
384,208,87887,1,2,0:0:0:0:
172,136,88124,1,2,0:0:0:0:
368,32,88361,1,2,0:0:0:0:
