osu file format v14

[General]
AudioFilename: audio.mp3
AudioLeadIn: 0
PreviewTime: 52568
Countdown: 0
SampleSet: Soft
StackLeniency: 0.7
Mode: 3
LetterboxInBreaks: 0
SpecialStyle: 0
WidescreenStoryboard: 0

[Editor]
DistanceSpacing: 1.2
BeatDivisor: 4
GridSize: 32
TimelineZoom: 2

[Metadata]
Title:Chochocho! Yuru Yuri * Capriccio!!! (TV Size)
TitleUnicode:ちょちょちょ!ゆるゆり☆かぷりっちょ!!! (TV Size)
Artist:Nanamori-chu * Goraku-bu
ArtistUnicode:七森中☆ごらく部
Creator:SuzumeAyase
Version:San Hai!
Source:ゆるゆり さん☆ハイ!
Tags:Famoss Maxim-Miau 三上枝織 大坪由佳 津田美波 大久保瑠美 Mikami Shiori Otsubo Yuka Tsuda Minami Okubo Rumi 赤座あかり Akaza Akari 歳納京子 Toshino Kyoko 船見結衣 Funami Yui 吉川ちなつ Yoshikawa Chinatsu Funta7 no_my 高瀬愛虹 Takase Aiko Ken Iijima 飯島健 Yuru Yuri San☆Hai! San High! SanHai 3rd Third Season S3 Japanese pop Jpop J-pop 3 Opening Pony Canyon PCCG-01487 female vocal YURUYURI BEST ALBUM 3 YuruYurhythm♪ ゆるゆりずむ♪ PCCG-01642
BeatmapID:3539734
BeatmapSetID:1731739

[Difficulty]
HPDrainRate:8
CircleSize:4
OverallDifficulty:8
ApproachRate:5
SliderMultiplier:1.4
SliderTickRate:1

[Events]
//Background and Video events
0,0,"yuru yuri.jpg",0,0
Video,0,"sanhai.mp4"
//Break Periods
//Storyboard Layer 0 (Background)
//Storyboard Layer 1 (Fail)
//Storyboard Layer 2 (Pass)
//Storyboard Layer 3 (Foreground)
//Storyboard Layer 4 (Overlay)
//Storyboard Sound Samples

[TimingPoints]
1174,315.789473684211,4,2,1,50,1,0
52963,-100,4,2,1,50,0,1
73016,-100,4,2,1,50,0,0

[HitObjects]
64,192,1805,5,2,0:0:0:0:
448,192,1805,1,0,0:0:0:0:
320,192,1884,1,0,0:0:0:0:
64,192,1963,1,2,0:0:0:0:
448,192,1963,1,0,0:0:0:0:
192,192,2042,1,0,0:0:0:0:
64,192,2121,1,0,0:0:0:70:h03.wav
320,192,2121,1,0,0:0:0:0:
448,192,2121,1,0,0:0:0:0:
64,192,2437,1,2,0:0:0:0:
192,192,2437,1,8,0:0:0:0:
320,192,2542,1,2,0:0:0:0:
448,192,2542,1,8,0:0:0:0:
64,192,2647,1,2,0:0:0:0:
192,192,2647,1,8,0:0:0:0:
320,192,2752,1,2,0:0:0:0:
448,192,2752,1,8,0:0:0:0:
64,192,3068,1,8,0:0:0:0:
448,192,3068,1,2,0:0:0:0:
192,192,3174,1,8,0:0:0:0:
320,192,3174,1,2,0:0:0:0:
64,192,3279,1,2,0:0:0:0:
448,192,3279,1,8,0:0:0:0:
192,192,3384,1,8,0:0:0:0:
320,192,3384,1,2,0:0:0:0:
64,192,3700,1,2,0:0:0:0:
192,192,3700,1,8,0:0:0:0:
320,192,3805,1,2,0:0:0:0:
448,192,3805,1,8,0:0:0:0:
64,192,3910,1,8,0:0:0:0:
192,192,3910,1,2,0:0:0:0:
320,192,4016,1,2,0:0:0:0:
448,192,4016,1,8,0:0:0:0:
64,192,4331,1,2,0:0:0:0:
192,192,4331,1,0,0:0:0:0:
448,192,4410,1,0,0:0:0:0:
320,192,4489,1,0,0:0:0:0:
192,192,4568,1,0,0:0:0:0:
64,192,4647,1,2,0:0:0:0:
448,192,4647,1,8,0:0:0:0:
320,192,4963,1,2,0:0:0:0:
448,192,4963,1,8,0:0:0:0:
64,192,5068,1,2,0:0:0:0:
192,192,5068,1,8,0:0:0:0:
320,192,5174,1,2,0:0:0:0:
448,192,5174,1,8,0:0:0:0:
64,192,5279,1,2,0:0:0:0:
192,192,5279,1,8,0:0:0:0:
64,192,5595,1,8,0:0:0:0:
448,192,5595,1,2,0:0:0:0:
192,192,5700,1,8,0:0:0:0:
320,192,5700,1,2,0:0:0:0:
64,192,5805,1,2,0:0:0:0:
448,192,5805,1,8,0:0:0:0:
192,192,5910,1,8,0:0:0:0:
320,192,5910,1,2,0:0:0:0:
64,192,6226,1,2,0:0:0:0:
320,192,6226,1,8,0:0:0:0:
448,192,6226,1,4,0:0:0:0:
64,192,6463,1,8,0:0:0:0:
192,192,6463,1,2,0:0:0:0:
448,192,6463,1,4,0:0:0:0:
64,192,6700,1,8,0:0:0:0:
320,192,6700,1,2,0:0:0:0:
448,192,6700,1,4,0:0:0:0:
64,192,6858,1,2,0:0:0:0:
192,192,6858,1,8,0:0:0:0:
448,192,6858,1,4,0:0:0:0:
64,192,7095,1,2,0:0:0:0:
320,192,7095,1,8,0:0:0:0:
448,192,7095,1,4,0:0:0:0:
64,192,7331,1,2,0:0:0:0:
192,192,7331,1,8,0:0:0:0:
448,192,7331,1,4,0:0:0:0:
320,192,7489,1,8,0:0:0:0:
448,192,7489,1,2,0:0:0:0:
64,192,7595,1,8,0:0:0:0:
192,192,7595,1,2,0:0:0:0:
320,192,7700,1,8,0:0:0:0:
448,192,7700,1,2,0:0:0:0:
64,192,7805,1,8,0:0:0:0:
192,192,7805,1,2,0:0:0:0:
64,192,8121,1,2,0:0:0:0:
448,192,8121,1,8,0:0:0:0:
192,192,8226,1,2,0:0:0:0:
320,192,8226,1,8,0:0:0:0:
64,192,8331,1,8,0:0:0:0:
448,192,8331,1,2,0:0:0:0:
192,192,8437,1,2,0:0:0:0:
320,192,8437,1,8,0:0:0:0:
320,192,8752,1,8,0:0:0:0:
448,192,8752,1,2,0:0:0:0:
64,192,8858,1,8,0:0:0:0:
192,192,8858,1,2,0:0:0:0:
320,192,8963,1,2,0:0:0:0:
448,192,8963,1,8,0:0:0:0:
64,192,9068,1,8,0:0:0:0:
192,192,9068,1,2,0:0:0:0:
320,192,9384,1,2,0:0:0:0:
448,192,9384,1,0,0:0:0:0:
64,192,9463,1,0,0:0:0:0:
192,192,9542,1,0,0:0:0:0:
320,192,9621,1,0,0:0:0:0:
64,192,9700,1,8,0:0:0:0:
448,192,9700,1,2,0:0:0:0:
64,192,10016,1,8,0:0:0:0:
192,192,10016,1,2,0:0:0:0:
320,192,10121,1,8,0:0:0:0:
448,192,10121,1,2,0:0:0:0:
64,192,10226,1,8,0:0:0:0:
192,192,10226,1,2,0:0:0:0:
320,192,10331,1,8,0:0:0:0:
448,192,10331,1,2,0:0:0:0:
64,192,10647,1,2,0:0:0:0:
448,192,10647,1,8,0:0:0:0:
192,192,10752,1,2,0:0:0:0:
320,192,10752,1,8,0:0:0:0:
64,192,10858,1,8,0:0:0:0:
448,192,10858,1,2,0:0:0:0:
192,192,10963,1,2,0:0:0:0:
320,192,10963,1,8,0:0:0:0:
64,192,11279,1,4,0:0:0:0:
192,192,11279,1,8,0:0:0:0:
448,192,11279,1,2,0:0:0:0:
64,192,11516,1,4,0:0:0:0:
192,192,11516,1,2,0:0:0:0:
320,192,11516,1,8,0:0:0:0:
64,192,11752,1,4,0:0:0:0:
320,192,11752,1,2,0:0:0:0:
448,192,11752,1,8,0:0:0:0:
192,192,11910,1,4,0:0:0:0:
320,192,11910,1,8,0:0:0:0:
448,192,11910,1,2,0:0:0:0:
64,192,12384,1,4,0:0:0:0:
192,192,12384,128,2,12700:0:0:0:0:
448,192,12384,1,0,0:0:0:0:
320,192,12700,1,2,0:0:0:0:
448,192,12700,1,0,0:0:0:0:
64,192,12858,1,8,0:0:0:0:
192,192,12858,1,0,0:0:0:0:
448,192,12858,1,0,0:0:0:0:
320,192,13016,1,0,0:0:0:0:
64,192,13174,1,2,0:0:0:0:
448,192,13174,1,0,0:0:0:0:
192,192,13331,1,2,0:0:0:0:
320,192,13331,1,0,0:0:0:0:
64,192,13489,1,8,0:0:0:0:
320,192,13489,1,0,0:0:0:0:
448,192,13489,1,0,0:0:0:0:
192,192,13647,1,0,0:0:0:0:
64,192,13805,1,2,0:0:0:0:
448,192,13805,1,0,0:0:0:0:
192,192,13963,1,2,0:0:0:0:
320,192,13963,1,0,0:0:0:0:
64,192,14121,1,8,0:0:0:0:
192,192,14121,1,0,0:0:0:0:
448,192,14121,1,0,0:0:0:0:
64,192,14279,1,2,0:0:0:0:
320,192,14279,1,0,0:0:0:0:
192,192,14437,1,0,0:0:0:0:
320,192,14595,1,2,0:0:0:0:
448,192,14595,1,0,0:0:0:0:
64,192,14752,1,8,0:0:0:0:
192,192,14752,1,0,0:0:0:0:
448,192,14752,1,0,0:0:0:0:
64,192,14910,1,2,0:0:0:0:
320,192,14910,128,4,15226:0:0:0:0:
448,192,14910,1,0,0:0:0:0:
64,192,15226,1,2,0:0:0:0:
192,192,15226,1,0,0:0:0:0:
64,192,15384,1,8,0:0:0:0:
320,192,15384,1,0,0:0:0:0:
448,192,15384,1,0,0:0:0:0:
192,192,15542,1,0,0:0:0:0:
64,192,15700,1,2,0:0:0:0:
448,192,15700,1,0,0:0:0:0:
192,192,15858,1,2,0:0:0:0:
320,192,15858,1,0,0:0:0:0:
64,192,16016,1,8,0:0:0:0:
192,192,16016,1,0,0:0:0:0:
448,192,16016,1,0,0:0:0:0:
320,192,16174,1,0,0:0:0:0:
64,192,16331,1,2,0:0:0:0:
192,192,16331,1,0,0:0:0:0:
320,192,16489,1,2,0:0:0:0:
448,192,16489,1,0,0:0:0:0:
64,192,16647,1,8,0:0:0:0:
192,192,16647,1,0,0:0:0:0:
448,192,16647,1,0,0:0:0:0:
64,192,16805,128,2,17121:0:0:0:0:
320,192,16805,1,0,0:0:0:0:
192,192,17121,1,2,0:0:0:0:
320,192,17121,128,8,17279:0:0:0:0:
448,192,17121,1,0,0:0:0:0:
64,192,17437,1,2,0:0:0:0:
192,192,17437,128,4,17752:0:0:0:0:
448,192,17437,1,8,0:0:0:0:
320,192,17752,1,2,0:0:0:0:
448,192,17752,1,0,0:0:0:0:
64,192,17910,1,8,0:0:0:0:
192,192,17910,1,0,0:0:0:0:
448,192,17910,1,0,0:0:0:0:
320,192,18068,1,0,0:0:0:0:
64,192,18226,1,2,0:0:0:0:
448,192,18226,1,0,0:0:0:0:
192,192,18384,1,2,0:0:0:0:
320,192,18384,1,0,0:0:0:0:
64,192,18542,1,8,0:0:0:0:
320,192,18542,1,0,0:0:0:0:
448,192,18542,1,0,0:0:0:0:
192,192,18700,1,0,0:0:0:0:
64,192,18858,1,2,0:0:0:0:
448,192,18858,1,0,0:0:0:0:
192,192,19016,1,2,0:0:0:0:
320,192,19016,1,0,0:0:0:0:
64,192,19174,1,8,0:0:0:0:
192,192,19174,1,0,0:0:0:0:
448,192,19174,1,0,0:0:0:0:
64,192,19331,1,2,0:0:0:0:
320,192,19331,1,0,0:0:0:0:
192,192,19489,1,0,0:0:0:0:
320,192,19647,1,2,0:0:0:0:
448,192,19647,1,0,0:0:0:0:
64,192,19805,1,8,0:0:0:0:
192,192,19805,1,0,0:0:0:0:
448,192,19805,1,0,0:0:0:0:
64,192,19963,1,4,0:0:0:0:
320,192,19963,128,2,20279:0:0:0:0:
448,192,19963,1,0,0:0:0:0:
64,192,20279,1,2,0:0:0:0:
192,192,20279,1,0,0:0:0:0:
64,192,20437,1,8,0:0:0:0:
320,192,20437,1,0,0:0:0:0:
448,192,20437,1,0,0:0:0:0:
192,192,20595,1,0,0:0:0:0:
320,192,20752,1,2,0:0:0:0:
448,192,20752,1,0,0:0:0:0:
64,192,20910,1,2,0:0:0:0:
192,192,20910,1,0,0:0:0:0:
64,192,21068,1,8,0:0:0:0:
320,192,21068,1,0,0:0:0:0:
448,192,21068,1,0,0:0:0:0:
192,192,21226,1,0,0:0:0:0:
64,192,21384,1,2,0:0:0:0:
320,192,21384,1,4,0:0:0:0:
448,192,21384,1,8,0:0:0:0:
64,192,21542,1,2,0:0:0:0:
192,192,21542,1,4,0:0:0:0:
448,192,21542,1,8,0:0:0:0:
64,192,21858,1,2,0:0:0:0:
192,192,21858,1,4,0:0:0:0:
448,192,21858,1,8,0:0:0:0:
64,192,22174,1,2,0:0:0:0:
320,192,22174,128,4,22647:0:0:0:0:
448,192,22174,1,8,0:0:0:0:
192,192,22437,128,0,22647:0:0:0:0:
64,192,22647,1,2,0:0:0:0:
448,192,22647,1,4,0:0:0:0:
192,192,22805,1,2,0:0:0:0:
320,192,22805,1,0,0:0:0:0:
64,192,22963,1,8,0:0:0:0:
320,192,22963,1,0,0:0:0:0:
448,192,22963,1,0,0:0:0:0:
64,192,23279,1,2,0:0:0:0:
192,192,23279,1,0,0:0:0:0:
320,192,23437,1,2,0:0:0:0:
448,192,23437,1,0,0:0:0:0:
64,192,23595,1,8,0:0:0:0:
192,192,23595,1,0,0:0:0:0:
448,192,23595,1,0,0:0:0:0:
64,192,23910,1,2,0:0:0:0:
448,192,23910,1,0,0:0:0:0:
192,192,24068,1,2,0:0:0:0:
320,192,24068,1,0,0:0:0:0:
64,192,24226,1,8,0:0:0:0:
320,192,24226,1,0,0:0:0:0:
448,192,24226,1,0,0:0:0:0:
192,192,24384,1,2,0:0:0:0:
448,192,24384,1,0,0:0:0:0:
192,192,24700,1,2,0:0:0:0:
448,192,24700,1,0,0:0:0:0:
64,192,24858,1,8,0:0:0:0:
320,192,24858,1,0,0:0:0:0:
448,192,24858,1,0,0:0:0:0:
64,192,25174,1,2,0:0:0:0:
192,192,25174,1,0,0:0:0:0:
320,192,25331,1,2,0:0:0:0:
448,192,25331,1,0,0:0:0:0:
64,192,25489,1,8,0:0:0:0:
192,192,25489,1,0,0:0:0:0:
448,192,25489,1,0,0:0:0:0:
320,192,25647,1,0,0:0:0:0:
64,192,25805,1,2,0:0:0:0:
448,192,25805,1,0,0:0:0:0:
192,192,25963,1,2,0:0:0:0:
320,192,25963,1,0,0:0:0:0:
64,192,26121,1,8,0:0:0:0:
320,192,26121,1,0,0:0:0:0:
448,192,26121,1,0,0:0:0:0:
192,192,26279,1,0,0:0:0:0:
64,192,26437,1,2,0:0:0:0:
448,192,26437,1,0,0:0:0:0:
192,192,26595,1,2,0:0:0:0:
320,192,26595,1,0,0:0:0:0:
64,192,26752,1,8,0:0:0:0:
192,192,26752,1,0,0:0:0:0:
448,192,26752,1,0,0:0:0:0:
64,192,26910,1,2,0:0:0:0:
320,192,26910,1,0,0:0:0:0:
192,192,27068,1,0,0:0:0:0:
320,192,27226,1,2,0:0:0:0:
448,192,27226,1,0,0:0:0:0:
64,192,27384,1,8,0:0:0:0:
192,192,27384,1,0,0:0:0:0:
448,192,27384,1,0,0:0:0:0:
64,192,27542,1,8,0:0:0:0:
192,192,27542,1,0,0:0:0:0:
320,192,27542,1,0,0:0:0:0:
64,192,27700,1,2,0:0:0:0:
320,192,27700,1,4,0:0:0:0:
448,192,27700,1,0,0:0:0:0:
192,192,27858,1,2,0:0:0:0:
320,192,27858,1,0,0:0:0:0:
64,192,28016,1,8,0:0:0:0:
192,192,28016,1,0,0:0:0:0:
448,192,28016,1,0,0:0:0:0:
320,192,28331,1,2,0:0:0:0:
448,192,28331,1,0,0:0:0:0:
64,192,28489,1,2,0:0:0:0:
192,192,28489,1,0,0:0:0:0:
64,192,28647,1,8,0:0:0:0:
320,192,28647,1,0,0:0:0:0:
448,192,28647,1,0,0:0:0:0:
64,192,28963,1,2,0:0:0:0:
448,192,28963,1,0,0:0:0:0:
192,192,29121,1,2,0:0:0:0:
320,192,29121,1,0,0:0:0:0:
64,192,29279,1,8,0:0:0:0:
192,192,29279,1,0,0:0:0:0:
448,192,29279,1,0,0:0:0:0:
64,192,29437,1,2,0:0:0:0:
320,192,29437,1,0,0:0:0:0:
64,192,29752,1,2,0:0:0:0:
320,192,29752,1,8,0:0:0:0:
448,192,29752,1,0,0:0:0:0:
64,192,29910,1,8,0:0:0:0:
192,192,29910,1,0,0:0:0:0:
448,192,29910,1,0,0:0:0:0:
64,192,30226,1,2,0:0:0:0:
192,192,30226,1,8,0:0:0:0:
448,192,30226,1,0,0:0:0:0:
64,192,30384,1,2,0:0:0:0:
192,192,30384,1,8,0:0:0:0:
448,192,30384,1,0,0:0:0:0:
64,192,30542,1,8,0:0:0:0:
320,192,30542,1,2,0:0:0:0:
448,192,30542,1,4,0:0:0:0:
64,192,30858,1,2,0:0:0:0:
320,192,30858,1,8,0:0:0:0:
448,192,30858,1,0,0:0:0:0:
64,192,31016,1,2,0:0:0:0:
320,192,31016,1,8,0:0:0:0:
448,192,31016,1,0,0:0:0:0:
64,192,31174,1,8,0:0:0:0:
192,192,31174,1,2,0:0:0:0:
448,192,31174,1,4,0:0:0:0:
64,192,31489,1,2,0:0:0:0:
192,192,31489,1,8,0:0:0:0:
448,192,31489,1,0,0:0:0:0:
64,192,31647,1,2,0:0:0:0:
192,192,31647,1,8,0:0:0:0:
448,192,31647,1,0,0:0:0:0:
64,192,31805,1,8,0:0:0:0:
320,192,31805,1,4,0:0:0:0:
448,192,31805,1,2,0:0:0:0:
64,192,31963,1,2,0:0:0:0:
192,192,31963,1,4,0:0:0:0:
448,192,31963,1,0,0:0:0:0:
320,192,32121,1,0,0:0:0:0:
192,192,32279,1,2,0:0:0:0:
64,192,32437,1,8,0:0:0:0:
448,192,32437,1,2,0:0:0:0:
320,192,32516,1,0,0:0:0:0:
192,192,32595,1,2,0:0:0:0:
64,192,32752,1,2,0:0:0:0:
320,192,32752,1,4,0:0:0:0:
448,192,32752,1,0,0:0:0:0:
192,192,32910,1,0,0:0:0:0:
64,192,33068,1,8,0:0:0:0:
320,192,33068,1,0,0:0:0:0:
448,192,33068,1,0,0:0:0:0:
192,192,33226,1,0,0:0:0:0:
320,192,33384,1,2,0:0:0:0:
448,192,33384,1,0,0:0:0:0:
64,192,33542,1,2,0:0:0:0:
192,192,33542,1,0,0:0:0:0:
64,192,33700,1,8,0:0:0:0:
320,192,33700,1,0,0:0:0:0:
448,192,33700,1,0,0:0:0:0:
192,192,33858,1,0,0:0:0:0:
64,192,34016,1,2,0:0:0:0:
448,192,34016,1,0,0:0:0:0:
192,192,34174,1,2,0:0:0:0:
320,192,34174,1,0,0:0:0:0:
64,192,34331,1,8,0:0:0:0:
192,192,34331,1,0,0:0:0:0:
448,192,34331,1,0,0:0:0:0:
64,192,34489,1,2,0:0:0:0:
320,192,34489,1,0,0:0:0:0:
192,192,34647,1,0,0:0:0:0:
320,192,34805,1,2,0:0:0:0:
448,192,34805,1,0,0:0:0:0:
64,192,34963,1,8,0:0:0:0:
192,192,34963,1,0,0:0:0:0:
448,192,34963,1,0,0:0:0:0:
320,192,35121,1,0,0:0:0:0:
64,192,35279,1,2,0:0:0:0:
448,192,35279,1,0,0:0:0:0:
192,192,35437,1,0,0:0:0:0:
64,192,35595,1,8,0:0:0:0:
320,192,35595,1,0,0:0:0:0:
448,192,35595,1,0,0:0:0:0:
192,192,35752,1,0,0:0:0:0:
320,192,35910,1,2,0:0:0:0:
448,192,35910,1,0,0:0:0:0:
64,192,36068,1,2,0:0:0:0:
192,192,36068,1,0,0:0:0:0:
64,192,36226,1,8,0:0:0:0:
320,192,36226,1,0,0:0:0:0:
448,192,36226,1,0,0:0:0:0:
192,192,36384,1,0,0:0:0:0:
64,192,36542,1,2,0:0:0:0:
448,192,36542,1,0,0:0:0:0:
192,192,36700,1,2,0:0:0:0:
320,192,36700,1,0,0:0:0:0:
64,192,36858,1,8,0:0:0:0:
192,192,36858,1,0,0:0:0:0:
448,192,36858,1,0,0:0:0:0:
64,192,37016,1,2,0:0:0:0:
320,192,37016,1,0,0:0:0:0:
192,192,37174,1,0,0:0:0:0:
320,192,37331,1,2,0:0:0:0:
448,192,37331,1,0,0:0:0:0:
64,192,37489,1,8,0:0:0:0:
192,192,37489,1,0,0:0:0:0:
448,192,37489,1,0,0:0:0:0:
64,192,37647,1,8,0:0:0:0:
192,192,37647,1,0,0:0:0:0:
320,192,37647,1,0,0:0:0:0:
64,192,37805,1,2,0:0:0:0:
320,192,37805,1,4,0:0:0:0:
448,192,37805,1,0,0:0:0:0:
192,192,37963,1,0,0:0:0:0:
64,192,38121,1,8,0:0:0:0:
320,192,38121,1,0,0:0:0:0:
448,192,38121,1,0,0:0:0:0:
192,192,38279,1,0,0:0:0:0:
64,192,38437,1,2,0:0:0:0:
448,192,38437,1,0,0:0:0:0:
192,192,38595,1,2,0:0:0:0:
320,192,38595,1,0,0:0:0:0:
64,192,38752,1,8,0:0:0:0:
192,192,38752,1,0,0:0:0:0:
448,192,38752,1,0,0:0:0:0:
320,192,38910,1,0,0:0:0:0:
64,192,39068,1,2,0:0:0:0:
192,192,39068,1,0,0:0:0:0:
320,192,39226,1,2,0:0:0:0:
448,192,39226,1,0,0:0:0:0:
64,192,39384,1,8,0:0:0:0:
192,192,39384,1,0,0:0:0:0:
448,192,39384,1,0,0:0:0:0:
64,192,39542,1,2,0:0:0:0:
320,192,39542,1,0,0:0:0:0:
192,192,39700,1,0,0:0:0:0:
320,192,39858,1,2,0:0:0:0:
448,192,39858,1,0,0:0:0:0:
64,192,40016,1,8,0:0:0:0:
192,192,40016,1,0,0:0:0:0:
448,192,40016,1,0,0:0:0:0:
320,192,40174,1,0,0:0:0:0:
64,192,40331,1,2,0:0:0:0:
192,192,40331,1,8,0:0:0:0:
448,192,40331,1,0,0:0:0:0:
64,192,40489,1,2,0:0:0:0:
192,192,40489,1,8,0:0:0:0:
448,192,40489,1,0,0:0:0:0:
64,192,40647,1,8,0:0:0:0:
320,192,40647,1,2,0:0:0:0:
448,192,40647,1,4,0:0:0:0:
64,192,40963,1,2,0:0:0:0:
320,192,40963,1,8,0:0:0:0:
448,192,40963,1,0,0:0:0:0:
64,192,41121,1,2,0:0:0:0:
320,192,41121,1,8,0:0:0:0:
448,192,41121,1,0,0:0:0:0:
64,192,41279,1,8,0:0:0:0:
192,192,41279,1,2,0:0:0:0:
448,192,41279,1,4,0:0:0:0:
64,192,41595,1,2,0:0:0:0:
192,192,41595,1,8,0:0:0:0:
448,192,41595,1,0,0:0:0:0:
64,192,41752,1,2,0:0:0:0:
192,192,41752,1,8,0:0:0:0:
448,192,41752,1,0,0:0:0:0:
64,192,41910,1,8,0:0:0:0:
320,192,41910,1,4,0:0:0:0:
448,192,41910,1,2,0:0:0:0:
64,192,42068,1,2,0:0:0:0:
192,192,42068,1,4,0:0:0:0:
448,192,42068,1,0,0:0:0:0:
320,192,42226,1,0,0:0:0:0:
192,192,42305,1,2,0:0:0:0:
64,192,42384,1,2,0:0:0:0:
448,192,42384,1,8,0:0:0:0:
64,192,42542,1,10,0:0:0:0:
448,192,42542,1,4,0:0:0:0:
320,192,42700,1,2,0:0:0:0:
64,192,42858,1,2,0:0:0:0:
192,192,42858,1,4,0:0:0:0:
448,192,42858,1,0,0:0:0:0:
320,192,43174,1,2,0:0:0:0:
192,192,43331,1,2,0:0:0:0:
64,192,43489,1,8,0:0:0:0:
448,192,43489,1,0,0:0:0:0:
192,192,43805,1,0,0:0:0:0:
448,192,43963,1,2,0:0:0:0:
320,192,44121,1,0,0:0:0:0:
64,192,44279,1,2,0:0:0:0:
192,192,44437,1,0,0:0:0:0:
320,192,44595,1,2,0:0:0:0:
64,192,44752,1,8,0:0:0:0:
448,192,44752,1,0,0:0:0:0:
192,192,44910,1,2,0:0:0:0:
320,192,45068,1,2,0:0:0:0:
192,192,45226,1,2,0:0:0:0:
64,192,45384,1,4,0:0:0:0:
320,192,45384,1,2,0:0:0:0:
448,192,45384,1,0,0:0:0:0:
192,192,45700,1,2,0:0:0:0:
320,192,45858,1,2,0:0:0:0:
64,192,46016,1,8,0:0:0:0:
448,192,46016,1,0,0:0:0:0:
320,192,46331,1,0,0:0:0:0:
192,192,46489,1,2,0:0:0:0:
64,192,46647,1,0,0:0:0:0:
448,192,46805,1,2,0:0:0:0:
320,192,46963,1,0,0:0:0:0:
192,192,47121,1,2,0:0:0:0:
320,192,47279,1,8,0:0:0:0:
448,192,47279,1,0,0:0:0:0:
64,192,47437,1,2,0:0:0:0:
192,192,47437,1,0,0:0:0:0:
320,192,47595,1,2,0:0:0:0:
64,192,47752,1,2,0:0:0:0:
448,192,47752,1,0,0:0:0:0:
64,192,47910,1,2,0:0:0:0:
192,192,47910,1,8,0:0:0:0:
448,192,47910,1,4,0:0:0:0:
64,192,48147,1,2,0:0:0:0:
192,192,48147,1,8,0:0:0:0:
448,192,48147,1,4,0:0:0:0:
64,192,48384,1,8,0:0:0:0:
192,192,48384,1,2,0:0:0:0:
448,192,48384,1,4,0:0:0:0:
64,192,48542,1,4,0:0:0:0:
320,192,48542,1,8,0:0:0:0:
448,192,48542,1,2,0:0:0:0:
64,192,48779,1,4,0:0:0:0:
320,192,48779,1,8,0:0:0:0:
448,192,48779,1,2,0:0:0:0:
64,192,49016,1,4,0:0:0:0:
320,192,49016,1,2,0:0:0:0:
448,192,49016,1,8,0:0:0:0:
64,192,49174,1,2,0:0:0:0:
192,192,49174,1,8,0:0:0:0:
448,192,49174,1,4,0:0:0:0:
64,192,49489,1,2,0:0:0:0:
320,192,49489,128,8,49805:0:0:0:0:
448,192,49489,1,4,0:0:0:0:
64,192,49805,1,8,0:0:0:0:
192,192,49805,1,2,0:0:0:0:
448,192,49805,1,0,0:0:0:0:
64,192,49963,1,2,0:0:0:0:
192,192,49963,128,8,50279:0:0:0:0:
448,192,49963,1,0,0:0:0:0:
64,192,50279,1,4,0:0:0:0:
320,192,50279,1,2,0:0:0:0:
448,192,50279,128,0,50595:0:0:0:0:
64,192,50595,1,2,0:0:0:0:
192,192,50595,1,0,0:0:0:0:
320,192,50752,1,2,0:0:0:0:
448,192,50752,1,8,0:0:0:0:
192,192,50910,1,2,0:0:0:0:
320,192,50910,1,0,0:0:0:0:
64,192,51068,1,2,0:0:0:0:
192,192,51068,1,8,0:0:0:0:
320,192,51226,1,2,0:0:0:0:
448,192,51226,1,0,0:0:0:0:
64,192,51384,1,2,0:0:0:0:
192,192,51384,1,8,0:0:0:0:
192,192,51542,1,2,0:0:0:0:
320,192,51542,1,0,0:0:0:0:
320,192,51700,1,2,0:0:0:0:
448,192,51700,1,8,0:0:0:0:
64,192,51779,1,2,0:0:0:0:
192,192,51858,1,2,0:0:0:0:
320,192,51937,1,0,0:0:0:0:
64,192,52016,1,2,0:0:0:0:
448,192,52016,1,8,0:0:0:0:
192,192,52095,1,2,0:0:0:0:
320,192,52174,1,2,0:0:0:0:
448,192,52252,1,0,0:0:0:0:
64,192,52331,1,2,0:0:0:0:
192,192,52331,1,8,0:0:0:0:
320,192,52410,1,2,0:0:0:0:
448,192,52410,1,0,0:0:0:0:
64,192,52489,1,2,0:0:0:0:
192,192,52489,1,0,0:0:0:0:
320,192,52568,1,2,0:0:0:0:
448,192,52568,1,0,0:0:0:0:
64,192,52647,128,0,52805:0:0:0:70:h03.wav
192,192,52647,1,0,0:0:0:0:
320,192,52805,128,0,52963:0:0:0:0:
64,192,52963,1,2,0:0:0:0:
192,192,52963,128,4,53121:0:0:0:0:
448,192,52963,1,0,0:0:0:0:
320,192,53121,1,2,0:0:0:0:
64,192,53279,1,8,0:0:0:0:
192,192,53279,1,0,0:0:0:0:
448,192,53279,128,0,53437:0:0:0:0:
320,192,53437,1,0,0:0:0:0:
64,192,53595,128,2,53752:0:0:0:0:
192,192,53595,1,0,0:0:0:0:
320,192,53752,128,2,53910:0:0:0:0:
448,192,53752,1,0,0:0:0:0:
64,192,53910,1,8,0:0:0:0:
192,192,53910,1,0,0:0:0:0:
448,192,53910,1,0,0:0:0:0:
320,192,54068,128,0,54226:0:0:0:0:
64,192,54226,128,2,54384:0:0:0:0:
448,192,54226,1,0,0:0:0:0:
192,192,54384,1,2,0:0:0:0:
320,192,54384,1,0,0:0:0:0:
64,192,54542,128,8,54700:0:0:0:0:
320,192,54542,1,0,0:0:0:0:
448,192,54542,1,0,0:0:0:0:
192,192,54700,1,2,0:0:0:0:
448,192,54700,128,0,55016:0:0:0:0:
320,192,54858,1,0,0:0:0:0:
64,192,55016,1,2,0:0:0:0:
192,192,55016,1,0,0:0:0:0:
64,192,55174,1,8,0:0:0:0:
320,192,55174,1,0,0:0:0:0:
448,192,55174,1,0,0:0:0:0:
192,192,55331,1,0,0:0:0:0:
64,192,55489,1,4,0:0:0:0:
320,192,55489,128,2,55647:0:0:0:0:
448,192,55489,1,0,0:0:0:0:
192,192,55647,1,2,0:0:0:0:
64,192,55805,128,8,55963:0:0:0:0:
320,192,55805,1,0,0:0:0:0:
448,192,55805,1,0,0:0:0:0:
320,192,55963,128,0,56121:0:0:0:0:
192,192,56121,128,2,56279:0:0:0:0:
448,192,56121,1,0,0:0:0:0:
64,192,56279,1,2,0:0:0:0:
448,192,56279,128,0,56595:0:0:0:0:
64,192,56437,1,8,0:0:0:0:
320,192,56437,1,0,0:0:0:0:
192,192,56595,1,0,0:0:0:0:
64,192,56752,128,2,56910:0:0:0:0:
448,192,56752,1,0,0:0:0:0:
192,192,56910,1,2,0:0:0:0:
320,192,56910,1,0,0:0:0:0:
64,192,57068,1,8,0:0:0:0:
192,192,57068,128,0,57226:0:0:0:0:
448,192,57068,1,0,0:0:0:0:
320,192,57226,1,2,0:0:0:0:
64,192,57384,1,2,0:0:0:0:
448,192,57384,128,8,57542:0:0:0:0:
320,192,57463,1,2,0:0:0:0:
64,192,57542,1,2,0:0:0:0:
192,192,57542,1,0,0:0:0:0:
320,192,57700,128,8,57858:0:0:0:0:
448,192,57700,1,0,0:0:0:0:
192,192,57779,1,8,0:0:0:0:
64,192,57858,1,2,0:0:0:0:
448,192,57858,1,0,0:0:0:0:
64,192,58016,1,2,0:0:0:0:
192,192,58016,128,4,58174:0:0:0:0:
320,192,58016,1,0,0:0:0:0:
448,192,58174,128,2,58331:0:0:0:0:
64,192,58331,128,8,58489:0:0:0:0:
192,192,58331,1,0,0:0:0:0:
320,192,58331,1,0,0:0:0:0:
320,192,58489,128,0,58805:0:0:0:0:
192,192,58647,1,2,0:0:0:0:
64,192,58805,1,2,0:0:0:0:
192,192,58805,1,8,0:0:0:0:
448,192,58805,1,4,0:0:0:0:
64,192,58963,1,8,0:0:0:0:
320,192,58963,1,2,0:0:0:0:
448,192,58963,1,4,0:0:0:0:
192,192,59121,128,0,59279:0:0:0:0:
64,192,59279,1,2,0:0:0:0:
320,192,59279,128,4,59437:0:0:0:0:
448,192,59279,1,0,0:0:0:0:
64,192,59437,128,2,59595:0:0:0:0:
192,192,59595,1,8,0:0:0:0:
320,192,59595,1,0,0:0:0:0:
448,192,59595,128,0,59752:0:0:0:0:
64,192,59752,1,2,0:0:0:0:
192,192,59752,128,0,60068:0:0:0:0:
320,192,59910,1,0,0:0:0:0:
64,192,60068,1,2,0:0:0:0:
320,192,60068,1,8,0:0:0:0:
448,192,60068,1,4,0:0:0:0:
64,192,60226,1,8,0:0:0:0:
192,192,60226,1,2,0:0:0:0:
448,192,60226,1,4,0:0:0:0:
320,192,60384,128,0,60542:0:0:0:0:
64,192,60542,128,2,60700:0:0:0:0:
448,192,60542,1,0,0:0:0:0:
192,192,60700,128,2,60858:0:0:0:0:
320,192,60700,1,0,0:0:0:0:
64,192,60858,1,8,0:0:0:0:
320,192,60858,1,4,0:0:0:0:
448,192,60858,128,0,61174:0:0:0:0:
192,192,61016,1,0,0:0:0:0:
64,192,61174,1,2,0:0:0:0:
320,192,61174,128,0,61331:0:0:0:0:
192,192,61331,128,2,61489:0:0:0:0:
448,192,61331,1,0,0:0:0:0:
64,192,61489,1,8,0:0:0:0:
320,192,61489,1,4,0:0:0:0:
448,192,61489,1,0,0:0:0:0:
64,192,61647,1,2,0:0:0:0:
192,192,61647,1,8,0:0:0:0:
448,192,61647,1,4,0:0:0:0:
64,192,61805,1,2,0:0:0:0:
320,192,61805,1,0,0:0:0:0:
192,192,61884,1,0,0:0:0:0:
64,192,61963,1,2,0:0:0:0:
448,192,61963,1,8,0:0:0:0:
320,192,62042,1,0,0:0:0:0:
64,192,62121,1,8,0:0:0:0:
192,192,62121,1,0,0:0:0:0:
320,192,62200,1,8,0:0:0:0:
64,192,62279,1,2,0:0:0:0:
448,192,62279,1,0,0:0:0:0:
192,192,62358,1,2,0:0:0:0:
320,192,62437,1,2,0:0:0:0:
448,192,62437,1,8,0:0:0:0:
64,192,62516,1,2,0:0:0:0:
192,192,62516,1,0,0:0:0:0:
320,192,62595,1,2,0:0:0:0:
448,192,62595,1,0,0:0:0:0:
64,192,62674,1,2,0:0:0:0:
192,192,62674,1,0,0:0:0:0:
320,192,62752,1,8,0:0:0:0:
448,192,62752,1,2,0:0:0:0:
64,192,62831,1,2,0:0:0:0:
192,192,62831,1,0,0:0:0:0:
320,192,62910,1,2,0:0:0:0:
448,192,62910,1,0,0:0:0:0:
192,192,62989,1,2,0:0:0:0:
64,192,63068,1,2,0:0:0:0:
320,192,63068,128,4,63384:0:0:0:0:
448,192,63068,1,0,0:0:0:0:
192,192,63226,1,2,0:0:0:0:
64,192,63384,128,8,63700:0:0:0:0:
192,192,63384,1,0,0:0:0:0:
448,192,63384,1,0,0:0:0:0:
320,192,63542,1,0,0:0:0:0:
192,192,63700,1,2,0:0:0:0:
448,192,63700,128,0,63858:0:0:0:0:
64,192,63858,1,2,0:0:0:0:
320,192,63858,128,0,64016:0:0:0:0:
64,192,64016,1,8,0:0:0:0:
192,192,64016,1,0,0:0:0:0:
448,192,64016,1,0,0:0:0:0:
320,192,64174,128,0,64331:0:0:0:0:
64,192,64331,128,2,64489:0:0:0:0:
448,192,64331,1,0,0:0:0:0:
192,192,64489,1,2,0:0:0:0:
320,192,64489,1,0,0:0:0:0:
64,192,64647,128,8,64805:0:0:0:0:
320,192,64647,1,0,0:0:0:0:
448,192,64647,1,0,0:0:0:0:
192,192,64805,128,2,65279:0:0:0:0:
448,192,64805,1,0,0:0:0:0:
320,192,64963,1,0,0:0:0:0:
64,192,65121,1,2,0:0:0:0:
448,192,65121,1,0,0:0:0:0:
64,192,65279,1,8,0:0:0:0:
320,192,65279,1,0,0:0:0:0:
448,192,65279,1,0,0:0:0:0:
192,192,65437,1,0,0:0:0:0:
64,192,65595,1,4,0:0:0:0:
320,192,65595,128,2,65910:0:0:0:0:
448,192,65595,1,0,0:0:0:0:
192,192,65752,1,2,0:0:0:0:
64,192,65910,128,8,66226:0:0:0:0:
192,192,65910,1,0,0:0:0:0:
448,192,65910,1,0,0:0:0:0:
320,192,66068,1,0,0:0:0:0:
192,192,66226,128,2,66384:0:0:0:0:
448,192,66226,1,0,0:0:0:0:
64,192,66384,1,2,0:0:0:0:
320,192,66384,128,0,66700:0:0:0:0:
64,192,66542,1,8,0:0:0:0:
448,192,66542,1,0,0:0:0:0:
192,192,66700,128,0,66858:0:0:0:0:
64,192,66858,1,2,0:0:0:0:
448,192,66858,128,0,67016:0:0:0:0:
192,192,67016,1,2,0:0:0:0:
320,192,67016,1,0,0:0:0:0:
64,192,67174,128,8,67331:0:0:0:0:
320,192,67174,1,0,0:0:0:0:
448,192,67174,1,0,0:0:0:0:
192,192,67331,1,2,0:0:0:0:
448,192,67331,1,0,0:0:0:0:
64,192,67489,1,2,0:0:0:0:
320,192,67489,1,8,0:0:0:0:
192,192,67568,1,0,0:0:0:0:
64,192,67647,1,2,0:0:0:0:
320,192,67647,1,0,0:0:0:0:
448,192,67647,1,0,0:0:0:0:
64,192,67805,1,8,0:0:0:0:
320,192,67805,1,0,0:0:0:0:
448,192,67805,1,0,0:0:0:0:
64,192,67963,1,8,0:0:0:0:
320,192,67963,1,0,0:0:0:0:
448,192,67963,1,0,0:0:0:0:
64,192,68121,1,2,0:0:0:0:
192,192,68121,1,8,0:0:0:0:
448,192,68121,1,0,0:0:0:0:
64,192,68279,1,2,0:0:0:0:
320,192,68279,1,8,0:0:0:0:
448,192,68279,1,0,0:0:0:0:
192,192,68437,1,4,0:0:0:0:
448,192,68437,1,2,0:0:0:0:
320,192,68595,128,0,68752:0:0:0:0:
64,192,68752,1,8,0:0:0:0:
192,192,68752,128,2,68910:0:0:0:0:
448,192,68752,1,0,0:0:0:0:
64,192,68910,1,8,0:0:0:0:
320,192,68910,1,2,0:0:0:0:
448,192,68910,128,0,69068:0:0:0:0:
64,192,69068,1,4,0:0:0:0:
192,192,69068,1,2,0:0:0:0:
320,192,69226,128,0,69384:0:0:0:0:
64,192,69384,1,2,0:0:0:0:
192,192,69384,128,8,69542:0:0:0:0:
448,192,69384,1,0,0:0:0:0:
64,192,69542,1,2,0:0:0:0:
320,192,69542,128,8,69700:0:0:0:0:
448,192,69542,1,0,0:0:0:0:
64,192,69700,128,6,69858:0:0:0:0:
192,192,69858,1,4,0:0:0:0:
320,192,69858,1,2,0:0:0:0:
448,192,69858,128,0,70016:0:0:0:0:
64,192,70016,128,0,70174:0:0:0:0:
192,192,70174,1,2,0:0:0:0:
320,192,70174,1,8,0:0:0:0:
448,192,70174,1,0,0:0:0:0:
64,192,70331,1,8,0:0:0:0:
192,192,70331,1,2,0:0:0:0:
448,192,70331,128,4,70489:0:0:0:0:
320,192,70489,1,0,0:0:0:0:
64,192,70647,1,2,0:0:0:0:
192,192,70647,1,4,0:0:0:0:
448,192,70647,1,0,0:0:0:0:
320,192,70726,1,2,0:0:0:0:
64,192,70805,1,2,0:0:0:0:
192,192,70884,1,2,0:0:0:0:
320,192,70963,1,8,0:0:0:0:
448,192,70963,1,2,0:0:0:0:
64,192,71042,1,2,0:0:0:0:
192,192,71121,1,2,0:0:0:0:
320,192,71200,1,2,0:0:0:0:
64,192,71279,1,2,0:0:0:0:
192,192,71279,1,4,0:0:0:0:
448,192,71279,1,0,0:0:0:0:
320,192,71358,1,2,0:0:0:0:
192,192,71437,1,2,0:0:0:0:
64,192,71516,1,2,0:0:0:0:
320,192,71595,1,8,0:0:0:0:
448,192,71595,1,2,0:0:0:0:
192,192,71674,1,2,0:0:0:0:
64,192,71752,1,2,0:0:0:0:
320,192,71831,1,2,0:0:0:0:
64,192,71910,1,2,0:0:0:0:
192,192,71910,1,4,0:0:0:0:
448,192,71910,1,8,0:0:0:0:
64,192,72068,1,2,0:0:0:0:
192,192,72068,1,8,0:0:0:0:
448,192,72068,1,4,0:0:0:0:
64,192,72226,1,8,0:0:0:0:
192,192,72226,1,4,0:0:0:0:
448,192,72226,1,2,0:0:0:0:
64,192,72384,1,2,0:0:0:0:
192,192,72384,1,4,0:0:0:0:
448,192,72384,1,8,0:0:0:0:
64,192,72542,1,2,0:0:0:0:
320,192,72542,1,8,0:0:0:0:
448,192,72542,1,4,0:0:0:0:
192,192,72621,1,0,0:0:0:0:
448,192,72700,1,2,0:0:0:0:
320,192,72779,1,2,0:0:0:0:
64,192,72858,1,0,0:0:0:70:h03.wav
192,192,72858,1,0,0:0:0:0:
448,192,72858,1,0,0:0:0:0:
64,192,73016,1,2,0:0:0:0:
320,192,73016,128,4,73331:0:0:0:0:
448,192,73016,1,0,0:0:0:0:
64,192,73331,1,2,0:0:0:0:
192,192,73331,1,0,0:0:0:0:
64,192,73489,1,8,0:0:0:0:
320,192,73489,1,0,0:0:0:0:
448,192,73489,1,0,0:0:0:0:
192,192,73647,1,0,0:0:0:0:
64,192,73805,1,2,0:0:0:0:
448,192,73805,1,0,0:0:0:0:
192,192,73963,1,2,0:0:0:0:
320,192,73963,1,0,0:0:0:0:
64,192,74121,1,8,0:0:0:0:
192,192,74121,1,0,0:0:0:0:
448,192,74121,1,0,0:0:0:0:
320,192,74279,1,0,0:0:0:0:
64,192,74437,1,2,0:0:0:0:
192,192,74437,1,0,0:0:0:0:
320,192,74595,1,2,0:0:0:0:
448,192,74595,1,0,0:0:0:0:
64,192,74752,1,8,0:0:0:0:
192,192,74752,1,0,0:0:0:0:
448,192,74752,1,0,0:0:0:0:
64,192,74910,1,2,0:0:0:0:
320,192,74910,1,0,0:0:0:0:
192,192,75068,1,0,0:0:0:0:
320,192,75226,1,2,0:0:0:0:
448,192,75226,1,0,0:0:0:0:
64,192,75384,1,8,0:0:0:0:
192,192,75384,1,0,0:0:0:0:
448,192,75384,1,0,0:0:0:0:
64,192,75542,1,4,0:0:0:0:
320,192,75542,128,2,75858:0:0:0:0:
448,192,75542,1,0,0:0:0:0:
64,192,75858,1,2,0:0:0:0:
192,192,75858,1,0,0:0:0:0:
64,192,76016,1,8,0:0:0:0:
320,192,76016,1,0,0:0:0:0:
448,192,76016,1,0,0:0:0:0:
192,192,76174,1,0,0:0:0:0:
64,192,76331,1,2,0:0:0:0:
448,192,76331,1,0,0:0:0:0:
192,192,76489,1,2,0:0:0:0:
320,192,76489,1,0,0:0:0:0:
64,192,76647,1,8,0:0:0:0:
192,192,76647,1,0,0:0:0:0:
448,192,76647,1,0,0:0:0:0:
320,192,76805,1,0,0:0:0:0:
64,192,76963,1,2,0:0:0:0:
192,192,76963,1,0,0:0:0:0:
320,192,77121,1,2,0:0:0:0:
448,192,77121,1,0,0:0:0:0:
64,192,77279,1,8,0:0:0:0:
192,192,77279,1,0,0:0:0:0:
448,192,77279,1,0,0:0:0:0:
64,192,77437,128,2,77752:0:0:0:0:
320,192,77437,1,0,0:0:0:0:
192,192,77752,1,8,0:0:0:0:
320,192,77752,128,2,77910:0:0:0:0:
448,192,77752,1,0,0:0:0:0:
64,192,78068,1,8,0:0:0:0:
192,192,78068,128,4,78384:0:0:0:0:
448,192,78068,1,2,0:0:0:0:
320,192,78384,1,2,0:0:0:0:
448,192,78384,1,0,0:0:0:0:
64,192,78542,1,8,0:0:0:0:
192,192,78542,1,0,0:0:0:0:
448,192,78542,1,0,0:0:0:0:
320,192,78700,1,0,0:0:0:0:
64,192,78858,1,2,0:0:0:0:
448,192,78858,1,0,0:0:0:0:
192,192,79016,1,2,0:0:0:0:
320,192,79016,1,0,0:0:0:0:
64,192,79174,1,8,0:0:0:0:
320,192,79174,1,0,0:0:0:0:
448,192,79174,1,0,0:0:0:0:
192,192,79331,1,0,0:0:0:0:
320,192,79489,1,2,0:0:0:0:
448,192,79489,1,0,0:0:0:0:
64,192,79647,1,2,0:0:0:0:
192,192,79647,1,0,0:0:0:0:
64,192,79805,1,8,0:0:0:0:
320,192,79805,1,0,0:0:0:0:
448,192,79805,1,0,0:0:0:0:
192,192,79963,1,2,0:0:0:0:
448,192,79963,1,0,0:0:0:0:
320,192,80121,1,0,0:0:0:0:
64,192,80279,1,2,0:0:0:0:
192,192,80279,1,0,0:0:0:0:
64,192,80437,1,8,0:0:0:0:
320,192,80437,1,0,0:0:0:0:
448,192,80437,1,0,0:0:0:0:
64,192,80595,1,2,0:0:0:0:
192,192,80595,128,4,80910:0:0:0:0:
448,192,80595,1,0,0:0:0:0:
320,192,80910,1,2,0:0:0:0:
448,192,80910,1,0,0:0:0:0:
64,192,81068,1,8,0:0:0:0:
192,192,81068,1,0,0:0:0:0:
448,192,81068,1,0,0:0:0:0:
320,192,81226,1,0,0:0:0:0:
64,192,81384,1,2,0:0:0:0:
192,192,81384,1,0,0:0:0:0:
320,192,81542,1,2,0:0:0:0:
448,192,81542,1,0,0:0:0:0:
64,192,81700,1,8,0:0:0:0:
192,192,81700,1,0,0:0:0:0:
448,192,81700,1,0,0:0:0:0:
320,192,81858,1,0,0:0:0:0:
64,192,82016,1,2,0:0:0:0:
448,192,82016,1,0,0:0:0:0:
192,192,82174,1,2,0:0:0:0:
320,192,82174,1,0,0:0:0:0:
64,192,82331,1,8,0:0:0:0:
320,192,82331,1,0,0:0:0:0:
448,192,82331,1,0,0:0:0:0:
192,192,82489,1,0,0:0:0:0:
320,192,82647,1,2,0:0:0:0:
448,192,82647,1,0,0:0:0:0:
192,192,82805,1,2,0:0:0:0:
320,192,82884,1,0,0:0:0:0:
64,192,82963,1,8,0:0:0:0:
448,192,82963,1,0,0:0:0:0:
192,192,83042,1,0,0:0:0:0:
448,192,83121,1,0,0:0:0:0:
320,192,83200,1,0,0:0:0:0:
64,192,83279,1,2,0:0:0:0:
192,192,83279,1,8,0:0:0:0:
320,192,83384,1,2,0:0:0:0:
448,192,83384,1,8,0:0:0:0:
64,192,83489,1,2,0:0:0:0:
192,192,83489,1,8,0:0:0:0:
320,192,83595,1,2,0:0:0:0:
448,192,83595,1,8,0:0:0:0:
64,192,83910,1,8,0:0:0:0:
448,192,83910,1,2,0:0:0:0:
192,192,84016,1,8,0:0:0:0:
320,192,84016,1,2,0:0:0:0:
64,192,84121,1,2,0:0:0:0:
448,192,84121,1,8,0:0:0:0:
192,192,84226,1,8,0:0:0:0:
320,192,84226,1,2,0:0:0:0:
64,192,84542,1,2,0:0:0:0:
192,192,84542,1,8,0:0:0:0:
320,192,84647,1,2,0:0:0:0:
448,192,84647,1,8,0:0:0:0:
64,192,84752,1,8,0:0:0:0:
192,192,84752,1,2,0:0:0:0:
320,192,84858,1,2,0:0:0:0:
448,192,84858,1,8,0:0:0:0:
64,192,85174,1,2,0:0:0:0:
192,192,85174,1,0,0:0:0:0:
448,192,85252,1,0,0:0:0:0:
320,192,85331,1,0,0:0:0:0:
192,192,85410,1,0,0:0:0:0:
64,192,85489,1,2,0:0:0:0:
448,192,85489,1,8,0:0:0:0:
320,192,85805,1,2,0:0:0:0:
448,192,85805,1,8,0:0:0:0:
64,192,85910,1,2,0:0:0:0:
192,192,85910,1,8,0:0:0:0:
320,192,86016,1,2,0:0:0:0:
448,192,86016,1,8,0:0:0:0:
64,192,86121,1,2,0:0:0:0:
192,192,86121,1,8,0:0:0:0:
64,192,86437,1,8,0:0:0:0:
448,192,86437,1,2,0:0:0:0:
192,192,86542,1,8,0:0:0:0:
320,192,86542,1,2,0:0:0:0:
64,192,86647,1,2,0:0:0:0:
448,192,86647,1,8,0:0:0:0:
192,192,86752,1,8,0:0:0:0:
320,192,86752,1,2,0:0:0:0:
64,192,87068,1,2,0:0:0:0:
320,192,87068,1,8,0:0:0:0:
448,192,87068,1,4,0:0:0:0:
64,192,87305,1,8,0:0:0:0:
192,192,87305,1,2,0:0:0:0:
448,192,87305,1,4,0:0:0:0:
64,192,87542,1,8,0:0:0:0:
320,192,87542,1,2,0:0:0:0:
448,192,87542,1,4,0:0:0:0:
64,192,87700,1,2,0:0:0:0:
192,192,87700,1,8,0:0:0:0:
448,192,87700,1,4,0:0:0:0:
64,192,87937,1,2,0:0:0:0:
320,192,87937,1,8,0:0:0:0:
448,192,87937,1,4,0:0:0:0:
64,192,88174,1,2,0:0:0:0:
192,192,88174,1,8,0:0:0:0:
448,192,88174,1,4,0:0:0:0:
