osu file format v14

[General]
AudioFilename: audio.mp3
AudioLeadIn: 0
PreviewTime: 44495
Countdown: 0
SampleSet: Drum
StackLeniency: 0.7
Mode: 3
LetterboxInBreaks: 0
SpecialStyle: 0
WidescreenStoryboard: 1

[Editor]
DistanceSpacing: 1.2
BeatDivisor: 4
GridSize: 4
TimelineZoom: 2.6

[Metadata]
Title:100% Chu~Gakusei (TV Size)
TitleUnicode:100%ちゅ~学生 (TV Size)
Artist:Nanamori-chu * Goraku-bu
ArtistUnicode:七森中☆ごらく部
Creator:MapleSyrup-
Version:Normal
Source:ゆるゆり♪♪
Tags:ending ed akaza akari toshinou kyouko funami yui yoshikawa chinatsu shiori mikami otsubo yuka tsuda minami okubo rumi jpop j-pop anime japanese yuru yuri yuruyuri♪♪ yryr season 2 II happy go lily PCCG-70138 歳納京子 大坪由佳 赤座あかり 三上枝織 船見結衣 津田美波 吉川ちなつ 大久保瑠美 dudehacker Drum-Hitnormal
BeatmapID:2083277
BeatmapSetID:989247

[Difficulty]
HPDrainRate:7.5
CircleSize:7
OverallDifficulty:7
ApproachRate:5
SliderMultiplier:1.4
SliderTickRate:1

[Events]
//Background and Video events
0,0,"yuru yuri wallpaper.jpg",0,0
//Break Periods
//Storyboard Layer 0 (Background)
//Storyboard Layer 1 (Fail)
//Storyboard Layer 2 (Pass)
//Storyboard Layer 3 (Foreground)
//Storyboard Layer 4 (Overlay)
//Storyboard Sound Samples
Sample,7638,0,"bell2.wav",30
Sample,10495,0,"bell2.wav",30
Sample,20781,0,"bell2.wav",30
Sample,21352,0,"bell2.wav",30
Sample,24781,0,"bell2.wav",30
Sample,24924,0,"bell2.wav",30
Sample,26924,0,"bell2.wav",30
Sample,27067,0,"bell2.wav",30
Sample,27209,0,"bell2.wav",30
Sample,29352,0,"bell2.wav",30
Sample,29495,0,"bell2.wav",30
Sample,45352,0,"bell2.wav",30
Sample,46495,0,"bell2.wav",30
Sample,47638,0,"bell2.wav",30
Sample,48781,0,"bell2.wav",30
Sample,49924,0,"bell2.wav",30
Sample,51067,0,"bell2.wav",30
Sample,52209,0,"bell2.wav",30
Sample,54495,0,"bell2.wav",30
Sample,55638,0,"bell2.wav",30
Sample,56781,0,"bell2.wav",30
Sample,57924,0,"bell2.wav",30
Sample,59067,0,"bell2.wav",30
Sample,60209,0,"bell2.wav",30
Sample,61352,0,"bell2.wav",30
Sample,62495,0,"bell2.wav",30
Sample,67067,0,"bell2.wav",30
Sample,69352,0,"bell2.wav",30
Sample,71638,0,"bell2.wav",30
Sample,78495,0,"bell2.wav",30
Sample,81352,0,"bell2.wav",30

[TimingPoints]
1067,285.714285714286,4,3,1,70,1,0

[HitObjects]
36,192,1067,1,0,0:0:0:70:LR_Tom Drop.wav
182,192,1067,1,0,0:0:0:70:normal-hitwhistle.wav
36,192,1352,1,0,0:0:0:70:LR_Tom Drop.wav
182,192,1352,1,0,0:0:0:70:normal-hitwhistle.wav
329,192,1638,1,0,0:0:0:70:LR_Tom Drop.wav
475,192,1638,1,0,0:0:0:70:normal-hitwhistle.wav
36,192,1781,1,0,0:0:0:70:LR_Tom Drop.wav
182,192,1781,1,0,0:0:0:70:normal-hitwhistle.wav
329,192,1924,1,0,0:0:0:70:LR_Tom Drop.wav
475,192,1924,1,0,0:0:0:70:normal-hitwhistle.wav
109,192,2209,1,0,0:0:0:70:LR_Tom Drop.wav
182,192,2209,1,0,0:0:0:70:normal-hitwhistle.wav
109,192,2352,1,0,0:0:0:70:LR_Tom Drop.wav
182,192,2352,1,0,0:0:0:70:normal-hitwhistle.wav
329,192,2495,1,0,0:0:0:70:LR_Tom Drop.wav
402,192,2495,1,0,0:0:0:70:normal-hitwhistle.wav
329,192,2638,1,0,0:0:0:70:LR_Tom Drop.wav
402,192,2638,1,0,0:0:0:70:normal-hitwhistle.wav
36,192,2924,1,2,0:0:0:0:
256,192,2924,1,0,0:0:0:0:
109,192,3067,1,8,0:0:0:0:
182,192,3209,1,4,0:0:0:0:
329,192,3209,128,2,3638:0:0:0:0:
475,192,3209,1,0,0:0:0:0:
36,192,3638,1,0,0:0:0:30:bell2.wav
182,192,3924,1,0,0:0:0:0:
36,192,4209,1,0,0:0:0:30:bell2.wav
182,192,4352,1,2,0:0:0:0:
402,192,4352,128,4,4781:0:0:0:0:
109,192,4781,1,0,0:0:0:30:bell2.wav
256,192,5067,1,0,0:0:0:0:
109,192,5352,1,0,0:0:0:30:bell2.wav
256,192,5495,1,4,0:0:0:0:
329,192,5495,1,2,0:0:0:0:
475,192,5495,128,0,5924:0:0:0:0:
182,192,5924,1,0,0:0:0:30:bell2.wav
329,192,6209,1,0,0:0:0:0:
182,192,6495,1,0,0:0:0:30:bell2.wav
36,192,6638,128,2,6924:0:0:0:0:
256,192,6638,1,4,0:0:0:0:
475,192,6924,1,2,0:0:0:0:
182,192,7067,1,8,0:0:0:0:
329,192,7067,1,0,0:0:0:30:bell2.wav
36,192,7209,1,0,0:0:0:70:Tom1.wav
256,192,7352,1,0,0:0:0:70:Tom2.wav
182,192,7495,1,0,0:0:0:30:bell2.wav
329,192,7495,1,0,0:0:0:0:
329,192,7638,1,8,0:0:0:0:
36,192,7781,1,2,0:0:0:0:
109,192,7781,1,4,0:0:0:0:
475,192,7781,128,0,8209:0:0:0:0:
36,192,8209,1,8,0:0:0:0:
182,192,8209,1,0,0:0:0:30:bell2.wav
329,192,8495,1,0,0:0:0:0:
36,192,8781,1,8,0:0:0:0:
182,192,8781,1,0,0:0:0:30:bell2.wav
256,192,8924,1,2,0:0:0:0:
402,192,8924,128,4,9352:0:0:0:0:
36,192,9209,1,2,0:0:0:0:
109,192,9352,1,8,0:0:0:0:
256,192,9352,1,0,0:0:0:30:bell2.wav
402,192,9638,1,0,0:0:0:0:
109,192,9924,1,8,0:0:0:0:
256,192,9924,1,0,0:0:0:30:bell2.wav
329,192,10067,1,2,0:0:0:0:
402,192,10067,1,4,0:0:0:0:
475,192,10067,128,0,10352:0:0:0:0:
182,192,10352,1,2,0:0:0:0:
329,192,10495,1,8,0:0:0:0:
182,192,10638,1,0,0:0:0:70:Tom1.wav
109,192,10781,1,0,0:0:0:70:Tom2.wav
329,192,10781,1,0,0:0:0:0:
329,192,10924,1,0,0:0:0:70:Tom3.wav
182,192,11067,1,0,0:0:0:30:bell2.wav
402,192,11067,1,0,0:0:0:0:
182,192,11209,1,0,0:0:0:0:
36,192,11352,1,2,0:0:0:0:
329,192,11352,1,4,0:0:0:0:
475,192,11352,1,0,0:0:0:0:
475,192,11924,1,0,0:0:0:0:
402,192,12067,1,0,0:0:0:0:
329,192,12209,1,0,0:0:0:0:
256,192,12352,1,0,0:0:0:0:
36,192,12495,1,2,0:0:0:0:
182,192,12495,1,4,0:0:0:0:
475,192,12495,1,0,0:0:0:0:
329,192,12781,1,8,0:0:0:0:
475,192,12781,1,0,0:0:0:30:bell2.wav
109,192,13067,1,0,0:0:0:0:
182,192,13209,1,2,0:0:0:0:
329,192,13352,1,8,0:0:0:0:
475,192,13352,1,0,0:0:0:30:bell2.wav
402,192,13638,1,2,0:0:0:0:
36,192,13924,1,8,0:0:0:0:
182,192,13924,1,0,0:0:0:30:bell2.wav
402,192,14209,1,0,0:0:0:0:
329,192,14352,1,2,0:0:0:0:
109,192,14495,1,8,0:0:0:0:
182,192,14495,1,0,0:0:0:30:bell2.wav
256,192,14781,1,2,0:0:0:0:
402,192,15067,1,8,0:0:0:0:
475,192,15067,1,0,0:0:0:30:bell2.wav
36,192,15352,1,0,0:0:0:0:
182,192,15495,1,2,0:0:0:0:
329,192,15638,1,8,0:0:0:0:
475,192,15638,1,0,0:0:0:30:bell2.wav
109,192,15924,1,2,0:0:0:0:
329,192,16209,1,8,0:0:0:0:
475,192,16209,1,0,0:0:0:30:bell2.wav
182,192,16352,1,2,0:0:0:0:
182,192,16638,1,2,0:0:0:0:
402,192,16781,1,8,0:0:0:0:
475,192,16781,1,0,0:0:0:30:bell2.wav
256,192,16924,1,0,0:0:0:0:
36,192,17067,1,4,0:0:0:0:
109,192,17067,1,2,0:0:0:0:
329,192,17067,1,0,0:0:0:0:
182,192,17352,1,8,0:0:0:0:
329,192,17352,1,0,0:0:0:30:bell2.wav
36,192,17638,1,0,0:0:0:0:
182,192,17781,1,2,0:0:0:0:
329,192,17924,1,8,0:0:0:0:
475,192,17924,1,0,0:0:0:30:bell2.wav
475,192,18209,1,2,0:0:0:0:
182,192,18495,1,8,0:0:0:0:
329,192,18495,1,0,0:0:0:30:bell2.wav
475,192,18781,1,0,0:0:0:0:
329,192,18924,1,2,0:0:0:0:
36,192,19067,1,8,0:0:0:0:
182,192,19067,1,0,0:0:0:30:bell2.wav
109,192,19352,1,2,0:0:0:0:
256,192,19638,1,8,0:0:0:0:
402,192,19638,1,0,0:0:0:30:bell2.wav
109,192,19924,1,0,0:0:0:0:
256,192,20067,1,2,0:0:0:0:
402,192,20209,1,8,0:0:0:0:
475,192,20209,1,0,0:0:0:30:bell2.wav
36,192,20495,1,2,0:0:0:0:
329,192,20495,1,0,0:0:0:0:
256,192,20638,1,0,0:0:0:0:
182,192,20781,1,8,0:0:0:0:
109,192,20924,1,2,0:0:0:0:
402,192,21067,1,0,0:0:0:0:
475,192,21067,1,0,0:0:0:0:
329,192,21209,1,2,0:0:0:0:
256,192,21352,1,8,0:0:0:0:
182,192,21495,1,2,0:0:0:0:
36,192,21638,1,8,0:0:0:0:
109,192,21638,1,0,0:0:0:30:bell2.wav
182,192,21924,1,8,0:0:0:0:
329,192,21924,1,0,0:0:0:30:bell2.wav
402,192,22209,1,8,0:0:0:0:
475,192,22209,1,0,0:0:0:30:bell2.wav
256,192,22495,128,0,22781:0:0:0:0:
36,192,22781,1,2,0:0:0:0:
402,192,22781,1,4,0:0:0:0:
182,192,22924,128,2,23067:0:0:0:0:
329,192,23067,1,8,0:0:0:0:
475,192,23067,1,0,0:0:0:0:
109,192,23352,1,2,0:0:0:0:
329,192,23495,128,2,23638:0:0:0:0:
36,192,23638,1,8,0:0:0:0:
182,192,23638,1,0,0:0:0:0:
256,192,23924,1,2,0:0:0:0:
109,192,24067,128,2,24209:0:0:0:0:
402,192,24209,1,8,0:0:0:0:
109,192,24352,128,2,24638:0:0:0:0:
256,192,24352,1,4,0:0:0:0:
182,192,24638,1,8,0:0:0:0:
475,192,24638,1,0,0:0:0:30:bell2.wav
329,192,24781,1,8,0:0:0:0:
182,192,24924,1,8,0:0:0:0:
475,192,25067,1,2,0:0:0:0:
109,192,25209,128,2,25352:0:0:0:0:
256,192,25352,1,8,0:0:0:0:
402,192,25352,1,0,0:0:0:0:
36,192,25638,1,2,0:0:0:0:
402,192,25781,128,2,25924:0:0:0:0:
109,192,25924,1,8,0:0:0:0:
256,192,25924,1,0,0:0:0:0:
182,192,26209,1,2,0:0:0:0:
475,192,26352,128,2,26495:0:0:0:0:
36,192,26495,1,8,0:0:0:0:
256,192,26638,1,2,0:0:0:0:
475,192,26638,128,4,26924:0:0:0:0:
329,192,26924,1,8,0:0:0:0:
182,192,27067,1,8,0:0:0:0:
329,192,27209,1,8,0:0:0:0:
36,192,27352,1,4,0:0:0:0:
109,192,27352,1,2,0:0:0:0:
329,192,27495,128,2,27638:0:0:0:0:
36,192,27638,1,8,0:0:0:0:
256,192,27638,1,0,0:0:0:0:
402,192,27924,1,2,0:0:0:0:
182,192,28067,128,2,28209:0:0:0:0:
256,192,28209,1,8,0:0:0:0:
475,192,28209,1,0,0:0:0:0:
329,192,28495,1,2,0:0:0:0:
182,192,28638,128,2,28781:0:0:0:0:
329,192,28781,1,8,0:0:0:0:
36,192,28924,1,4,0:0:0:0:
182,192,28924,128,2,29209:0:0:0:0:
402,192,29209,1,8,0:0:0:0:
475,192,29209,1,0,0:0:0:30:bell2.wav
109,192,29352,1,8,0:0:0:0:
402,192,29495,1,8,0:0:0:0:
36,192,29638,1,2,0:0:0:0:
256,192,29781,128,2,29924:0:0:0:0:
402,192,29924,1,8,0:0:0:0:
475,192,29924,1,0,0:0:0:0:
475,192,30209,1,2,0:0:0:0:
256,192,30352,128,2,30495:0:0:0:0:
36,192,30495,1,8,0:0:0:0:
109,192,30495,1,0,0:0:0:0:
256,192,30781,1,2,0:0:0:0:
402,192,30781,1,4,0:0:0:0:
36,192,30924,128,2,31067:0:0:0:0:
329,192,31067,1,8,0:0:0:0:
475,192,31067,1,0,0:0:0:0:
36,192,31209,128,6,31638:0:0:0:0:
329,192,31495,1,8,0:0:0:0:
402,192,31495,1,0,0:0:0:30:bell2.wav
182,192,31638,1,0,0:0:0:70:Tom2.wav
109,192,31781,1,0,0:0:0:70:Tom3.wav
256,192,31924,1,2,0:0:0:0:
402,192,31924,1,4,0:0:0:0:
475,192,31924,1,0,0:0:0:0:
109,192,32352,1,2,0:0:0:0:
256,192,32495,1,2,0:0:0:0:
402,192,32495,1,0,0:0:0:0:
109,192,32781,1,8,0:0:0:0:
402,192,32781,1,0,0:0:0:30:bell2.wav
329,192,33067,1,2,0:0:0:0:
475,192,33067,1,0,0:0:0:0:
402,192,33495,1,2,0:0:0:0:
109,192,33638,1,2,0:0:0:0:
256,192,33638,1,0,0:0:0:0:
109,192,33924,1,8,0:0:0:0:
402,192,33924,1,0,0:0:0:30:bell2.wav
36,192,34209,128,2,34781:0:0:0:0:
256,192,34209,1,4,0:0:0:0:
475,192,34209,1,0,0:0:0:0:
402,192,34638,1,2,0:0:0:0:
109,192,34781,128,2,35352:0:0:0:0:
182,192,34781,1,4,0:0:0:0:
329,192,34781,1,0,0:0:0:0:
475,192,35209,1,0,0:0:0:0:
182,192,35352,128,2,35924:0:0:0:0:
256,192,35352,1,4,0:0:0:0:
402,192,35352,1,0,0:0:0:0:
329,192,35781,1,2,0:0:0:0:
36,192,35924,1,2,0:0:0:0:
256,192,35924,128,4,36209:0:0:0:0:
475,192,35924,1,0,0:0:0:0:
36,192,36209,1,8,0:0:0:0:
182,192,36209,1,0,0:0:0:30:bell2.wav
182,192,36495,1,2,0:0:0:0:
329,192,36495,1,4,0:0:0:0:
475,192,36495,128,0,37638:0:0:0:0:
182,192,36924,1,2,0:0:0:0:
109,192,37067,1,2,0:0:0:0:
36,192,37352,1,12,0:0:0:0:
182,192,37352,1,0,0:0:0:30:bell2.wav
36,192,37638,1,2,0:0:0:0:
402,192,37638,1,4,0:0:0:0:
329,192,37781,1,0,0:0:0:0:
109,192,37924,1,8,0:0:0:0:
182,192,37924,1,0,0:0:0:0:
329,192,38067,1,0,0:0:0:0:
402,192,38209,1,2,0:0:0:0:
36,192,38352,1,2,0:0:0:0:
182,192,38495,1,8,0:0:0:0:
329,192,38495,1,0,0:0:0:30:bell2.wav
475,192,38638,1,0,0:0:0:0:
36,192,38781,1,4,0:0:0:0:
256,192,38781,1,0,0:0:0:70:Tom1.wav
329,192,38924,1,2,0:0:0:0:
402,192,39067,1,2,0:0:0:0:
109,192,39209,1,0,0:0:0:70:Tom2.wav
182,192,39352,1,2,0:0:0:0:
256,192,39495,1,2,0:0:0:0:
36,192,39638,1,8,0:0:0:0:
329,192,39638,1,0,0:0:0:0:
402,192,39781,1,2,0:0:0:0:
256,192,39924,1,4,0:0:0:0:
475,192,39924,1,0,0:0:0:70:Tom1.wav
182,192,40067,1,2,0:0:0:0:
109,192,40209,1,2,0:0:0:0:
402,192,40352,1,0,0:0:0:70:Tom2.wav
329,192,40495,1,2,0:0:0:0:
256,192,40638,1,2,0:0:0:0:
182,192,40781,1,8,0:0:0:0:
475,192,40781,1,0,0:0:0:0:
109,192,40924,1,2,0:0:0:0:
36,192,41067,1,4,0:0:0:0:
402,192,41067,1,0,0:0:0:70:Tom1.wav
182,192,41209,1,2,0:0:0:0:
256,192,41352,1,2,0:0:0:0:
329,192,41495,1,0,0:0:0:70:Tom2.wav
109,192,41638,1,2,0:0:0:0:
256,192,41781,1,2,0:0:0:0:
402,192,41924,1,8,0:0:0:0:
475,192,41924,1,0,0:0:0:0:
182,192,42067,1,2,0:0:0:0:
36,192,42209,1,2,0:0:0:0:
109,192,42209,1,4,0:0:0:0:
475,192,42209,128,0,43638:0:0:0:0:
402,192,43638,1,2,0:0:0:0:
256,192,43924,1,2,0:0:0:0:
109,192,44209,1,2,0:0:0:0:
36,192,44495,1,2,0:0:0:0:
256,192,44495,1,4,0:0:0:0:
475,192,44495,1,0,0:0:0:0:
182,192,44781,1,8,0:0:0:0:
329,192,44781,1,0,0:0:0:30:bell2.wav
182,192,45067,1,2,0:0:0:0:
475,192,45067,1,0,0:0:0:0:
402,192,45209,1,2,0:0:0:0:
329,192,45352,1,8,0:0:0:0:
36,192,45495,1,2,0:0:0:0:
109,192,45495,1,4,0:0:0:0:
256,192,45495,1,0,0:0:0:0:
36,192,45781,1,2,0:0:0:0:
182,192,45924,1,8,0:0:0:0:
329,192,45924,1,0,0:0:0:30:bell2.wav
109,192,46209,1,2,0:0:0:0:
402,192,46209,1,0,0:0:0:0:
329,192,46352,1,2,0:0:0:0:
109,192,46495,1,8,0:0:0:0:
182,192,46638,1,2,0:0:0:0:
256,192,46781,1,4,0:0:0:0:
402,192,46781,1,2,0:0:0:0:
475,192,46781,1,0,0:0:0:0:
109,192,47067,1,8,0:0:0:0:
329,192,47067,1,0,0:0:0:30:bell2.wav
109,192,47352,1,2,0:0:0:0:
475,192,47352,1,0,0:0:0:0:
182,192,47495,1,2,0:0:0:0:
256,192,47638,1,8,0:0:0:0:
36,192,47781,1,4,0:0:0:0:
329,192,47781,1,2,0:0:0:0:
402,192,47781,1,0,0:0:0:0:
402,192,48067,1,2,0:0:0:0:
36,192,48209,1,8,0:0:0:0:
182,192,48209,1,0,0:0:0:30:bell2.wav
109,192,48495,1,0,0:0:0:0:
402,192,48495,1,0,0:0:0:0:
256,192,48638,1,2,0:0:0:0:
475,192,48781,1,8,0:0:0:0:
329,192,48924,1,0,0:0:0:0:
36,192,49067,1,2,0:0:0:0:
109,192,49067,1,4,0:0:0:0:
256,192,49067,1,0,0:0:0:0:
182,192,49352,1,8,0:0:0:0:
329,192,49352,1,0,0:0:0:30:bell2.wav
182,192,49638,1,2,0:0:0:0:
475,192,49638,1,0,0:0:0:0:
256,192,49781,1,2,0:0:0:0:
109,192,49924,1,8,0:0:0:0:
182,192,50067,1,2,0:0:0:0:
329,192,50067,1,4,0:0:0:0:
475,192,50067,1,0,0:0:0:0:
329,192,50352,1,2,0:0:0:0:
36,192,50495,1,8,0:0:0:0:
256,192,50495,1,0,0:0:0:30:bell2.wav
109,192,50781,1,2,0:0:0:0:
475,192,50781,1,0,0:0:0:0:
329,192,50924,1,2,0:0:0:0:
36,192,51067,1,8,0:0:0:0:
182,192,51209,1,2,0:0:0:0:
256,192,51352,1,4,0:0:0:0:
402,192,51352,1,2,0:0:0:0:
475,192,51352,1,0,0:0:0:0:
36,192,51638,1,8,0:0:0:0:
256,192,51638,1,0,0:0:0:30:bell2.wav
182,192,51924,1,2,0:0:0:0:
329,192,51924,1,0,0:0:0:0:
182,192,52067,1,2,0:0:0:0:
402,192,52209,1,8,0:0:0:0:
36,192,52352,1,4,0:0:0:0:
182,192,52352,1,2,0:0:0:0:
329,192,52352,1,0,0:0:0:0:
109,192,52638,1,8,0:0:0:0:
256,192,52638,1,0,0:0:0:30:bell2.wav
402,192,52638,1,0,0:0:0:0:
182,192,52924,1,8,0:0:0:0:
329,192,52924,1,0,0:0:0:30:bell2.wav
475,192,52924,1,0,0:0:0:0:
402,192,53209,1,2,0:0:0:0:
109,192,53352,1,8,0:0:0:0:
256,192,53352,1,0,0:0:0:30:bell2.wav
36,192,53638,1,2,0:0:0:0:
256,192,53638,1,4,0:0:0:0:
475,192,53638,1,0,0:0:0:0:
182,192,53924,1,8,0:0:0:0:
329,192,53924,1,0,0:0:0:30:bell2.wav
36,192,54209,1,2,0:0:0:0:
329,192,54209,1,0,0:0:0:0:
109,192,54352,1,2,0:0:0:0:
182,192,54495,1,8,0:0:0:0:
256,192,54638,1,2,0:0:0:0:
402,192,54638,1,4,0:0:0:0:
475,192,54638,1,0,0:0:0:0:
475,192,54924,1,2,0:0:0:0:
182,192,55067,1,8,0:0:0:0:
329,192,55067,1,0,0:0:0:30:bell2.wav
109,192,55352,1,2,0:0:0:0:
402,192,55352,1,0,0:0:0:0:
182,192,55495,1,2,0:0:0:0:
402,192,55638,1,8,0:0:0:0:
329,192,55781,1,2,0:0:0:0:
36,192,55924,1,4,0:0:0:0:
109,192,55924,1,2,0:0:0:0:
256,192,55924,1,0,0:0:0:0:
182,192,56209,1,8,0:0:0:0:
402,192,56209,1,0,0:0:0:30:bell2.wav
36,192,56495,1,2,0:0:0:0:
402,192,56495,1,0,0:0:0:0:
329,192,56638,1,2,0:0:0:0:
256,192,56781,1,8,0:0:0:0:
109,192,56924,1,4,0:0:0:0:
182,192,56924,1,2,0:0:0:0:
475,192,56924,1,0,0:0:0:0:
109,192,57209,1,2,0:0:0:0:
329,192,57352,1,8,0:0:0:0:
475,192,57352,1,0,0:0:0:30:bell2.wav
109,192,57638,1,0,0:0:0:0:
402,192,57638,1,0,0:0:0:0:
256,192,57781,1,2,0:0:0:0:
36,192,57924,1,8,0:0:0:0:
182,192,58067,1,0,0:0:0:0:
256,192,58209,1,2,0:0:0:0:
402,192,58209,1,4,0:0:0:0:
475,192,58209,1,0,0:0:0:0:
182,192,58495,1,8,0:0:0:0:
329,192,58495,1,0,0:0:0:30:bell2.wav
36,192,58781,1,2,0:0:0:0:
329,192,58781,1,0,0:0:0:0:
256,192,58924,1,2,0:0:0:0:
402,192,59067,1,8,0:0:0:0:
36,192,59209,1,2,0:0:0:0:
182,192,59209,1,4,0:0:0:0:
329,192,59209,1,0,0:0:0:0:
182,192,59495,1,2,0:0:0:0:
256,192,59638,1,8,0:0:0:0:
475,192,59638,1,0,0:0:0:30:bell2.wav
36,192,59924,1,2,0:0:0:0:
402,192,59924,1,0,0:0:0:0:
182,192,60067,1,2,0:0:0:0:
475,192,60209,1,8,0:0:0:0:
329,192,60352,1,2,0:0:0:0:
36,192,60495,1,2,0:0:0:0:
109,192,60495,1,0,0:0:0:0:
256,192,60495,1,0,0:0:0:0:
256,192,60781,1,8,0:0:0:0:
475,192,60781,1,0,0:0:0:30:bell2.wav
182,192,61067,1,2,0:0:0:0:
329,192,61067,1,0,0:0:0:0:
329,192,61209,1,2,0:0:0:0:
109,192,61352,1,8,0:0:0:0:
182,192,61495,1,8,0:0:0:0:
329,192,61495,1,0,0:0:0:30:bell2.wav
475,192,61495,1,0,0:0:0:0:
109,192,61781,1,8,0:0:0:0:
256,192,61781,1,0,0:0:0:30:bell2.wav
402,192,61781,1,0,0:0:0:0:
36,192,62067,1,8,0:0:0:0:
182,192,62067,1,0,0:0:0:30:bell2.wav
329,192,62067,1,0,0:0:0:0:
36,192,62352,1,0,0:0:0:70:Tom1.wav
182,192,62352,1,0,0:0:0:0:
256,192,62495,1,0,0:0:0:70:Tom2.wav
329,192,62638,1,2,0:0:0:0:
475,192,62638,1,0,0:0:0:0:
36,192,62781,1,2,0:0:0:0:
109,192,62781,1,4,0:0:0:0:
182,192,62781,1,0,0:0:0:0:
182,192,63067,1,8,0:0:0:0:
402,192,63067,1,0,0:0:0:30:bell2.wav
329,192,63352,1,2,0:0:0:0:
475,192,63495,1,2,0:0:0:0:
109,192,63638,1,8,0:0:0:0:
256,192,63638,1,0,0:0:0:30:bell2.wav
36,192,63924,1,2,0:0:0:0:
182,192,63924,1,4,0:0:0:0:
402,192,63924,1,0,0:0:0:0:
182,192,64209,1,8,0:0:0:0:
475,192,64209,1,0,0:0:0:30:bell2.wav
329,192,64352,1,8,0:0:0:0:
109,192,64495,1,10,0:0:0:0:
402,192,64495,1,0,0:0:0:30:bell2.wav
256,192,64638,1,8,0:0:0:0:
36,192,64781,1,2,0:0:0:0:
329,192,64781,1,0,0:0:0:30:bell2.wav
182,192,64924,1,8,0:0:0:0:
256,192,65067,1,4,0:0:0:0:
402,192,65067,1,2,0:0:0:0:
475,192,65067,1,0,0:0:0:0:
256,192,65495,1,0,0:0:0:70:LR_Tom Drop.wav
475,192,65495,1,0,0:0:0:0:
182,192,65638,1,2,0:0:0:0:
402,192,65638,1,0,0:0:0:30:bell2.wav
109,192,65781,1,2,0:0:0:0:
329,192,65781,1,0,0:0:0:30:bell2.wav
36,192,66067,1,0,0:0:0:70:LR_Tom Drop.wav
256,192,66067,1,0,0:0:0:0:
109,192,66209,1,2,0:0:0:0:
329,192,66209,1,0,0:0:0:30:bell2.wav
182,192,66352,1,2,0:0:0:0:
402,192,66352,1,0,0:0:0:30:bell2.wav
36,192,66638,1,8,0:0:0:0:
475,192,66638,1,0,0:0:0:30:bell2.wav
256,192,66924,1,8,0:0:0:0:
402,192,66924,1,0,0:0:0:30:bell2.wav
109,192,67067,1,2,0:0:0:0:
329,192,67209,1,8,0:0:0:0:
475,192,67209,1,0,0:0:0:0:
36,192,67352,1,2,0:0:0:0:
182,192,67352,1,4,0:0:0:0:
256,192,67352,1,0,0:0:0:0:
36,192,67781,1,0,0:0:0:70:LR_Tom Drop.wav
329,192,67781,1,0,0:0:0:0:
109,192,67924,1,2,0:0:0:0:
402,192,67924,1,0,0:0:0:30:bell2.wav
182,192,68067,1,2,0:0:0:0:
475,192,68067,1,0,0:0:0:30:bell2.wav
182,192,68352,1,0,0:0:0:70:LR_Tom Drop.wav
475,192,68352,1,0,0:0:0:0:
109,192,68495,1,2,0:0:0:0:
402,192,68495,1,0,0:0:0:30:bell2.wav
36,192,68638,1,2,0:0:0:0:
329,192,68638,1,0,0:0:0:30:bell2.wav
36,192,68924,1,8,0:0:0:0:
475,192,68924,1,0,0:0:0:30:bell2.wav
109,192,69209,1,8,0:0:0:0:
256,192,69209,1,0,0:0:0:30:bell2.wav
402,192,69352,1,2,0:0:0:0:
36,192,69495,1,8,0:0:0:0:
182,192,69495,1,0,0:0:0:0:
256,192,69638,1,2,0:0:0:0:
329,192,69638,1,4,0:0:0:0:
475,192,69638,1,0,0:0:0:0:
329,192,70067,1,0,0:0:0:70:LR_Tom Drop.wav
402,192,70067,1,0,0:0:0:0:
109,192,70209,1,2,0:0:0:0:
182,192,70209,1,0,0:0:0:30:bell2.wav
329,192,70352,1,2,0:0:0:0:
475,192,70352,1,0,0:0:0:30:bell2.wav
109,192,70638,1,0,0:0:0:70:LR_Tom Drop.wav
182,192,70638,1,0,0:0:0:0:
329,192,70781,1,2,0:0:0:0:
402,192,70781,1,0,0:0:0:30:bell2.wav
36,192,70924,1,2,0:0:0:0:
182,192,70924,1,0,0:0:0:30:bell2.wav
329,192,71209,1,8,0:0:0:0:
475,192,71209,1,0,0:0:0:30:bell2.wav
109,192,71495,1,8,0:0:0:0:
256,192,71495,1,0,0:0:0:30:bell2.wav
475,192,71638,1,2,0:0:0:0:
182,192,71781,1,8,0:0:0:0:
329,192,71781,1,0,0:0:0:0:
36,192,71924,1,4,0:0:0:0:
109,192,71924,1,2,0:0:0:0:
402,192,71924,1,0,0:0:0:0:
36,192,72352,1,0,0:0:0:70:LR_Tom Drop.wav
182,192,72352,1,0,0:0:0:0:
329,192,72495,1,2,0:0:0:0:
475,192,72495,1,0,0:0:0:30:bell2.wav
109,192,72638,1,2,0:0:0:0:
182,192,72638,1,0,0:0:0:30:bell2.wav
402,192,72924,1,0,0:0:0:70:LR_Tom Drop.wav
475,192,72924,1,0,0:0:0:0:
36,192,73067,1,2,0:0:0:0:
182,192,73067,1,0,0:0:0:30:bell2.wav
329,192,73067,128,0,74067:0:0:0:0:
36,192,73781,1,2,0:0:0:0:
109,192,73924,1,8,0:0:0:0:
182,192,74067,1,4,0:0:0:0:
256,192,74067,1,2,0:0:0:0:
475,192,74067,128,0,74495:0:0:0:0:
36,192,74495,1,0,0:0:0:30:bell2.wav
36,192,75067,1,0,0:0:0:30:bell2.wav
182,192,75209,1,2,0:0:0:0:
402,192,75209,128,4,75638:0:0:0:0:
109,192,75638,1,0,0:0:0:30:bell2.wav
109,192,76209,1,0,0:0:0:30:bell2.wav
256,192,76352,1,4,0:0:0:0:
402,192,76352,1,2,0:0:0:0:
475,192,76352,128,0,76781:0:0:0:0:
182,192,76781,1,0,0:0:0:30:bell2.wav
182,192,77352,1,0,0:0:0:30:bell2.wav
36,192,77495,128,2,77781:0:0:0:0:
402,192,77495,1,4,0:0:0:0:
475,192,77781,1,2,0:0:0:0:
182,192,77924,1,8,0:0:0:0:
329,192,77924,1,0,0:0:0:30:bell2.wav
36,192,78067,1,0,0:0:0:70:Tom1.wav
256,192,78209,1,0,0:0:0:70:Tom2.wav
182,192,78352,1,0,0:0:0:30:bell2.wav
329,192,78352,1,0,0:0:0:0:
329,192,78495,1,8,0:0:0:0:
36,192,78638,1,2,0:0:0:0:
109,192,78638,1,4,0:0:0:0:
475,192,78638,128,0,79067:0:0:0:0:
36,192,79067,1,8,0:0:0:0:
182,192,79067,1,0,0:0:0:30:bell2.wav
36,192,79638,1,8,0:0:0:0:
182,192,79638,1,0,0:0:0:30:bell2.wav
256,192,79781,1,2,0:0:0:0:
402,192,79781,128,4,80209:0:0:0:0:
109,192,80209,1,8,0:0:0:0:
256,192,80209,1,0,0:0:0:30:bell2.wav
109,192,80781,1,8,0:0:0:0:
256,192,80781,1,0,0:0:0:30:bell2.wav
329,192,80924,1,2,0:0:0:0:
402,192,80924,1,4,0:0:0:0:
475,192,80924,128,0,81209:0:0:0:0:
182,192,81209,1,2,0:0:0:0:
329,192,81352,1,8,0:0:0:0:
182,192,81495,1,0,0:0:0:70:Tom1.wav
109,192,81638,1,0,0:0:0:70:Tom2.wav
329,192,81638,1,0,0:0:0:0:
329,192,81781,1,0,0:0:0:70:Tom3.wav
182,192,81924,1,0,0:0:0:30:bell2.wav
402,192,81924,1,0,0:0:0:0:
182,192,82067,1,0,0:0:0:0:
36,192,82209,1,2,0:0:0:0:
329,192,82209,1,4,0:0:0:0:
475,192,82209,1,0,0:0:0:0:
475,192,82781,1,0,0:0:0:0:
402,192,82924,1,0,0:0:0:0:
329,192,83067,1,0,0:0:0:0:
256,192,83209,1,0,0:0:0:0:
36,192,83352,1,2,0:0:0:0:
182,192,83352,1,4,0:0:0:0:
475,192,83352,1,0,0:0:0:0:
329,192,83638,1,8,0:0:0:0:
475,192,83638,1,0,0:0:0:30:bell2.wav
109,192,83924,1,0,0:0:0:0:
182,192,84067,1,2,0:0:0:0:
329,192,84209,1,8,0:0:0:0:
475,192,84209,1,0,0:0:0:30:bell2.wav
402,192,84495,1,2,0:0:0:0:
36,192,84781,1,8,0:0:0:0:
182,192,84781,1,0,0:0:0:30:bell2.wav
402,192,85067,1,0,0:0:0:0:
329,192,85209,1,2,0:0:0:0:
109,192,85352,1,8,0:0:0:0:
182,192,85352,1,0,0:0:0:30:bell2.wav
256,192,85638,1,2,0:0:0:0:
402,192,85924,1,8,0:0:0:0:
475,192,85924,1,0,0:0:0:30:bell2.wav
36,192,86209,1,0,0:0:0:0:
182,192,86352,1,2,0:0:0:0:
329,192,86495,1,8,0:0:0:0:
475,192,86495,1,0,0:0:0:30:bell2.wav
36,192,86781,1,2,0:0:0:0:
475,192,86781,1,0,0:0:0:0:
402,192,86924,1,0,0:0:0:0:
182,192,87067,1,8,0:0:0:0:
329,192,87067,1,0,0:0:0:30:bell2.wav
109,192,87209,1,2,0:0:0:0:
36,192,87352,1,8,0:0:0:0:
475,192,87352,1,0,0:0:0:0:
402,192,87495,1,2,0:0:0:0:
182,192,87638,1,8,0:0:0:0:
329,192,87638,1,0,0:0:0:30:bell2.wav
109,192,87781,1,0,0:0:0:0:
36,192,87924,128,2,89067:0:0:0:0:
256,192,87924,1,4,0:0:0:0:
475,192,87924,1,0,0:0:0:0:
182,192,89067,1,8,0:0:0:0:
329,192,89209,1,2,0:0:0:0:
475,192,89209,1,0,0:0:0:0:
