osu file format v14

[General]
AudioFilename: audio.mp3
AudioLeadIn: 0
PreviewTime: 44495
Countdown: 0
SampleSet: Drum
StackLeniency: 0.7
Mode: 3
LetterboxInBreaks: 0
SpecialStyle: 0
WidescreenStoryboard: 1

[Editor]
DistanceSpacing: 1.2
BeatDivisor: 4
GridSize: 4
TimelineZoom: 2.6

[Metadata]
Title:100% Chu~Gakusei (TV Size)
TitleUnicode:100%ちゅ~学生 (TV Size)
Artist:Nanamori-chu * Goraku-bu
ArtistUnicode:七森中☆ごらく部
Creator:MapleSyrup-
Version:Easy
Source:ゆるゆり♪♪
Tags:ending ed akaza akari toshinou kyouko funami yui yoshikawa chinatsu shiori mikami otsubo yuka tsuda minami okubo rumi jpop j-pop anime japanese yuru yuri yuruyuri♪♪ yryr season 2 II happy go lily PCCG-70138 歳納京子 大坪由佳 赤座あかり 三上枝織 船見結衣 津田美波 吉川ちなつ 大久保瑠美 dudehacker Drum-Hitnormal
BeatmapID:2083275
BeatmapSetID:989247

[Difficulty]
HPDrainRate:7
CircleSize:7
OverallDifficulty:7
ApproachRate:5
SliderMultiplier:1.4
SliderTickRate:1

[Events]
//Background and Video events
0,0,"yuru yuri wallpaper.jpg",0,0
//Break Periods
//Storyboard Layer 0 (Background)
//Storyboard Layer 1 (Fail)
//Storyboard Layer 2 (Pass)
//Storyboard Layer 3 (Foreground)
//Storyboard Layer 4 (Overlay)
//Storyboard Sound Samples
Sample,1067,0,"normal-hitwhistle.wav",70
Sample,1352,0,"normal-hitwhistle.wav",70
Sample,1638,0,"normal-hitwhistle.wav",70
Sample,1781,0,"normal-hitwhistle.wav",70
Sample,1924,0,"normal-hitwhistle.wav",70
Sample,2209,0,"normal-hitwhistle.wav",70
Sample,2352,0,"normal-hitwhistle.wav",70
Sample,2495,0,"normal-hitwhistle.wav",70
Sample,2638,0,"normal-hitwhistle.wav",70
Sample,7067,0,"bell2.wav",30
Sample,7638,0,"bell2.wav",30
Sample,8209,0,"bell2.wav",30
Sample,8781,0,"bell2.wav",30
Sample,9352,0,"bell2.wav",30
Sample,9924,0,"bell2.wav",30
Sample,10495,0,"bell2.wav",30
Sample,12781,0,"bell2.wav",30
Sample,13352,0,"bell2.wav",30
Sample,13924,0,"bell2.wav",30
Sample,14495,0,"bell2.wav",30
Sample,15067,0,"bell2.wav",30
Sample,15638,0,"bell2.wav",30
Sample,16209,0,"bell2.wav",30
Sample,16781,0,"bell2.wav",30
Sample,17352,0,"bell2.wav",30
Sample,17924,0,"bell2.wav",30
Sample,18495,0,"bell2.wav",30
Sample,19067,0,"bell2.wav",30
Sample,19638,0,"bell2.wav",30
Sample,20209,0,"bell2.wav",30
Sample,20781,0,"bell2.wav",30
Sample,21352,0,"bell2.wav",30
Sample,21924,0,"bell2.wav",30
Sample,24638,0,"bell2.wav",30
Sample,24781,0,"bell2.wav",30
Sample,24924,0,"bell2.wav",30
Sample,26924,0,"bell2.wav",30
Sample,27067,0,"bell2.wav",30
Sample,27209,0,"bell2.wav",30
Sample,29209,0,"bell2.wav",30
Sample,29352,0,"bell2.wav",30
Sample,29495,0,"bell2.wav",30
Sample,31495,0,"bell2.wav",30
Sample,32781,0,"bell2.wav",30
Sample,33924,0,"bell2.wav",30
Sample,36209,0,"bell2.wav",30
Sample,37352,0,"bell2.wav",30
Sample,38495,0,"bell2.wav",30
Sample,44781,0,"bell2.wav",30
Sample,45352,0,"bell2.wav",30
Sample,45924,0,"bell2.wav",30
Sample,46495,0,"bell2.wav",30
Sample,47067,0,"bell2.wav",30
Sample,47638,0,"bell2.wav",30
Sample,48209,0,"bell2.wav",30
Sample,48781,0,"bell2.wav",30
Sample,49352,0,"bell2.wav",30
Sample,49924,0,"bell2.wav",30
Sample,50495,0,"bell2.wav",30
Sample,51067,0,"bell2.wav",30
Sample,51638,0,"bell2.wav",30
Sample,52209,0,"bell2.wav",30
Sample,52638,0,"bell2.wav",30
Sample,53352,0,"bell2.wav",30
Sample,53924,0,"bell2.wav",30
Sample,54495,0,"bell2.wav",30
Sample,55067,0,"bell2.wav",30
Sample,55638,0,"bell2.wav",30
Sample,56209,0,"bell2.wav",30
Sample,56781,0,"bell2.wav",30
Sample,57352,0,"bell2.wav",30
Sample,57924,0,"bell2.wav",30
Sample,58495,0,"bell2.wav",30
Sample,59067,0,"bell2.wav",30
Sample,59638,0,"bell2.wav",30
Sample,60209,0,"bell2.wav",30
Sample,60781,0,"bell2.wav",30
Sample,61352,0,"bell2.wav",30
Sample,61781,0,"bell2.wav",30
Sample,62495,0,"bell2.wav",30
Sample,63067,0,"bell2.wav",30
Sample,63638,0,"bell2.wav",30
Sample,64209,0,"bell2.wav",30
Sample,64495,0,"bell2.wav",30
Sample,64781,0,"bell2.wav",30
Sample,65638,0,"bell2.wav",30
Sample,65781,0,"bell2.wav",30
Sample,66209,0,"bell2.wav",30
Sample,66352,0,"bell2.wav",30
Sample,66638,0,"bell2.wav",30
Sample,66924,0,"bell2.wav",30
Sample,67924,0,"bell2.wav",30
Sample,68067,0,"bell2.wav",30
Sample,68495,0,"bell2.wav",30
Sample,68638,0,"bell2.wav",30
Sample,68924,0,"bell2.wav",30
Sample,69209,0,"bell2.wav",30
Sample,70209,0,"bell2.wav",30
Sample,70352,0,"bell2.wav",30
Sample,70781,0,"bell2.wav",30
Sample,70924,0,"bell2.wav",30
Sample,71209,0,"bell2.wav",30
Sample,71495,0,"bell2.wav",30
Sample,72495,0,"bell2.wav",30
Sample,72638,0,"bell2.wav",30
Sample,77924,0,"bell2.wav",30
Sample,78495,0,"bell2.wav",30
Sample,79067,0,"bell2.wav",30
Sample,79638,0,"bell2.wav",30
Sample,80209,0,"bell2.wav",30
Sample,80781,0,"bell2.wav",30
Sample,81352,0,"bell2.wav",30
Sample,83638,0,"bell2.wav",30
Sample,84209,0,"bell2.wav",30
Sample,84781,0,"bell2.wav",30
Sample,85352,0,"bell2.wav",30
Sample,85924,0,"bell2.wav",30
Sample,86495,0,"bell2.wav",30

[TimingPoints]
1067,285.714285714286,4,3,1,70,1,0

[HitObjects]
109,192,1067,1,0,0:0:0:70:LR_Tom Drop.wav
182,192,1352,1,0,0:0:0:70:LR_Tom Drop.wav
402,192,1638,1,0,0:0:0:70:LR_Tom Drop.wav
256,192,1781,1,0,0:0:0:70:LR_Tom Drop.wav
109,192,1924,1,0,0:0:0:70:LR_Tom Drop.wav
36,192,2209,1,0,0:0:0:70:LR_Tom Drop.wav
182,192,2352,1,0,0:0:0:70:LR_Tom Drop.wav
329,192,2495,1,0,0:0:0:70:LR_Tom Drop.wav
475,192,2638,1,0,0:0:0:70:LR_Tom Drop.wav
109,192,2924,128,2,3209:0:0:0:0:
256,192,3209,1,4,0:0:0:0:
402,192,3209,1,2,0:0:0:0:
36,192,3638,1,0,0:0:0:30:bell2.wav
36,192,4209,1,0,0:0:0:30:bell2.wav
329,192,4352,1,2,0:0:0:0:
402,192,4352,1,4,0:0:0:0:
109,192,4781,1,0,0:0:0:30:bell2.wav
109,192,5352,1,0,0:0:0:30:bell2.wav
402,192,5495,1,4,0:0:0:0:
475,192,5495,1,2,0:0:0:0:
182,192,5924,1,0,0:0:0:30:bell2.wav
182,192,6495,1,0,0:0:0:30:bell2.wav
329,192,6638,1,2,0:0:0:0:
475,192,6638,1,4,0:0:0:0:
402,192,6924,1,2,0:0:0:0:
109,192,7067,1,8,0:0:0:0:
256,192,7352,1,0,0:0:0:70:Tom2.wav
109,192,7638,1,8,0:0:0:0:
329,192,7781,1,2,0:0:0:0:
475,192,7781,1,4,0:0:0:0:
182,192,8209,1,8,0:0:0:0:
182,192,8781,1,8,0:0:0:0:
329,192,8924,1,2,0:0:0:0:
402,192,8924,1,4,0:0:0:0:
109,192,9352,1,8,0:0:0:0:
109,192,9924,1,8,0:0:0:0:
256,192,10067,1,2,0:0:0:0:
402,192,10067,1,4,0:0:0:0:
36,192,10352,1,2,0:0:0:0:
475,192,10495,1,8,0:0:0:0:
329,192,10781,1,0,0:0:0:70:Tom2.wav
182,192,11067,1,0,0:0:0:30:bell2.wav
36,192,11352,1,2,0:0:0:0:
475,192,11352,1,4,0:0:0:0:
109,192,11924,128,0,12209:0:0:0:0:
402,192,12209,128,0,12495:0:0:0:0:
36,192,12495,1,2,0:0:0:0:
182,192,12495,1,4,0:0:0:0:
329,192,12781,1,8,0:0:0:0:
182,192,13209,1,2,0:0:0:0:
329,192,13352,1,8,0:0:0:0:
402,192,13638,1,2,0:0:0:0:
109,192,13924,1,8,0:0:0:0:
402,192,14352,1,2,0:0:0:0:
109,192,14495,1,8,0:0:0:0:
36,192,14781,1,2,0:0:0:0:
475,192,15067,1,8,0:0:0:0:
36,192,15495,1,2,0:0:0:0:
475,192,15638,1,8,0:0:0:0:
36,192,15924,128,2,16209:0:0:0:0:
329,192,16209,1,8,0:0:0:0:
475,192,16495,128,0,16781:0:0:0:0:
182,192,16781,1,8,0:0:0:0:
329,192,17067,1,4,0:0:0:0:
475,192,17067,1,2,0:0:0:0:
182,192,17352,1,8,0:0:0:0:
329,192,17781,1,2,0:0:0:0:
182,192,17924,1,8,0:0:0:0:
109,192,18209,1,2,0:0:0:0:
402,192,18495,1,8,0:0:0:0:
109,192,18924,1,2,0:0:0:0:
402,192,19067,1,8,0:0:0:0:
475,192,19352,1,2,0:0:0:0:
36,192,19638,1,8,0:0:0:0:
475,192,20067,1,2,0:0:0:0:
36,192,20209,1,8,0:0:0:0:
475,192,20495,128,2,20781:0:0:0:0:
329,192,20781,1,8,0:0:0:0:
36,192,21067,128,0,21352:0:0:0:0:
182,192,21352,1,8,0:0:0:0:
109,192,21638,1,8,0:0:0:0:
402,192,21638,1,0,0:0:0:30:bell2.wav
256,192,21924,1,8,0:0:0:0:
182,192,22209,1,8,0:0:0:0:
329,192,22209,1,0,0:0:0:30:bell2.wav
402,192,22495,128,0,22781:0:0:0:0:
36,192,22781,1,2,0:0:0:0:
329,192,22781,1,4,0:0:0:0:
182,192,23067,1,8,0:0:0:0:
475,192,23352,1,2,0:0:0:0:
329,192,23638,1,8,0:0:0:0:
109,192,23924,1,2,0:0:0:0:
109,192,24209,1,8,0:0:0:0:
256,192,24352,128,2,24638:0:0:0:0:
402,192,24352,1,4,0:0:0:0:
36,192,24638,1,8,0:0:0:0:
182,192,24781,1,8,0:0:0:0:
329,192,24924,1,8,0:0:0:0:
475,192,25067,1,2,0:0:0:0:
329,192,25352,1,8,0:0:0:0:
36,192,25638,1,2,0:0:0:0:
182,192,25924,1,8,0:0:0:0:
402,192,26209,1,2,0:0:0:0:
402,192,26495,1,8,0:0:0:0:
109,192,26638,1,2,0:0:0:0:
256,192,26638,128,4,26924:0:0:0:0:
475,192,26924,1,8,0:0:0:0:
329,192,27067,1,8,0:0:0:0:
182,192,27209,1,8,0:0:0:0:
36,192,27352,1,4,0:0:0:0:
475,192,27352,1,2,0:0:0:0:
182,192,27638,1,8,0:0:0:0:
402,192,27924,1,2,0:0:0:0:
329,192,28209,1,8,0:0:0:0:
36,192,28495,1,2,0:0:0:0:
36,192,28781,1,8,0:0:0:0:
329,192,28924,128,4,29209:0:0:0:0:
475,192,28924,1,2,0:0:0:0:
109,192,29209,1,8,0:0:0:0:
182,192,29352,1,8,0:0:0:0:
256,192,29495,1,8,0:0:0:0:
402,192,29638,1,2,0:0:0:0:
329,192,29924,1,8,0:0:0:0:
109,192,30209,1,2,0:0:0:0:
182,192,30495,1,8,0:0:0:0:
475,192,30781,1,6,0:0:0:0:
475,192,31067,1,8,0:0:0:0:
36,192,31209,1,2,0:0:0:0:
182,192,31209,128,4,31495:0:0:0:0:
402,192,31495,1,8,0:0:0:0:
256,192,31638,1,0,0:0:0:70:Tom2.wav
109,192,31781,1,0,0:0:0:70:Tom3.wav
329,192,31924,1,2,0:0:0:0:
475,192,31924,1,4,0:0:0:0:
182,192,32352,1,2,0:0:0:0:
329,192,32495,1,2,0:0:0:0:
182,192,32781,1,8,0:0:0:0:
475,192,33067,1,2,0:0:0:0:
329,192,33495,1,2,0:0:0:0:
182,192,33638,1,2,0:0:0:0:
329,192,33924,1,8,0:0:0:0:
36,192,34209,1,2,0:0:0:0:
256,192,34209,1,4,0:0:0:0:
109,192,34781,1,2,0:0:0:0:
329,192,34781,1,4,0:0:0:0:
182,192,35352,1,2,0:0:0:0:
402,192,35352,1,4,0:0:0:0:
256,192,35924,1,2,0:0:0:0:
475,192,35924,1,4,0:0:0:0:
182,192,36209,1,8,0:0:0:0:
36,192,36495,1,2,0:0:0:0:
475,192,36495,128,4,37638:0:0:0:0:
109,192,36924,1,2,0:0:0:0:
256,192,37067,1,2,0:0:0:0:
256,192,37352,1,12,0:0:0:0:
36,192,37638,1,2,0:0:0:0:
402,192,37638,1,4,0:0:0:0:
109,192,37924,1,8,0:0:0:0:
182,192,38209,1,2,0:0:0:0:
329,192,38209,1,0,0:0:0:0:
402,192,38495,1,8,0:0:0:0:
36,192,38781,1,4,0:0:0:0:
475,192,38781,1,0,0:0:0:70:Tom1.wav
402,192,39067,1,2,0:0:0:0:
329,192,39352,1,2,0:0:0:0:
256,192,39638,1,8,0:0:0:0:
36,192,39924,1,4,0:0:0:0:
402,192,39924,1,0,0:0:0:70:Tom1.wav
329,192,40209,1,2,0:0:0:0:
256,192,40495,1,2,0:0:0:0:
182,192,40781,1,8,0:0:0:0:
329,192,41067,1,4,0:0:0:0:
475,192,41067,1,0,0:0:0:70:Tom1.wav
256,192,41352,1,2,0:0:0:0:
182,192,41638,1,2,0:0:0:0:
109,192,41924,1,8,0:0:0:0:
36,192,42209,1,2,0:0:0:0:
475,192,42209,128,4,43638:0:0:0:0:
329,192,43638,1,2,0:0:0:0:
182,192,43924,1,2,0:0:0:0:
475,192,44209,1,2,0:0:0:0:
36,192,44495,1,2,0:0:0:0:
182,192,44495,1,4,0:0:0:0:
475,192,44781,1,8,0:0:0:0:
256,192,45067,1,2,0:0:0:0:
475,192,45352,1,8,0:0:0:0:
36,192,45495,1,2,0:0:0:0:
182,192,45495,1,4,0:0:0:0:
36,192,45781,1,2,0:0:0:0:
475,192,45924,1,8,0:0:0:0:
256,192,46209,1,2,0:0:0:0:
475,192,46495,1,8,0:0:0:0:
36,192,46781,1,4,0:0:0:0:
256,192,46781,1,2,0:0:0:0:
402,192,47067,1,8,0:0:0:0:
256,192,47352,1,2,0:0:0:0:
109,192,47638,1,8,0:0:0:0:
402,192,47781,1,4,0:0:0:0:
475,192,47781,1,2,0:0:0:0:
402,192,48067,1,2,0:0:0:0:
109,192,48209,1,8,0:0:0:0:
256,192,48495,1,0,0:0:0:0:
109,192,48781,1,8,0:0:0:0:
402,192,49067,1,2,0:0:0:0:
475,192,49067,1,4,0:0:0:0:
329,192,49352,1,8,0:0:0:0:
256,192,49638,1,2,0:0:0:0:
329,192,49924,1,8,0:0:0:0:
36,192,50067,1,2,0:0:0:0:
182,192,50067,1,4,0:0:0:0:
182,192,50352,1,2,0:0:0:0:
329,192,50495,1,8,0:0:0:0:
256,192,50781,1,2,0:0:0:0:
329,192,51067,1,8,0:0:0:0:
36,192,51352,1,4,0:0:0:0:
182,192,51352,1,2,0:0:0:0:
475,192,51638,1,8,0:0:0:0:
256,192,51924,1,2,0:0:0:0:
36,192,52209,1,8,0:0:0:0:
402,192,52352,1,4,0:0:0:0:
475,192,52352,1,2,0:0:0:0:
256,192,52638,1,8,0:0:0:0:
36,192,52924,1,8,0:0:0:0:
109,192,52924,1,0,0:0:0:30:bell2.wav
256,192,53352,1,8,0:0:0:0:
329,192,53638,1,2,0:0:0:0:
475,192,53638,1,4,0:0:0:0:
36,192,53924,1,8,0:0:0:0:
256,192,54209,1,2,0:0:0:0:
36,192,54495,1,8,0:0:0:0:
329,192,54638,1,2,0:0:0:0:
475,192,54638,1,4,0:0:0:0:
475,192,54924,1,2,0:0:0:0:
36,192,55067,1,8,0:0:0:0:
256,192,55352,1,2,0:0:0:0:
36,192,55638,1,8,0:0:0:0:
256,192,55924,1,4,0:0:0:0:
475,192,55924,1,2,0:0:0:0:
109,192,56209,1,8,0:0:0:0:
256,192,56495,1,2,0:0:0:0:
402,192,56781,1,8,0:0:0:0:
36,192,56924,1,4,0:0:0:0:
109,192,56924,1,2,0:0:0:0:
109,192,57209,1,2,0:0:0:0:
402,192,57352,1,8,0:0:0:0:
256,192,57638,1,0,0:0:0:0:
402,192,57924,1,8,0:0:0:0:
36,192,58209,1,2,0:0:0:0:
109,192,58209,1,4,0:0:0:0:
182,192,58495,1,8,0:0:0:0:
256,192,58781,1,2,0:0:0:0:
182,192,59067,1,8,0:0:0:0:
329,192,59209,1,2,0:0:0:0:
475,192,59209,1,4,0:0:0:0:
329,192,59495,1,2,0:0:0:0:
182,192,59638,1,8,0:0:0:0:
256,192,59924,1,2,0:0:0:0:
182,192,60209,1,8,0:0:0:0:
329,192,60495,1,2,0:0:0:0:
475,192,60495,1,0,0:0:0:0:
36,192,60781,1,8,0:0:0:0:
256,192,61067,1,2,0:0:0:0:
475,192,61352,1,8,0:0:0:0:
36,192,61495,1,8,0:0:0:0:
109,192,61495,1,0,0:0:0:30:bell2.wav
256,192,61781,1,8,0:0:0:0:
402,192,62067,1,8,0:0:0:0:
475,192,62067,1,0,0:0:0:30:bell2.wav
182,192,62495,1,0,0:0:0:70:Tom2.wav
36,192,62781,1,2,0:0:0:0:
402,192,62781,1,4,0:0:0:0:
475,192,62781,1,0,0:0:0:0:
256,192,63067,1,8,0:0:0:0:
475,192,63352,1,2,0:0:0:0:
329,192,63638,1,8,0:0:0:0:
36,192,63924,1,2,0:0:0:0:
109,192,63924,1,4,0:0:0:0:
256,192,64209,1,8,0:0:0:0:
36,192,64495,1,10,0:0:0:0:
182,192,64781,1,2,0:0:0:0:
329,192,65067,1,4,0:0:0:0:
475,192,65067,1,2,0:0:0:0:
36,192,65495,1,0,0:0:0:70:LR_Tom Drop.wav
182,192,65638,1,2,0:0:0:0:
329,192,65781,1,2,0:0:0:0:
475,192,66067,1,0,0:0:0:70:LR_Tom Drop.wav
329,192,66209,1,2,0:0:0:0:
182,192,66352,1,2,0:0:0:0:
256,192,66638,128,8,66924:0:0:0:0:
475,192,66924,1,8,0:0:0:0:
36,192,67209,1,8,0:0:0:0:
329,192,67352,1,2,0:0:0:0:
402,192,67352,1,4,0:0:0:0:
109,192,67781,1,0,0:0:0:70:LR_Tom Drop.wav
256,192,67924,1,2,0:0:0:0:
402,192,68067,1,2,0:0:0:0:
329,192,68352,1,0,0:0:0:70:LR_Tom Drop.wav
182,192,68495,1,2,0:0:0:0:
36,192,68638,1,2,0:0:0:0:
256,192,68924,128,8,69209:0:0:0:0:
475,192,69209,1,8,0:0:0:0:
36,192,69495,1,8,0:0:0:0:
402,192,69638,1,2,0:0:0:0:
475,192,69638,1,4,0:0:0:0:
402,192,70067,1,0,0:0:0:70:LR_Tom Drop.wav
256,192,70209,1,2,0:0:0:0:
109,192,70352,1,2,0:0:0:0:
182,192,70638,1,0,0:0:0:70:LR_Tom Drop.wav
329,192,70781,1,2,0:0:0:0:
475,192,70924,1,2,0:0:0:0:
256,192,71209,128,8,71495:0:0:0:0:
402,192,71495,1,8,0:0:0:0:
109,192,71781,1,8,0:0:0:0:
329,192,71924,1,4,0:0:0:0:
475,192,71924,1,2,0:0:0:0:
402,192,72352,1,0,0:0:0:70:LR_Tom Drop.wav
109,192,72495,1,2,0:0:0:0:
256,192,72638,1,2,0:0:0:0:
256,192,72924,1,0,0:0:0:70:LR_Tom Drop.wav
109,192,73067,1,2,0:0:0:0:
402,192,73067,128,0,74067:0:0:0:30:bell2.wav
36,192,74067,1,4,0:0:0:0:
109,192,74067,1,2,0:0:0:0:
475,192,74495,1,0,0:0:0:30:bell2.wav
475,192,75067,1,0,0:0:0:30:bell2.wav
36,192,75209,1,2,0:0:0:0:
182,192,75209,1,4,0:0:0:0:
402,192,75638,1,0,0:0:0:30:bell2.wav
402,192,76209,1,0,0:0:0:30:bell2.wav
109,192,76352,1,4,0:0:0:0:
256,192,76352,1,2,0:0:0:0:
329,192,76781,1,0,0:0:0:30:bell2.wav
329,192,77352,1,0,0:0:0:30:bell2.wav
36,192,77495,1,2,0:0:0:0:
182,192,77495,1,4,0:0:0:0:
109,192,77781,1,2,0:0:0:0:
402,192,77924,1,8,0:0:0:0:
256,192,78209,1,0,0:0:0:70:Tom2.wav
402,192,78495,1,8,0:0:0:0:
36,192,78638,1,2,0:0:0:0:
182,192,78638,1,4,0:0:0:0:
329,192,79067,1,8,0:0:0:0:
329,192,79638,1,8,0:0:0:0:
109,192,79781,1,2,0:0:0:0:
182,192,79781,1,4,0:0:0:0:
402,192,80209,1,8,0:0:0:0:
402,192,80781,1,8,0:0:0:0:
182,192,80924,1,2,0:0:0:0:
256,192,80924,1,4,0:0:0:0:
36,192,81352,1,8,0:0:0:0:
182,192,81638,1,0,0:0:0:70:Tom2.wav
329,192,81924,1,0,0:0:0:30:bell2.wav
36,192,82209,1,2,0:0:0:0:
475,192,82209,1,4,0:0:0:0:
402,192,82781,128,0,83067:0:0:0:0:
109,192,83067,128,0,83352:0:0:0:0:
329,192,83352,1,2,0:0:0:0:
475,192,83352,1,4,0:0:0:0:
182,192,83638,1,8,0:0:0:0:
329,192,84067,1,2,0:0:0:0:
182,192,84209,1,8,0:0:0:0:
109,192,84495,1,2,0:0:0:0:
402,192,84781,1,8,0:0:0:0:
109,192,85209,1,2,0:0:0:0:
402,192,85352,1,8,0:0:0:0:
475,192,85638,1,2,0:0:0:0:
36,192,85924,1,8,0:0:0:0:
475,192,86352,1,2,0:0:0:0:
36,192,86495,1,8,0:0:0:0:
256,192,86781,1,2,0:0:0:0:
475,192,86781,1,0,0:0:0:0:
182,192,87067,1,8,0:0:0:0:
402,192,87067,1,0,0:0:0:30:bell2.wav
36,192,87352,1,8,0:0:0:0:
256,192,87352,1,0,0:0:0:0:
109,192,87638,1,8,0:0:0:0:
329,192,87638,1,0,0:0:0:30:bell2.wav
256,192,87924,128,2,89067:0:0:0:0:
475,192,87924,1,4,0:0:0:0:
182,192,89067,1,8,0:0:0:0:
36,192,89209,1,2,0:0:0:0:
