osu file format v14

[General]
AudioFilename: audio.mp3
AudioLeadIn: 0
PreviewTime: 44495
Countdown: 0
SampleSet: Drum
StackLeniency: 0.7
Mode: 3
LetterboxInBreaks: 0
SpecialStyle: 0
WidescreenStoryboard: 1

[Editor]
DistanceSpacing: 1.2
BeatDivisor: 4
GridSize: 4
TimelineZoom: 2.6

[Metadata]
Title:100% Chu~Gakusei (TV Size)
TitleUnicode:100%ちゅ~学生 (TV Size)
Artist:Nanamori-chu * Goraku-bu
ArtistUnicode:七森中☆ごらく部
Creator:MapleSyrup-
Version:Beginner
Source:ゆるゆり♪♪
Tags:ending ed akaza akari toshinou kyouko funami yui yoshikawa chinatsu shiori mikami otsubo yuka tsuda minami okubo rumi jpop j-pop anime japanese yuru yuri yuruyuri♪♪ yryr season 2 II happy go lily PCCG-70138 歳納京子 大坪由佳 赤座あかり 三上枝織 船見結衣 津田美波 吉川ちなつ 大久保瑠美 dudehacker Drum-Hitnormal
BeatmapID:2083274
BeatmapSetID:989247

[Difficulty]
HPDrainRate:6.5
CircleSize:7
OverallDifficulty:6.5
ApproachRate:5
SliderMultiplier:1.4
SliderTickRate:1

[Events]
//Background and Video events
0,0,"yuru yuri wallpaper.jpg",0,0
//Break Periods
//Storyboard Layer 0 (Background)
//Storyboard Layer 1 (Fail)
//Storyboard Layer 2 (Pass)
//Storyboard Layer 3 (Foreground)
//Storyboard Layer 4 (Overlay)
//Storyboard Sound Samples
Sample,1067,0,"normal-hitwhistle.wav",70
Sample,1638,0,"normal-hitwhistle.wav",70
Sample,2209,0,"normal-hitwhistle.wav",70
Sample,2638,0,"normal-hitwhistle.wav",70
Sample,12781,0,"bell2.wav",30
Sample,13352,0,"bell2.wav",30
Sample,13924,0,"bell2.wav",30
Sample,14495,0,"bell2.wav",30
Sample,15067,0,"bell2.wav",30
Sample,15638,0,"bell2.wav",30
Sample,17352,0,"bell2.wav",30
Sample,17924,0,"bell2.wav",30
Sample,18495,0,"bell2.wav",30
Sample,19067,0,"bell2.wav",30
Sample,19638,0,"bell2.wav",30
Sample,20209,0,"bell2.wav",30
Sample,21638,0,"bell2.wav",30
Sample,21924,0,"bell2.wav",30
Sample,22209,0,"bell2.wav",30
Sample,24638,0,"bell2.wav",30
Sample,26924,0,"bell2.wav",30
Sample,29209,0,"bell2.wav",30
Sample,32781,0,"bell2.wav",30
Sample,33924,0,"bell2.wav",30
Sample,45924,0,"bell2.wav",30
Sample,46495,0,"bell2.wav",30
Sample,48209,0,"bell2.wav",30
Sample,48781,0,"bell2.wav",30
Sample,50495,0,"bell2.wav",30
Sample,51067,0,"bell2.wav",30
Sample,52638,0,"bell2.wav",30
Sample,52924,0,"bell2.wav",30
Sample,55067,0,"bell2.wav",30
Sample,55638,0,"bell2.wav",30
Sample,57352,0,"bell2.wav",30
Sample,57924,0,"bell2.wav",30
Sample,59638,0,"bell2.wav",30
Sample,60209,0,"bell2.wav",30
Sample,61495,0,"bell2.wav",30
Sample,61781,0,"bell2.wav",30
Sample,62067,0,"bell2.wav",30
Sample,64495,0,"bell2.wav",30
Sample,66638,0,"bell2.wav",30
Sample,67067,0,"bell2.wav",30
Sample,68924,0,"bell2.wav",30
Sample,69352,0,"bell2.wav",30
Sample,71209,0,"bell2.wav",30
Sample,71638,0,"bell2.wav",30
Sample,83638,0,"bell2.wav",30
Sample,84209,0,"bell2.wav",30
Sample,84781,0,"bell2.wav",30
Sample,85352,0,"bell2.wav",30
Sample,85924,0,"bell2.wav",30
Sample,86495,0,"bell2.wav",30

[TimingPoints]
1067,285.714285714286,4,3,1,70,1,0

[HitObjects]
36,192,1067,1,0,0:0:0:70:LR_Tom Drop.wav
402,192,1638,1,0,0:0:0:70:LR_Tom Drop.wav
109,192,2209,1,0,0:0:0:70:LR_Tom Drop.wav
256,192,2638,1,0,0:0:0:70:LR_Tom Drop.wav
36,192,3209,1,4,0:0:0:0:
256,192,3209,1,2,0:0:0:0:
109,192,4352,1,2,0:0:0:0:
329,192,4352,1,4,0:0:0:0:
182,192,5495,1,4,0:0:0:0:
402,192,5495,1,2,0:0:0:0:
256,192,6638,1,2,0:0:0:0:
475,192,6638,1,4,0:0:0:0:
256,192,7781,1,2,0:0:0:0:
475,192,7781,1,4,0:0:0:0:
182,192,8924,1,2,0:0:0:0:
402,192,8924,1,4,0:0:0:0:
109,192,10067,1,2,0:0:0:0:
329,192,10067,1,4,0:0:0:0:
109,192,10781,1,0,0:0:0:70:Tom2.wav
402,192,11067,1,0,0:0:0:30:bell2.wav
36,192,11352,1,2,0:0:0:0:
256,192,11352,1,4,0:0:0:0:
36,192,12495,1,2,0:0:0:0:
256,192,12495,1,4,0:0:0:0:
475,192,12781,1,8,0:0:0:0:
475,192,13352,1,8,0:0:0:0:
256,192,13638,1,2,0:0:0:0:
36,192,13924,1,8,0:0:0:0:
36,192,14495,1,8,0:0:0:0:
256,192,14781,1,2,0:0:0:0:
402,192,15067,1,8,0:0:0:0:
402,192,15638,1,8,0:0:0:0:
182,192,15924,128,2,16495:0:0:0:0:
329,192,16495,128,0,17067:0:0:0:0:
256,192,17067,1,4,0:0:0:0:
475,192,17067,1,2,0:0:0:0:
36,192,17352,1,8,0:0:0:0:
36,192,17924,1,8,0:0:0:0:
256,192,18209,1,2,0:0:0:0:
475,192,18495,1,8,0:0:0:0:
475,192,19067,1,8,0:0:0:0:
256,192,19352,1,2,0:0:0:0:
109,192,19638,1,8,0:0:0:0:
109,192,20209,1,8,0:0:0:0:
329,192,20495,128,2,21067:0:0:0:0:
182,192,21067,128,0,21638:0:0:0:0:
475,192,21638,1,8,0:0:0:0:
256,192,21924,1,8,0:0:0:0:
36,192,22209,1,8,0:0:0:0:
402,192,22781,1,2,0:0:0:0:
475,192,22781,1,4,0:0:0:0:
329,192,23352,1,2,0:0:0:0:
256,192,23924,1,2,0:0:0:0:
182,192,24352,1,6,0:0:0:0:
329,192,24638,128,8,25067:0:0:0:0:
109,192,25067,1,2,0:0:0:0:
182,192,25638,1,2,0:0:0:0:
256,192,26209,1,2,0:0:0:0:
329,192,26638,1,6,0:0:0:0:
182,192,26924,128,8,27352:0:0:0:0:
36,192,27352,1,4,0:0:0:0:
475,192,27352,1,2,0:0:0:0:
402,192,27924,1,2,0:0:0:0:
256,192,28495,1,2,0:0:0:0:
109,192,28924,1,6,0:0:0:0:
256,192,29209,128,8,29638:0:0:0:0:
36,192,29638,1,2,0:0:0:0:
109,192,30209,1,2,0:0:0:0:
182,192,30781,1,6,0:0:0:0:
256,192,31209,128,6,31924:0:0:0:0:
36,192,31924,1,2,0:0:0:0:
475,192,31924,1,4,0:0:0:0:
329,192,32781,1,8,0:0:0:0:
182,192,33067,1,2,0:0:0:0:
109,192,33924,1,8,0:0:0:0:
329,192,34209,1,2,0:0:0:0:
475,192,34209,1,4,0:0:0:0:
256,192,34781,1,6,0:0:0:0:
182,192,35352,1,6,0:0:0:0:
109,192,35924,1,6,0:0:0:0:
36,192,36495,1,2,0:0:0:0:
402,192,36495,128,4,37638:0:0:0:0:
109,192,37638,128,2,38781:0:0:0:0:
329,192,37638,1,4,0:0:0:0:
182,192,38781,1,4,0:0:0:0:
402,192,38781,1,0,0:0:0:70:Tom1.wav
475,192,39352,1,2,0:0:0:0:
109,192,39924,1,4,0:0:0:0:
329,192,39924,1,0,0:0:0:70:Tom1.wav
402,192,40495,1,2,0:0:0:0:
36,192,41067,1,4,0:0:0:0:
256,192,41067,1,0,0:0:0:70:Tom1.wav
329,192,41638,1,2,0:0:0:0:
36,192,42209,1,2,0:0:0:0:
475,192,42209,128,4,43638:0:0:0:0:
36,192,43638,128,2,44495:0:0:0:0:
329,192,44495,1,2,0:0:0:0:
475,192,44495,1,4,0:0:0:0:
329,192,45067,128,2,45495:0:0:0:0:
36,192,45495,1,2,0:0:0:0:
109,192,45495,1,4,0:0:0:0:
256,192,45924,1,8,0:0:0:0:
256,192,46495,1,8,0:0:0:0:
36,192,46781,1,4,0:0:0:0:
182,192,46781,1,2,0:0:0:0:
182,192,47352,128,2,47781:0:0:0:0:
402,192,47781,1,4,0:0:0:0:
475,192,47781,1,2,0:0:0:0:
256,192,48209,1,8,0:0:0:0:
256,192,48781,1,8,0:0:0:0:
109,192,49067,1,2,0:0:0:0:
475,192,49067,1,4,0:0:0:0:
475,192,49638,128,2,50067:0:0:0:0:
182,192,50067,1,2,0:0:0:0:
329,192,50067,1,4,0:0:0:0:
256,192,50495,1,8,0:0:0:0:
256,192,51067,1,8,0:0:0:0:
36,192,51352,1,4,0:0:0:0:
402,192,51352,1,2,0:0:0:0:
36,192,51924,128,2,52352:0:0:0:0:
329,192,52352,1,6,0:0:0:0:
256,192,52638,1,8,0:0:0:0:
182,192,52924,1,8,0:0:0:0:
182,192,53638,1,2,0:0:0:0:
402,192,53638,1,4,0:0:0:0:
402,192,54209,128,2,54638:0:0:0:0:
36,192,54638,1,2,0:0:0:0:
109,192,54638,1,4,0:0:0:0:
256,192,55067,1,8,0:0:0:0:
256,192,55638,1,8,0:0:0:0:
109,192,55924,1,4,0:0:0:0:
329,192,55924,1,2,0:0:0:0:
109,192,56495,128,2,56924:0:0:0:0:
402,192,56924,1,4,0:0:0:0:
475,192,56924,1,2,0:0:0:0:
256,192,57352,1,8,0:0:0:0:
256,192,57924,1,8,0:0:0:0:
36,192,58209,1,2,0:0:0:0:
329,192,58209,1,4,0:0:0:0:
329,192,58781,128,2,59209:0:0:0:0:
36,192,59209,1,2,0:0:0:0:
182,192,59209,1,4,0:0:0:0:
256,192,59638,1,8,0:0:0:0:
256,192,60209,1,8,0:0:0:0:
182,192,60495,1,2,0:0:0:0:
475,192,60495,1,0,0:0:0:0:
182,192,61067,128,2,61495:0:0:0:0:
109,192,61495,1,8,0:0:0:0:
256,192,61781,1,8,0:0:0:0:
402,192,62067,1,8,0:0:0:0:
36,192,62781,1,2,0:0:0:0:
182,192,62781,1,4,0:0:0:0:
402,192,63352,1,2,0:0:0:0:
182,192,63924,1,2,0:0:0:0:
329,192,63924,1,4,0:0:0:0:
109,192,64495,128,10,65067:0:0:0:0:
329,192,65067,1,4,0:0:0:0:
475,192,65067,1,2,0:0:0:0:
36,192,65495,1,0,0:0:0:70:LR_Tom Drop.wav
36,192,66067,1,0,0:0:0:70:LR_Tom Drop.wav
256,192,66638,1,8,0:0:0:0:
402,192,67067,1,2,0:0:0:0:
36,192,67352,1,2,0:0:0:0:
182,192,67352,1,4,0:0:0:0:
475,192,67781,1,0,0:0:0:70:LR_Tom Drop.wav
475,192,68352,1,0,0:0:0:70:LR_Tom Drop.wav
256,192,68924,1,8,0:0:0:0:
109,192,69352,1,2,0:0:0:0:
402,192,69638,1,2,0:0:0:0:
475,192,69638,1,4,0:0:0:0:
182,192,70067,1,0,0:0:0:70:LR_Tom Drop.wav
182,192,70638,1,0,0:0:0:70:LR_Tom Drop.wav
256,192,71209,1,8,0:0:0:0:
402,192,71638,1,2,0:0:0:0:
109,192,71924,1,4,0:0:0:0:
182,192,71924,1,2,0:0:0:0:
329,192,72352,1,0,0:0:0:70:LR_Tom Drop.wav
109,192,73067,1,2,0:0:0:0:
402,192,73067,1,0,0:0:0:30:bell2.wav
256,192,74067,1,4,0:0:0:0:
475,192,74067,1,2,0:0:0:0:
182,192,75209,1,2,0:0:0:0:
402,192,75209,1,4,0:0:0:0:
109,192,76352,1,4,0:0:0:0:
329,192,76352,1,2,0:0:0:0:
36,192,77495,1,2,0:0:0:0:
256,192,77495,1,4,0:0:0:0:
36,192,78638,1,2,0:0:0:0:
256,192,78638,1,4,0:0:0:0:
109,192,79781,1,2,0:0:0:0:
329,192,79781,1,4,0:0:0:0:
182,192,80924,1,2,0:0:0:0:
402,192,80924,1,4,0:0:0:0:
402,192,81638,1,0,0:0:0:70:Tom2.wav
109,192,81924,1,0,0:0:0:30:bell2.wav
329,192,82209,1,2,0:0:0:0:
475,192,82209,1,4,0:0:0:0:
256,192,83352,1,2,0:0:0:0:
475,192,83352,1,4,0:0:0:0:
36,192,83638,1,8,0:0:0:0:
36,192,84209,1,8,0:0:0:0:
256,192,84495,1,2,0:0:0:0:
475,192,84781,1,8,0:0:0:0:
475,192,85352,1,8,0:0:0:0:
256,192,85638,1,2,0:0:0:0:
109,192,85924,1,8,0:0:0:0:
109,192,86495,1,8,0:0:0:0:
329,192,86781,128,2,87352:0:0:0:0:
182,192,87352,128,8,87924:0:0:0:0:
256,192,87924,128,2,89067:0:0:0:0:
402,192,87924,1,4,0:0:0:0:
109,192,89067,1,8,0:0:0:0:
