osu file format v14

[General]
AudioFilename: audio.mp3
AudioLeadIn: 0
PreviewTime: 82434
Countdown: 0
SampleSet: Soft
StackLeniency: 0.3
Mode: 0
LetterboxInBreaks: 0
WidescreenStoryboard: 1

[Editor]
Bookmarks: 969,6855,19016,31158,41791,53943,66095,76728,82804,96475,107108,111855
DistanceSpacing: 1.6
BeatDivisor: 4
GridSize: 4
TimelineZoom: 2.1

[Metadata]
Title:URA MO KARADA MO RAKKAMIJIN
TitleUnicode:うらもからだも落花微塵
Artist:Nanako
ArtistUnicode:Nanako
Creator:-Tochi
Version:Body of Mind
Source:jubeat knit APPEND
Tags:BEMANI KONAMI
BeatmapID:1525708
BeatmapSetID:722726

[Difficulty]
HPDrainRate:4
CircleSize:3.6
OverallDifficulty:8.5
ApproachRate:9.4
SliderMultiplier:2
SliderTickRate:2

[Events]
//Background and Video events
0,0,"bg.jpg",0,0
//Break Periods
//Storyboard Layer 0 (Background)
//Storyboard Layer 1 (Fail)
//Storyboard Layer 2 (Pass)
//Storyboard Layer 3 (Foreground)
//Storyboard Layer 4 (Overlay)
//Storyboard Sound Samples

[TimingPoints]
-549,379.746835443038,4,2,1,50,1,0
969,-142.857142857143,4,2,1,50,0,0
1349,-71.4285714285715,4,2,1,50,0,0
1729,-142.857142857143,4,2,1,50,0,0
2109,-71.4285714285715,4,2,1,50,0,0
4007,-142.857142857143,4,2,1,50,0,0
4387,-71.4285714285715,4,2,1,50,0,0
4767,-142.857142857143,4,2,1,50,0,0
5147,-71.4285714285714,4,2,1,50,0,0
6855,379.746835443038,4,2,1,50,1,0
6855,-52.6315789473684,4,2,1,50,0,1
6949,-52.6315789473684,4,2,1,50,0,0
7171,-66.6666666666667,4,2,1,50,0,0
7614,-100,4,2,1,50,0,0
7994,-52.6315789473684,4,2,1,50,0,0
8310,-66.6666666666667,4,2,1,50,0,0
8753,-100,4,2,1,50,0,0
10652,-90.9090909090909,4,2,1,50,0,0
11032,-83.3333333333333,4,2,1,50,0,0
11411,-76.9230769230769,4,2,1,50,0,0
11791,-71.4285714285714,4,2,1,50,0,0
12171,-66.6666666666667,4,2,1,50,0,0
12551,-62.5,4,2,1,50,0,0
12930,-52.6315789473684,4,2,1,50,0,1
13025,-52.6315789473684,4,2,1,50,0,0
13247,-66.6666666666667,4,2,1,50,0,0
13690,-100,4,2,1,50,0,0
14070,-52.6315789473684,4,2,1,50,0,0
14386,-66.6666666666667,4,2,1,50,0,0
14829,-100,4,2,1,50,0,0
16728,-90.9090909090909,4,2,1,50,0,0
17108,-83.3333333333333,4,2,1,50,0,0
17487,-50,4,2,1,50,0,0
18247,-100,4,2,1,50,0,0
18437,-55.5555555555556,4,2,1,50,0,0
19006,-125,4,2,1,50,0,0
21285,-83.3333333333333,4,2,1,50,0,0
21855,-71.4285714285714,4,2,1,50,0,0
22044,-125,4,2,1,50,0,0
23184,-83.3333333333333,4,2,1,50,0,0
25082,-125,4,2,1,50,0,0
26981,-83.3333333333333,4,2,1,50,0,0
27361,-125,4,2,1,50,0,0
30399,-83.3333333333333,4,2,1,50,0,0
31158,-125,4,2,1,50,0,0
33437,-83.3333333333333,4,2,1,50,0,0
34006,-71.4285714285714,4,2,1,50,0,0
34196,-125,4,2,1,50,0,0
35336,-83.3333333333333,4,2,1,50,0,0
37234,-125,4,2,1,50,0,0
39133,-83.3333333333333,4,2,1,50,0,0
39513,-125,4,2,1,50,0,0
41791,-83.3333333333333,4,2,1,50,0,0
43500,-71.4285714285714,4,2,1,50,0,0
44260,-100,4,2,1,50,0,0
45589,-62.5,4,2,1,50,0,0
46538,-55.5555555555556,4,2,1,50,0,0
47298,-83.3333333333333,4,2,1,50,0,0
48627,-71.4285714285714,4,2,1,50,0,0
49766,-83.3333333333333,4,2,1,50,0,0
52234,-71.4285714285714,4,2,1,50,0,0
52804,-100,4,2,1,50,0,0
53373,-55.5555555555556,4,2,1,50,0,0
53753,-83.3333333333333,4,2,1,50,0,0
53943,-125,4,2,1,50,0,0
56222,-83.3333333333333,4,2,1,50,0,0
56791,-71.4285714285714,4,2,1,50,0,0
56981,-125,4,2,1,50,0,0
58120,-83.3333333333333,4,2,1,50,0,0
60019,-125,4,2,1,50,0,0
61918,-83.3333333333333,4,2,1,50,0,0
62298,-125,4,2,1,50,0,0
65336,-83.3333333333333,4,2,1,50,0,0
66095,-125,4,2,1,50,0,0
68373,-83.3333333333333,4,2,1,50,0,0
68943,-71.4285714285714,4,2,1,50,0,0
69133,-125,4,2,1,50,0,0
70272,-83.3333333333333,4,2,1,50,0,0
72171,-125,4,2,1,50,0,0
74070,-83.3333333333333,4,2,1,50,0,0
74449,-125,4,2,1,50,0,0
75589,-83.3333333333333,4,2,1,50,0,0
76728,-55.5555555555556,4,2,1,60,0,1
76823,-55.5555555555556,4,2,1,60,0,0
78247,-55.5555555555556,4,2,1,60,0,1
78342,-55.5555555555556,4,2,1,60,0,0
79766,-55.5555555555556,4,2,1,60,0,1
79861,-55.5555555555556,4,2,1,60,0,0
81285,-55.5555555555556,4,2,1,60,0,1
81380,-55.5555555555556,4,2,1,60,0,0
82804,-50,4,2,1,70,0,1
93437,-71.4285714285714,4,2,1,60,0,0
96475,-52.6315789473684,4,2,1,50,0,1
96570,-52.6315789473684,4,2,1,50,0,0
96791,-66.6666666666667,4,2,1,50,0,0
97234,-100,4,2,1,50,0,0
97614,-52.6315789473684,4,2,1,50,0,0
97930,-66.6666666666667,4,2,1,50,0,0
98373,-100,4,2,1,50,0,0
100272,-90.9090909090909,4,2,1,50,0,0
100652,-83.3333333333333,4,2,1,50,0,0
101032,-76.9230769230769,4,2,1,50,0,0
101411,-71.4285714285714,4,2,1,50,0,0
101791,-66.6666666666667,4,2,1,50,0,0
102171,-62.5,4,2,1,50,0,0
102551,-52.6315789473684,4,2,1,50,0,1
102646,-52.6315789473684,4,2,1,50,0,0
102867,-66.6666666666667,4,2,1,50,0,0
103310,-100,4,2,1,50,0,0
103690,-52.6315789473684,4,2,1,50,0,0
104006,-66.6666666666667,4,2,1,50,0,0
104449,-100,4,2,1,50,0,0
106348,-90.9090909090909,4,2,1,50,0,0
106728,-83.3333333333333,4,2,1,50,0,0
107108,-50,4,2,1,50,0,0
108627,-100,4,2,1,50,0,0
109386,-90.9090909090909,4,2,1,50,0,0
109766,-83.3333333333333,4,2,1,50,0,0
110146,-50,4,2,1,50,0,0
111095,-100,4,2,1,50,0,0
111665,-50,4,2,1,50,0,0

[HitObjects]
463,43,780,5,0,1:0:0:0:
397,105,969,6,0,P|346:117|298:94,1,104.999996795654,0|0,1:0|0:0,0:0:0:0:
231,34,1349,6,0,L|158:39,1,69.9999978637696,0|0,1:0|0:0,0:0:0:0:
133,356,1729,6,0,P|184:368|232:345,1,104.999996795654,0|0,1:0|0:0,0:0:0:0:
299,285,2109,6,0,L|372:290,1,69.9999978637696,0|0,1:0|0:0,0:0:0:0:
281,127,2488,5,0,0:0:0:0:
368,289,2678,1,0,0:0:0:0:
308,137,2868,5,2,0:0:0:0:
342,280,3058,1,0,0:0:0:0:
327,149,3248,5,0,0:0:0:0:
323,267,3438,1,0,0:0:0:0:
338,163,3628,6,0,L|317:232,1,69.9999978637696,2|0,0:0|0:0,0:0:0:0:
311,253,3818,5,0,1:0:0:0:
179,109,4007,6,0,B|206:66|206:66|183:17,1,104.999996795654,0|0,1:0|0:0,0:0:0:0:
100,59,4387,6,0,L|24:75,1,69.9999978637696,0|0,1:0|0:0,0:0:0:0:
306,344,4767,6,0,B|333:301|333:301|310:252,1,104.999996795654,0|0,1:0|0:0,0:0:0:0:
211,293,5147,6,0,L|135:309,1,69.9999978637696,0|0,1:0|0:0,0:0:0:0:
142,307,5716,6,0,B|83:230|164:174|138:94|138:94|143:127|166:145,1,279.999991455078,10|2,1:2|0:0,0:0:0:0:
221,82,6191,1,8,1:0:0:0:
165,144,6286,2,0,L|95:147,1,69.9999978637696,2|0,1:2|0:0,0:0:0:0:
95,146,6476,1,8,1:2:0:0:
224,206,6666,5,10,1:2:0:0:
250,143,6761,1,8,1:2:0:0:
221,82,6855,6,0,P|146:108|39:92,1,189.999994926453,6|0,1:2|0:0,0:0:0:0:
38,92,7108,1,0,0:0:0:0:
38,91,7171,2,0,L|28:43,1,50.0000019073487,2|8,0:0|0:0,0:0:0:0:
224,206,7424,1,2,0:0:0:0:
45,302,7614,6,0,P|94:292|142:307,1,100,2|0,1:2|0:0,0:0:0:0:
405,216,7994,6,0,P|313:234|224:206,1,189.999994926453,8|2,0:0|0:0,0:0:0:0:
224,206,8247,1,0,0:0:0:0:
223,205,8310,2,0,L|172:212,1,50.0000019073487,2|0,0:0|1:0,0:0:0:0:
318,124,8563,1,2,0:0:0:0:
231,339,8753,6,0,P|302:317|375:331,1,150,10|0,0:0|0:0,0:0:0:0:
445,292,9133,6,0,L|450:341,1,50,2|0,1:2|0:0,0:0:0:0:
318,124,9323,2,0,L|313:75,1,50,2|0,1:2|0:0,0:0:0:0:
439,242,9513,2,0,L|444:291,1,50,10|0,1:2|0:0,0:0:0:0:
323,173,9703,2,0,L|318:124,1,50,8|8,1:2|1:2,0:0:0:0:
326,251,9892,5,6,1:2:0:0:
432,74,10082,1,2,0:0:0:0:
390,92,10177,5,2,0:0:0:0:
312,74,10272,2,0,L|211:68,1,100,10|2,1:2|0:0,0:0:0:0:
244,190,10557,5,2,0:0:0:0:
322,172,10652,2,0,L|434:165,1,110.000003356934,2|2,1:2|0:0,0:0:0:0:
390,288,10937,5,2,0:0:0:0:
312,270,11032,2,0,L|189:262,1,119.999996337891,10|2,1:2|0:0,0:0:0:0:
234,92,11317,5,2,0:0:0:0:
312,74,11412,2,0,L|451:65,1,129.999994049073,2|2,1:2|0:0,0:0:0:0:
401,190,11696,5,2,0:0:0:0:
322,172,11791,2,0,L|182:163,1,139.999995727539,10|2,1:2|0:0,0:0:0:0:
234,288,12076,5,2,0:0:0:0:
312,270,12171,2,0,L|463:261,1,150.000005722046,2|2,1:2|0:0,0:0:0:0:
390,92,12456,5,10,1:2:0:0:
312,74,12551,2,0,L|232:69,1,80,10|2,1:2|0:0,0:0:0:0:
292,354,12741,2,0,L|371:358,1,80,10|10,1:2|1:2,0:0:0:0:
495,137,12930,6,0,P|413:182|321:171,1,189.999994926453,6|2,1:2|0:0,0:0:0:0:
321,171,13184,1,0,0:0:0:0:
320,170,13247,2,0,L|266:166,1,50.0000019073487,2|8,0:0|0:0,0:0:0:0:
461,261,13500,1,2,0:0:0:0:
390,92,13690,6,0,P|345:69|296:75,1,100,2|0,1:2|0:0,0:0:0:0:
198,327,14070,6,0,P|280:369|374:358,1,189.999994926453,10|2,0:0|0:0,0:0:0:0:
374,357,14323,1,0,0:0:0:0:
374,357,14386,2,0,L|426:362,1,50.0000019073487,2|0,0:0|1:0,0:0:0:0:
302,252,14639,1,2,0:0:0:0:
198,327,14829,6,0,P|124:335|59:301,1,150,10|0,0:0|0:0,0:0:0:0:
68,221,15209,6,0,L|61:168,1,50,2|0,1:2|0:0,0:0:0:0:
50,84,15399,2,0,L|44:35,1,50,2|0,1:2|0:0,0:0:0:0:
172,178,15589,2,0,L|165:125,1,50,10|0,1:2|0:0,0:0:0:0:
154,43,15779,2,0,L|160:92,1,50,8|8,1:2|1:2,0:0:0:0:
176,213,15968,5,4,1:2:0:0:
315,34,16158,1,2,0:0:0:0:
297,75,16253,5,2,0:0:0:0:
316,153,16348,2,0,L|431:142,1,100,10|2,1:2|0:0,0:0:0:0:
369,311,16633,5,2,0:0:0:0:
388,233,16728,2,0,L|503:244,1,110.000003356934,2|2,1:2|0:0,0:0:0:0:
302,252,17013,5,10,0:0:0:0:
283,330,17108,2,0,L|159:318,1,119.999996337891,2|2,1:2|0:0,0:0:0:0:
83,193,17392,5,2,0:0:0:0:
102,271,17487,2,0,L|304:251,1,200,6|2,1:2|1:2,0:0:0:0:
399,113,18247,2,0,L|408:136,2,25,0|0|0,3:0|3:0|3:0,0:0:0:0:
478,92,18437,6,0,L|296:74,1,179.999994506836,4|0,3:2|1:0,0:0:0:0:
201,36,18722,1,8,1:2:0:0:
210,110,18816,1,8,1:2:0:0:
218,185,18911,1,8,1:2:0:0:
227,260,19006,6,0,P|265:264|307:271,1,80,4|0,1:2|0:0,0:0:0:0:
66,242,19386,2,0,P|106:236|146:232,1,80,0|2,0:0|0:0,0:0:0:0:
306,270,19766,2,0,P|384:282|459:256,1,160,0|0,1:0|1:0,0:0:0:0:
211,310,20336,1,2,0:0:0:0:
131,153,20525,6,0,L|145:231,1,80,0|0,1:0|0:0,0:0:0:0:
224,31,20905,2,0,L|210:110,1,80,0|2,1:0|0:0,0:0:0:0:
55,301,21285,2,0,L|66:242,2,59.9999981689454,0|0|2,1:0|0:0|0:0,0:0:0:0:
359,292,21665,2,0,P|334:274|305:270,1,59.9999981689454,0|0,1:0|0:0,0:0:0:0:
211,307,21855,2,0,P|176:312|149:333,1,69.9999978637696,10|0,0:0|0:0,0:0:0:0:
55,301,22044,6,0,P|14:235|40:162,1,160,0|0,1:0|1:0,0:0:0:0:
173,217,22614,1,2,0:0:0:0:
104,225,22804,2,0,P|140:238|173:217,1,80,0|0,1:0|0:0,0:0:0:0:
329,201,23184,6,0,P|254:246|173:217,1,179.999994506836,0|0,1:0|0:0,0:0:0:0:
245,146,23563,5,0,1:0:0:0:
329,201,23753,1,2,0:0:0:0:
89,272,23943,5,0,1:0:0:0:
173,217,24133,1,2,0:0:0:0:
258,365,24323,6,0,L|208:331,1,59.9999981689454,0|8,1:0|0:0,0:0:0:0:
174,310,24513,2,0,L|233:298,1,59.9999981689454,2|2,0:0|0:0,0:0:0:0:
271,289,24703,1,8,1:0:0:0:
89,182,24892,1,2,0:0:0:0:
64,150,24987,1,8,0:1:0:0:
104,145,25082,6,0,L|266:132,1,160,4|0,1:2|0:0,0:0:0:0:
271,289,25652,1,2,0:0:0:0:
342,152,25842,2,0,P|271:118|195:138,1,160,0|0,1:0|1:0,0:0:0:0:
260,234,26411,1,2,0:0:0:0:
105,350,26601,6,0,L|89:272,1,80,0|0,1:0|0:0,0:0:0:0:
149,0,26981,6,0,L|187:176,1,179.999994506836,0|0,1:0|0:0,0:0:0:0:
262,221,27361,6,0,L|310:229,2,40,0|0|2,1:0|0:0|0:0,0:0:0:0:
89,272,27741,2,0,L|131:260,1,40,0|0,1:0|0:0,0:0:0:0:
212,340,27930,2,0,L|250:350,1,40,10|0,0:0|0:0,0:0:0:0:
262,221,28120,6,0,P|330:183|409:205,1,160,0|0,1:0|1:0,0:0:0:0:
343,284,28690,1,2,0:0:0:0:
212,340,28880,2,0,L|131:316,1,80,0|0,1:0|0:0,0:0:0:0:
21,289,29260,1,0,1:0:0:0:
21,289,29355,1,2,0:0:0:0:
21,289,29449,1,2,0:0:0:0:
135,318,29639,5,0,1:0:0:0:
211,251,29829,1,2,0:0:0:0:
48,161,30019,5,0,1:0:0:0:
124,228,30209,1,2,0:0:0:0:
310,219,30399,6,0,L|261:178,1,59.9999981689454,0|8,1:0|0:0,0:0:0:0:
234,152,30589,2,0,L|293:146,1,59.9999981689454,2|2,0:0|0:0,0:0:0:0:
335,145,30779,1,8,1:0:0:0:
212,340,30968,1,2,0:0:0:0:
178,318,31063,1,8,0:1:0:0:
214,301,31158,6,0,P|252:301|297:306,1,80,4|0,1:2|0:0,0:0:0:0:
45,244,31538,2,0,P|84:234|124:228,1,80,0|2,0:0|0:0,0:0:0:0:
293,305,31918,2,0,P|370:321|452:312,1,160,0|0,1:0|1:0,0:0:0:0:
507,193,32487,1,2,0:0:0:0:
385,73,32677,6,0,L|302:62,1,80,0|0,1:0|0:0,0:0:0:0:
234,152,33057,2,0,L|313:162,1,80,0|2,1:0|0:0,0:0:0:0:
241,251,33437,6,0,L|181:243,2,59.9999981689454,0|0|2,1:0|0:0|0:0,0:0:0:0:
464,31,33817,2,0,P|476:58|470:90,1,59.9999981689454,0|0,1:0|0:0,0:0:0:0:
417,197,34006,2,0,P|400:225|369:241,1,69.9999978637696,10|0,0:0|0:0,0:0:0:0:
241,251,34196,6,0,P|165:266|104:218,1,160,0|0,1:0|1:0,0:0:0:0:
195,103,34766,1,2,0:0:0:0:
186,173,34956,2,0,P|206:140|195:103,1,80,0|0,1:0|0:0,0:0:0:0:
39,100,35336,6,0,P|116:140|194:103,1,179.999994506836,0|0,1:0|0:0,0:0:0:0:
118,41,35715,5,0,1:0:0:0:
39,100,35905,1,2,0:0:0:0:
273,162,36095,5,0,1:0:0:0:
194,103,36285,1,2,0:0:0:0:
24,276,36475,6,0,L|76:240,1,59.9999981689454,0|8,1:0|0:0,0:0:0:0:
103,217,36665,2,0,L|101:276,1,59.9999981689454,2|2,0:0|0:0,0:0:0:0:
101,315,36855,1,8,1:0:0:0:
0,116,37044,1,2,0:0:0:0:
7,76,37139,1,8,0:1:0:0:
39,100,37234,6,0,P|96:117|195:102,1,160,4|0,1:2|0:0,0:0:0:0:
267,42,37804,1,2,0:0:0:0:
103,217,37994,2,0,P|160:200|259:215,1,160,0|0,1:0|1:0,0:0:0:0:
209,338,38563,1,2,0:0:0:0:
40,354,38753,6,0,L|24:276,1,80,0|0,1:0|0:0,0:0:0:0:
65,40,39133,6,0,L|103:217,1,179.999994506836,0|0,1:0|0:0,0:0:0:0:
164,279,39513,6,0,L|154:326,1,40,0|2,1:0|0:0,0:0:0:0:
257,214,39703,2,0,L|265:174,1,40,2|8,0:0|0:0,0:0:0:0:
310,315,39892,2,0,L|300:362,1,40,0|0,1:0|0:0,0:0:0:0:
403,250,40082,2,0,L|411:210,1,40,10|0,0:0|0:0,0:0:0:0:
455,350,40272,6,0,P|378:334|301:354,1,160,0|0,1:0|1:0,0:0:0:0:
155,318,40842,1,2,0:0:0:0:
317,275,41032,2,0,L|301:354,1,80,0|0,1:0|0:0,0:0:0:0:
155,318,41411,2,0,L|139:238,1,80,0|2,1:0|0:0,0:0:0:0:
333,188,41791,5,2,1:2:0:0:
51,303,41981,1,2,1:2:0:0:
317,275,42171,5,2,1:2:0:0:
254,229,42265,1,2,0:0:0:0:
252,152,42360,1,10,0:0:0:0:
311,102,42455,1,2,0:0:0:0:
386,118,42551,2,0,L|440:143,1,59.9999981689454,2|2,1:2|0:0,0:0:0:0:
387,213,42741,2,0,L|333:188,1,59.9999981689454,2|2,0:0|0:0,0:0:0:0:
333,188,42930,1,0,1:0:0:0:
103,317,43120,5,2,0:0:0:0:
25,260,43214,1,2,0:0:0:0:
22,164,43309,1,2,1:2:0:0:
95,103,43405,1,2,0:0:0:0:
188,122,43500,2,0,L|251:151,1,69.9999978637696,2|2,0:0|0:0,0:0:0:0:
186,238,43690,2,0,L|122:208,1,69.9999978637696,2|2,1:2|0:0,0:0:0:0:
200,19,43880,6,0,B|286:59|286:59|265:12,1,139.999995727539,10|0,0:0|1:0,0:0:0:0:
268,19,44165,1,2,0:0:0:0:
116,20,44260,2,0,P|117:43|130:67,1,50,2|0,0:0|0:0,0:0:0:0:
61,129,44449,2,0,P|77:145|102:156,1,50,10|0,1:2|0:0,0:0:0:0:
88,247,44639,2,0,P|111:249|137:241,1,50,2|0,0:0|0:0,0:0:0:0:
184,320,44829,5,2,1:2:0:0:
25,41,45019,1,2,1:2:0:0:
288,330,45209,5,2,1:2:0:0:
312,251,45304,1,2,0:0:0:0:
249,199,45399,1,10,0:0:0:0:
176,237,45494,1,2,0:0:0:0:
184,320,45589,2,0,L|271:328,1,80,2|2,1:2|0:0,0:0:0:0:
392,258,45779,2,0,L|312:250,1,80,2|2,0:0|0:0,0:0:0:0:
312,251,45968,1,0,1:0:0:0:
201,41,46158,5,2,0:0:0:0:
173,135,46253,1,2,0:0:0:0:
249,199,46348,1,2,1:2:0:0:
336,152,46443,1,2,0:0:0:0:
327,54,46538,2,0,L|222:44,1,89.9999972534181,2|2,1:2|0:0,0:0:0:0:
83,126,46728,2,0,L|173:135,1,89.9999972534181,2|2,1:2|0:0,0:0:0:0:
460,251,46918,6,0,B|327:238|327:238|365:267,1,179.999994506836,10|0,0:0|1:0,0:0:0:0:
365,267,47203,1,2,0:0:0:0:
474,162,47298,2,0,P|439:162|411:177,1,59.9999981689454,2|0,1:2|0:0,0:0:0:0:
366,92,47487,2,0,P|339:114|327:143,1,59.9999981689454,10|0,1:2|0:0,0:0:0:0:
238,107,47677,2,0,P|231:141|241:171,1,59.9999981689454,2|8,0:0|0:0,0:0:0:0:
149,200,47867,5,2,1:2:0:0:
464,67,48057,1,2,1:2:0:0:
283,325,48247,5,2,1:2:0:0:
218,358,48342,1,2,0:0:0:0:
150,333,48437,1,10,0:0:0:0:
120,267,48532,1,2,0:0:0:0:
149,200,48627,2,0,L|222:193,1,69.9999978637696,2|2,1:2|0:0,0:0:0:0:
307,100,48817,2,0,L|238:107,1,69.9999978637696,2|2,1:2|0:0,0:0:0:0:
238,107,49006,1,2,1:2:0:0:
297,338,49196,5,2,0:0:0:0:
221,376,49291,1,2,0:0:0:0:
140,347,49386,5,2,1:2:0:0:
193,304,49480,1,2,0:0:0:0:
196,237,49575,1,2,1:2:0:0:
147,190,49670,1,2,0:0:0:0:
80,196,49766,2,0,L|22:223,1,59.9999981689454,2|2,1:2|0:0,0:0:0:0:
65,292,49956,2,0,L|120:267,1,59.9999981689454,10|2,1:2|0:0,0:0:0:0:
120,267,50146,1,0,1:0:0:0:
178,34,50336,5,2,1:2:0:0:
117,107,50430,1,2,0:0:0:0:
211,123,50525,5,10,1:2:0:0:
166,66,50619,1,2,0:0:0:0:
94,68,50714,1,2,0:0:0:0:
54,128,50809,1,2,0:0:0:0:
80,196,50904,5,2,1:2:0:0:
386,25,51095,1,2,1:2:0:0:
21,305,51285,5,2,1:2:0:0:
120,320,51379,1,2,0:0:0:0:
198,273,51475,1,10,1:2:0:0:
250,207,51570,1,2,0:0:0:0:
327,171,51665,5,2,1:2:0:0:
402,152,51759,1,2,1:2:0:0:
473,182,51854,1,2,1:2:0:0:
503,249,51949,1,2,1:2:0:0:
478,318,52044,1,10,1:2:0:0:
415,359,52139,1,2,1:2:0:0:
337,352,52234,2,0,B|310:343|285:330|285:330|290:348,1,69.9999978637696,0|0,1:2|1:2,0:0:0:0:
43,81,52804,6,0,P|152:149|256:104,1,250,4|8,1:2|0:0,0:0:0:0:
209,39,53373,6,0,B|122:54|122:54|120:66|120:66|42:80,1,179.999994506836,8|8,0:0|0:1,0:0:0:0:
343,157,53753,2,0,P|355:129|357:100,1,59.9999981689454,8|8,0:0|0:0,0:0:0:0:
339,26,53943,6,0,P|340:69|358:101,1,80,4|0,1:2|0:0,0:0:0:0:
380,278,54323,2,0,P|398:243|398:203,1,80,0|2,0:0|0:0,0:0:0:0:
168,241,54703,2,0,P|243:262|308:219,1,160,0|0,1:0|1:0,0:0:0:0:
261,110,55272,1,2,0:0:0:0:
77,203,55462,6,0,L|82:285,1,80,0|0,1:0|0:0,0:0:0:0:
181,71,55842,2,0,L|175:153,1,80,0|2,1:0|0:0,0:0:0:0:
132,358,56222,2,0,L|64:374,2,59.9999981689454,0|0|2,1:0|0:0|0:0,0:0:0:0:
249,205,56601,2,0,L|307:218,1,59.9999981689454,0|0,1:0|0:0,0:0:0:0:
351,358,56791,2,0,L|424:340,1,69.9999978637696,10|0,0:0|0:0,0:0:0:0:
495,275,56981,6,0,P|515:201|468:132,1,160,0|0,1:0|1:0,0:0:0:0:
349,227,57551,1,2,0:0:0:0:
422,215,57741,2,0,B|389:237|389:237|349:227,1,80,0|0,1:0|0:0,0:0:0:0:
85,187,58120,2,0,B|149:230|149:230|249:205,1,179.999994506836,0|0,1:0|0:0,0:0:0:0:
375,146,58500,5,0,1:0:0:0:
433,64,58690,1,2,0:0:0:0:
191,123,58880,5,0,1:0:0:0:
249,205,59070,1,2,0:0:0:0:
85,109,59260,6,0,L|123:56,1,59.9999981689454,0|8,1:0|0:0,0:0:0:0:
143,27,59449,2,0,L|152:86,1,59.9999981689454,2|2,0:0|0:0,0:0:0:0:
160,125,59639,1,8,1:0:0:0:
193,354,59829,1,2,0:0:0:0:
159,332,59924,1,8,0:1:0:0:
195,316,60019,6,0,B|231:308|267:316|267:316|279:328|279:328|315:336|351:328,1,160,4|0,1:2|0:0,0:0:0:0:
429,285,60589,1,2,0:0:0:0:
278,326,60779,2,0,P|234:267|275:198,1,160,0|0,1:0|1:0,0:0:0:0:
391,169,61348,1,2,0:0:0:0:
508,291,61538,6,0,L|429:285,1,80,0|0,1:0|0:0,0:0:0:0:
92,214,61918,6,0,L|271:199,1,179.999994506836,0|0,1:0|0:0,0:0:0:0:
358,169,62298,2,0,L|361:213,2,40,0|0|2,1:0|0:0|0:0,0:0:0:0:
226,79,62677,2,0,L|222:123,1,40,0|0,1:0|0:0,0:0:0:0:
274,238,62867,2,0,L|271:199,1,40,10|0,0:0|0:0,0:0:0:0:
320,81,63057,6,0,P|392:49|466:79,1,160,0|0,1:0|1:0,0:0:0:0:
437,167,63627,2,0,L|358:169,1,80,2|0,0:0|1:0,0:0:0:0:
181,208,64006,1,0,0:0:0:0:
266,163,64196,1,0,1:0:0:0:
266,163,64291,1,2,0:0:0:0:
266,163,64386,1,2,0:0:0:0:
213,297,64576,5,0,1:0:0:0:
110,275,64766,1,2,0:0:0:0:
114,156,64956,5,0,1:0:0:0:
217,134,65146,1,2,0:0:0:0:
398,270,65336,6,0,L|337:257,1,59.9999981689454,0|8,1:0|0:0,0:0:0:0:
295,248,65525,2,0,L|345:215,1,59.9999981689454,2|2,0:0|0:0,0:0:0:0:
382,189,65715,1,8,1:0:0:0:
110,275,65905,1,2,0:0:0:0:
78,251,66000,1,8,0:1:0:0:
114,235,66095,6,0,P|154:229|195:226,1,80,4|0,1:2|0:0,0:0:0:0:
296,142,66475,2,0,P|256:137|217:134,1,80,0|2,0:0|0:0,0:0:0:0:
44,222,66855,2,0,P|118:250|193:226,1,160,0|0,1:0|1:0,0:0:0:0:
299,153,67424,1,2,0:0:0:0:
460,334,67614,6,0,B|434:350|434:350|374:341,1,80,0|0,1:0|0:0,0:0:0:0:
376,248,67994,2,0,B|424:255|424:255|450:239,1,80,0|2,1:0|0:0,0:0:0:0:
434,148,68373,6,0,B|414:159|414:159|378:154,2,59.9999981689454,0|0|2,1:0|0:0|0:0,0:0:0:0:
385,18,68753,2,0,L|398:86,1,59.9999981689454,0|0,1:0|0:0,0:0:0:0:
362,179,68943,2,0,L|375:247,1,69.9999978637696,10|0,0:0|0:0,0:0:0:0:
339,340,69133,6,0,P|269:304|187:317,1,160,0|0,1:0|1:0,0:0:0:0:
40,356,69703,1,2,0:0:0:0:
120,355,69892,2,0,L|40:357,1,80,0|0,1:0|0:0,0:0:0:0:
22,200,70272,6,0,L|209:204,1,179.999994506836,0|0,1:0|0:0,0:0:0:0:
287,206,70652,5,0,1:0:0:0:
264,303,70842,1,2,0:0:0:0:
381,230,71032,5,0,1:0:0:0:
358,133,71222,1,2,0:0:0:0:
224,107,71411,6,0,L|210:173,1,59.9999981689454,0|8,1:0|0:0,0:0:0:0:
201,204,71601,2,0,L|168:153,1,59.9999981689454,2|2,0:0|0:0,0:0:0:0:
144,121,71791,1,8,1:0:0:0:
358,133,71981,1,2,0:0:0:0:
384,160,72076,1,8,0:1:0:0:
343,170,72171,6,0,P|329:116|365:21,1,160,4|0,1:2|0:0,0:0:0:0:
458,109,72741,1,2,0:0:0:0:
281,11,72930,2,0,P|255:85|260:165,1,160,0|0,1:0|1:0,0:0:0:0:
389,199,73500,1,2,0:0:0:0:
451,359,73690,6,0,L|464:280,1,80,0|0,1:0|0:0,0:0:0:0:
373,106,74070,6,0,L|343:283,1,179.999994506836,0|0,1:0|0:0,0:0:0:0:
278,348,74449,6,0,L|230:337,1,40,0|2,1:0|0:0,0:0:0:0:
163,279,74639,2,0,L|115:268,1,40,2|8,0:0|0:0,0:0:0:0:
48,348,74829,2,0,L|96:337,1,40,0|0,1:0|0:0,0:0:0:0:
163,279,75019,2,0,L|211:268,1,40,10|0,0:0|0:0,0:0:0:0:
260,165,75209,6,0,L|338:183,1,80,0|0,1:0|0:0,0:0:0:0:
411,210,75494,5,0,0:0:0:0:
416,215,75589,2,0,B|422:290|422:290|391:330,1,119.999996337891,0|2,1:0|0:0,0:0:0:0:
316,356,75873,1,8,0:1:0:0:
278,348,75968,1,0,1:0:0:0:
239,339,76063,2,0,L|177:324,1,59.9999981689454,8|0,0:0|1:0,0:0:0:0:
100,306,76253,2,0,L|41:292,1,59.9999981689454,8|0,0:0|1:0,0:0:0:0:
41,91,76538,2,0,L|100:78,1,59.9999981689454,10|8,1:0|0:0,0:0:0:0:
180,58,76728,6,0,P|258:35|350:74,1,179.999994506836,4|0,1:2|0:0,0:0:0:0:
410,133,77013,1,2,0:0:0:0:
399,147,77108,2,0,P|358:164|315:153,1,89.9999972534181,2|0,0:0|0:0,0:0:0:0:
267,236,77298,6,0,P|354:257|440:236,1,179.999994506836,8|0,1:0|0:0,0:0:0:0:
315,153,77582,2,0,P|228:131|141:152,1,179.999994506836,2|0,0:0|0:0,0:0:0:0:
87,216,77867,2,0,L|100:306,1,89.9999972534181,2|0,0:0|0:0,0:0:0:0:
254,325,78057,2,0,L|267:236,1,89.9999972534181,8|0,0:1|0:0,0:0:0:0:
40,63,78247,6,0,P|112:109|179:58,1,179.999994506836,4|0,1:2|0:0,0:0:0:0:
339,40,78532,1,2,0:0:0:0:
332,56,78627,2,0,P|296:78|262:53,1,89.9999972534181,2|0,0:0|0:0,0:0:0:0:
33,246,78817,6,0,P|117:195|197:217,1,179.999994506836,8|0,1:0|0:0,0:0:0:0:
473,185,79101,2,0,P|387:202|315:153,1,179.999994506836,2|0,0:0|0:0,0:0:0:0:
339,40,79386,2,0,L|433:33,1,89.9999972534181,2|0,0:0|0:0,0:0:0:0:
434,316,79576,2,0,L|344:309,1,89.9999972534181,8|0,0:1|0:0,0:0:0:0:
66,105,79766,6,0,P|57:194|27:279,1,179.999994506836,4|0,1:2|0:0,0:0:0:0:
172,319,80051,1,2,0:0:0:0:
172,300,80146,2,0,P|176:255|191:213,1,89.9999972534181,2|0,0:0|0:0,0:0:0:0:
339,40,80336,6,0,P|348:129|378:213,1,179.999994506836,8|0,1:0|0:0,0:0:0:0:
254,325,80620,2,0,P|244:235|214:151,1,179.999994506836,2|0,0:0|0:0,0:0:0:0:
27,279,80905,2,0,P|69:278|119:264,1,89.9999972534181,2|0,0:0|0:0,0:0:0:0:
302,164,81095,2,0,P|257:162|214:151,1,89.9999972534181,8|0,0:1|0:0,0:0:0:0:
66,105,81285,5,4,1:2:0:0:
446,279,81475,1,2,1:2:0:0:
176,30,81665,1,0,1:0:0:0:
336,354,81855,1,2,1:2:0:0:
467,94,82044,5,0,1:0:0:0:
44,289,82234,1,2,1:2:0:0:
345,11,82424,2,0,P|324:51|303:102,1,89.9999972534181,0|8,1:0|0:1,0:0:0:0:
166,372,82614,2,0,P|174:327|180:283,1,89.9999972534181,0|8,1:0|0:1,0:0:0:0:
35,34,82804,6,0,B|123:-6|131:110|219:66,1,200,4|2,1:2|0:0,0:0:0:0:
467,94,83089,2,0,P|385:142|305:91,1,200,0|0,1:0|0:0,0:0:0:0:
64,113,83373,2,0,B|125:237|125:237|103:310,1,200,0|0,1:0|0:0,0:0:0:0:
29,245,83658,1,0,1:0:0:0:
223,240,83753,2,0,L|124:234,1,100,2|0,0:0|0:0,0:0:0:0:
18,49,83943,2,0,B|37:25|37:25|106:43,1,100,2|0,1:2|0:0,0:0:0:0:
309,246,84133,2,0,B|242:264|242:264|223:240,1,100,2|0,1:2|0:0,0:0:0:0:
37,25,84323,6,0,P|140:25|237:19,1,200,0|2,1:0|0:0,0:0:0:0:
469,173,84608,2,0,P|369:167|270:168,1,200,0|0,1:0|0:0,0:0:0:0:
298,85,84892,1,0,1:0:0:0:
243,167,84987,1,2,0:0:0:0:
292,254,85082,2,0,P|341:257|391:256,1,100,2|0,0:0|1:0,0:0:0:0:
397,82,85272,2,0,P|347:85|298:85,1,100,8|2,0:0|0:0,0:0:0:0:
207,295,85462,1,0,1:0:0:0:
290,351,85557,1,2,0:0:0:0:
376,301,85652,1,2,0:0:0:0:
20,184,85842,6,0,B|-39:273|61:396|92:271,1,200,4|0,1:2|0:0,0:0:0:0:
207,295,86127,1,0,1:0:0:0:
292,254,86222,2,0,B|338:187|237:64|222:147,1,200,8|0,0:0|1:0,0:0:0:0:
108,218,86506,1,0,0:0:0:0:
145,115,86601,2,0,P|191:121|244:120,1,100,0|2,1:0|0:0,0:0:0:0:
475,295,86791,2,0,P|425:302|376:301,1,100,2|0,0:0|1:0,0:0:0:0:
207,295,86981,1,8,0:0:0:0:
207,295,87076,1,8,0:0:0:0:
292,254,87171,1,0,1:0:0:0:
183,30,87361,6,0,B|136:14|136:14|92:38,1,100,0|0,1:0|0:0,0:0:0:0:
145,115,87551,1,2,0:0:0:0:
205,293,87646,2,0,B|161:317|161:317|114:301,1,100,0|0,1:0|0:0,0:0:0:0:
154,218,87836,1,2,0:0:0:0:
232,161,87930,2,0,P|331:157|431:150,1,200,0|0,1:0|1:0,0:0:0:0:
313,311,88215,2,0,P|213:304|114:301,1,200,0|0,1:0|1:0,0:0:0:0:
43,264,88500,5,8,0:0:0:0:
16,171,88594,1,8,0:0:0:0:
72,92,88689,1,8,0:0:0:0:
168,88,88784,1,8,0:0:0:0:
232,161,88880,6,0,P|334:205|416:179,1,200,4|2,1:2|0:0,0:0:0:0:
205,293,89165,2,0,P|117:336|22:311,1,200,0|0,1:0|0:0,0:0:0:0:
28,119,89449,2,0,P|115:93|210:139,1,200,0|0,1:0|0:0,0:0:0:0:
306,230,89734,2,0,P|392:274|487:249,1,200,0|0,1:0|0:0,0:0:0:0:
481,158,90019,2,0,B|419:134|419:134|382:144,1,100,2|0,1:2|0:0,0:0:0:0:
293,331,90209,2,0,B|325:339|325:339|387:315,1,100,2|0,1:2|0:0,0:0:0:0:
479,49,90399,6,0,P|372:37|276:19,1,200,0|0,1:0|0:0,0:0:0:0:
116,109,90684,1,2,1:2:0:0:
177,160,90779,2,0,P|237:166|265:138,1,100,2|0,0:0|0:0,0:0:0:0:
140,26,90968,2,0,P|92:15|53:44,1,100,2|0,0:0|0:0,0:0:0:0:
143,244,91158,1,0,1:0:0:0:
239,273,91253,1,2,0:0:0:0:
320,216,91348,2,0,P|329:166|340:108,1,100,10|0,0:0|0:0,0:0:0:0:
479,49,91538,2,0,P|488:98|497:147,1,100,2|0,1:2|0:0,0:0:0:0:
239,273,91728,2,0,P|230:223|220:174,1,100,10|0,1:2|0:0,0:0:0:0:
500,331,91918,6,0,P|427:364|326:310,1,200,4|2,1:2|0:0,0:0:0:0:
127,115,92203,2,0,P|208:63|299:95,1,200,0|0,1:0|0:0,0:0:0:0:
121,226,92487,2,0,L|18:234,1,100,2|0,1:2|0:0,0:0:0:0:
154,330,92677,6,0,P|245:362|326:310,1,200,4|0,1:2|0:0,0:0:0:0:
469,151,92962,1,0,1:0:0:0:
481,232,93057,2,0,P|489:281|499:330,1,100,10|0,0:0|0:0,0:0:0:0:
366,308,93247,1,8,1:2:0:0:
33,132,93437,5,4,1:2:0:0:
33,132,94956,5,0,1:0:0:0:
140,146,95336,5,0,1:0:0:0:
246,160,95715,5,0,1:0:0:0:
210,155,95810,2,0,L|140:146,1,69.9999978637696,8|2,0:0|0:0,0:0:0:0:
3,217,96000,1,0,1:0:0:0:
39,222,96095,2,0,L|109:231,1,69.9999978637696,8|8,0:0|1:0,0:0:0:0:
306,224,96285,1,8,1:0:0:0:
347,168,96380,1,8,1:0:0:0:
314,105,96475,6,0,L|125:80,1,189.999994926453,4|0,1:2|0:0,0:0:0:0:
125,80,96728,1,0,0:0:0:0:
125,80,96791,2,0,L|116:138,1,50.0000019073487,2|8,0:0|0:0,0:0:0:0:
306,224,97044,1,2,0:0:0:0:
124,322,97234,6,0,L|229:335,1,100,2|0,1:2|0:0,0:0:0:0:
479,213,97614,6,0,P|385:186|299:231,1,189.999994926453,8|2,0:0|0:0,0:0:0:0:
306,224,97867,1,0,0:0:0:0:
306,224,97930,2,0,L|298:278,1,50.0000019073487,2|0,0:0|1:0,0:0:0:0:
323,76,98184,1,2,0:0:0:0:
139,112,98373,6,0,P|196:142|259:124,1,133.333333333333,10|0,0:0|0:0,0:0:0:0:
323,76,98753,6,0,L|331:25,1,50,2|0,1:2|0:0,0:0:0:0:
479,213,98943,2,0,L|471:262,1,50,2|0,1:2|0:0,0:0:0:0:
315,125,99133,2,0,L|323:74,1,50,10|0,1:2|0:0,0:0:0:0:
486,163,99323,2,0,L|478:212,1,50,8|8,1:2|1:2,0:0:0:0:
303,207,99513,5,6,1:2:0:0:
58,132,99703,1,2,0:0:0:0:
80,171,99798,5,2,0:0:0:0:
68,249,99892,2,0,L|53:352,1,100,10|2,1:2|0:0,0:0:0:0:
184,273,100177,5,2,0:0:0:0:
172,195,100272,2,0,L|154:78,1,110.000003356934,2|2,1:2|0:0,0:0:0:0:
294,167,100557,5,2,0:0:0:0:
282,245,100652,2,0,L|263:372,1,119.999996337891,10|2,1:2|0:0,0:0:0:0:
81,328,100937,5,2,0:0:0:0:
68,249,101032,2,0,L|48:118,1,129.999994049073,2|2,1:2|0:0,0:0:0:0:
185,116,101317,5,2,0:0:0:0:
172,195,101412,2,0,L|151:337,1,139.999995727539,10|2,1:2|0:0,0:0:0:0:
295,324,101696,5,2,0:0:0:0:
282,245,101791,2,0,L|270:164,2,75.0000028610231,2|8|2,1:2|0:0|0:0,0:0:0:0:
55,328,102076,5,10,1:2:0:0:
68,249,102171,2,0,L|79:168,1,80,10|2,1:2|0:0,0:0:0:0:
378,271,102361,2,0,L|389:350,1,80,10|10,1:2|1:2,0:0:0:0:
141,302,102551,6,0,L|168:113,1,189.999994926453,6|2,1:2|0:0,0:0:0:0:
168,113,102804,1,0,0:0:0:0:
168,113,102867,2,0,L|116:106,1,50.0000019073487,2|8,0:0|0:0,0:0:0:0:
285,12,103120,1,2,0:0:0:0:
423,202,103310,6,0,L|408:103,1,100,2|0,1:2|0:0,0:0:0:0:
242,341,103690,6,0,P|303:373|412:332,1,189.999994926453,10|2,0:0|0:0,0:0:0:0:
410,333,103943,1,0,0:0:0:0:
410,333,104006,2,0,L|410:272,1,50.0000019073487,2|0,0:0|1:0,0:0:0:0:
281,170,104260,1,2,0:0:0:0:
141,302,104449,6,0,P|76:329|2:301,1,150,10|0,0:0|0:0,0:0:0:0:
9,223,104829,6,0,L|20:172,1,50,2|0,1:2|0:0,0:0:0:0:
45,89,105019,2,0,L|56:38,1,50,2|0,1:2|0:0,0:0:0:0:
121,187,105209,6,0,L|132:136,1,50,10|0,1:2|0:0,0:0:0:0:
149,53,105399,2,0,L|138:101,1,50,8|8,1:2|1:2,0:0:0:0:
117,219,105589,5,4,1:2:0:0:
396,83,105779,1,2,0:0:0:0:
417,121,105873,5,2,0:0:0:0:
389,196,105968,2,0,L|282:202,1,100,10|2,1:2|0:0,0:0:0:0:
231,317,106253,5,2,0:0:0:0:
203,242,106348,2,0,L|85:234,1,110.000003356934,2|2,1:2|0:0,0:0:0:0:
12,72,106633,5,10,0:0:0:0:
36,150,106728,2,0,L|158:143,1,119.999996337891,2|2,1:2|0:0,0:0:0:0:
249,12,107013,5,2,0:0:0:0:
211,83,107108,2,0,L|0:70,1,200,6|2,1:2|1:2,0:0:0:0:
11,70,108627,5,4,1:2:0:0:
173,275,108817,1,2,0:0:0:0:
203,242,108911,5,2,0:0:0:0:
172,168,109006,2,0,L|274:156,1,100,10|2,1:2|0:0,0:0:0:0:
386,143,109291,5,2,0:0:0:0:
417,69,109386,2,0,L|297:54,1,110.000003356934,2|2,1:2|0:0,0:0:0:0:
182,5,109671,5,10,0:0:0:0:
213,79,109766,2,0,L|85:93,1,119.999996337891,2|2,1:2|0:0,0:0:0:0:
103,253,110051,5,2,0:0:0:0:
72,179,110146,2,0,L|276:154,1,200,6|2,1:2|1:2,0:0:0:0:
270,155,111095,6,0,L|304:150,2,25,2|2|2,0:0|0:0|0:0,0:0:0:0:
220,161,111285,2,0,L|72:179,1,150,2|0,1:2|0:0,0:0:0:0:
103,253,111665,6,0,L|301:276,1,200,6|2,1:2|1:2,0:0:0:0:
