osu file format v14

[General]
AudioFilename: audio.mp3
AudioLeadIn: 0
PreviewTime: 60726
Countdown: 0
SampleSet: Soft
StackLeniency: 0.5
Mode: 0
LetterboxInBreaks: 0
WidescreenStoryboard: 1

[Editor]
DistanceSpacing: 1.4
BeatDivisor: 4
GridSize: 4
TimelineZoom: 2.399999

[Metadata]
Title:CIRCUS U CRIC
TitleUnicode:CIRCUS U CRIC
Artist:Nanako
ArtistUnicode:Nanako
Creator:wring
Version:Medium
Source:jubeat Qubell
Tags:yoshihiko koezuka T_da pop japanese video game bemani
BeatmapID:2603944
BeatmapSetID:1242330

[Difficulty]
HPDrainRate:4
CircleSize:3.5
OverallDifficulty:5
ApproachRate:8
SliderMultiplier:1.4
SliderTickRate:1

[Events]
//Background and Video events
0,0,"2.jpg",0,0
//Break Periods
2,99326,101020
//Storyboard Layer 0 (Background)
//Storyboard Layer 1 (Fail)
//Storyboard Layer 2 (Pass)
//Storyboard Layer 3 (Foreground)
//Storyboard Layer 4 (Overlay)
//Storyboard Sound Samples

[TimingPoints]
1056,324.324324324324,4,2,1,80,1,0
2028,-100,4,2,1,10,0,0
3326,-100,4,2,1,5,0,0
3650,-100,4,2,1,80,0,0
4623,-100,4,2,1,10,0,0
5920,-100,4,2,1,5,0,0
6245,-100,4,2,1,80,0,0
7218,-100,4,2,1,10,0,0
8515,-100,4,2,1,5,0,0
8839,-100,4,2,1,80,0,0
9812,-100,4,2,1,45,0,0
10137,-100,4,2,1,70,0,0
10461,-100,4,2,1,80,0,0
29434,-133.333333333333,4,2,1,65,0,0
38677,-133.333333333333,4,2,1,50,0,0
39001,-100,4,2,1,80,0,0
39407,-100,4,2,1,80,0,0
39974,-100,4,2,1,70,0,0
47758,-100,4,2,1,80,0,0
50353,-133.333333333333,4,2,1,60,0,0
51164,-133.333333333333,4,2,1,5,0,0
51326,-133.333333333333,4,2,1,60,0,0
52947,-133.333333333333,4,2,1,80,0,0
56434,-133.333333333333,4,2,1,5,0,0
56515,-133.333333333333,4,2,1,80,0,0
56839,-117.647058823529,4,2,1,80,0,0
60731,-100,4,2,1,80,0,1
68191,-100,4,2,1,80,0,0
68515,-100,4,2,1,80,0,1
76299,-100,4,2,1,80,0,0
82785,-100,4,2,1,40,0,0
83758,-100,4,2,1,55,0,0
84731,-100,4,2,1,60,0,0
85704,-100,4,2,1,65,0,0
90569,-100,4,2,1,80,0,1
98353,-100,4,2,1,50,0,0
101920,-100,4,2,1,80,0,0
110028,-100,4,2,1,80,0,1
119110,-100,4,2,1,60,0,0
120083,-100,4,2,1,35,0,0
125596,-100,4,2,1,5,0,0

[Colours]
Combo1 : 200,0,0
Combo2 : 6,104,202
Combo3 : 128,0,64
Combo4 : 224,224,224

[HitObjects]
432,302,1056,5,0,3:0:0:0:
336,286,1542,1,0,3:0:0:0:
256,192,2028,12,0,3326,0:0:0:0:
98,280,3650,5,0,3:0:0:0:
192,254,4137,1,0,3:0:0:0:
256,192,4623,12,0,5920,0:0:0:0:
409,71,6245,5,0,3:0:0:0:
394,167,6731,1,0,3:0:0:0:
256,192,7055,12,0,8514,0:0:0:0:
293,229,8839,5,0,3:0:0:0:
275,125,9326,1,0,3:0:0:0:
59,318,9812,6,0,P|98:278|179:290,1,140,0|8,0:0|0:0,0:0:0:0:
254,347,10299,1,8,0:0:0:0:
342,304,10461,2,0,L|386:308,2,35,2|0|2,3:2|3:0|3:2,0:0:0:0:
310,211,10785,6,0,P|303:174|309:137,1,70,0|0,1:0|1:0,0:0:0:0:
409,30,11110,1,2,0:0:0:0:
409,30,11191,1,2,0:0:0:0:
409,30,11272,2,0,L|447:34,1,35,2|2,0:0|0:0,0:0:0:0:
477,69,11434,6,0,P|484:106|478:143,1,70,12|8,0:0|0:0,0:0:0:0:
416,212,11758,1,8,0:0:0:0:
348,283,11920,2,0,P|423:282|498:301,1,140,2|0,0:3|1:0,0:0:0:0:
263,352,12407,6,0,P|226:346|188:343,1,70,0|0,1:0|1:0,0:0:0:0:
111,296,12731,1,4,0:0:0:0:
5,222,12893,2,0,B|55:227|55:227|91:208|91:208|152:214,1,140,8|8,0:0|0:0,0:0:0:0:
240,169,13380,5,0,1:0:0:0:
179,91,13542,2,0,P|165:52|165:18,1,70,8|8,0:0|0:0,0:0:0:0:
321,59,13866,2,0,B|331:103|331:103|321:149|321:149|333:196,1,140,2|0,0:3|1:0,0:0:0:0:
275,311,14353,6,0,P|311:309|362:316,1,70,0|0,1:0|1:0,0:0:0:0:
509,241,14677,2,0,P|473:243|422:236,1,70,8|2,0:0|0:0,0:0:0:0:
387,103,15001,2,0,L|378:60,3,35,8|2|2|2,0:0|0:0|0:0|0:0,0:0:0:0:
347,31,15326,6,0,P|313:26|267:31,1,70,12|8,0:0|0:0,0:0:0:0:
130,57,15650,1,2,0:0:0:0:
213,108,15812,2,0,B|227:168|161:187|188:259,1,140,2|0,3:3|0:0,0:0:0:0:
89,295,16299,6,0,P|56:294|2:311,2,70,0|2|2,1:0|0:0|3:2,0:0:0:0:
158,371,16785,1,8,0:0:0:0:
254,324,16947,2,0,P|294:324|339:310,1,70,0|2,3:0|3:3,0:0:0:0:
417,269,17272,5,8,0:0:0:0:
417,269,17434,2,0,P|454:268|499:290,1,70,8|2,0:0|1:2,0:0:0:0:
339,200,17758,2,0,P|268:180|252:119,1,140,2|0,1:3|1:0,0:0:0:0:
295,34,18245,5,0,1:0:0:0:
391,16,18407,1,0,1:0:0:0:
470,72,18569,2,0,L|453:161,1,70,8|0,0:0|0:0,0:0:0:0:
269,194,18893,2,0,L|362:201,1,70,12|2,0:0|0:0,0:0:0:0:
173,112,19218,6,0,L|80:119,1,70,8|2,0:0|0:0,0:0:0:0:
39,191,19542,1,8,0:0:0:0:
120,245,19704,2,0,P|141:289|138:333,2,70,2|8|0,1:3|0:0|1:0,0:0:0:0:
39,191,20191,6,0,P|18:147|21:103,1,70,8|2,0:0|0:0,0:0:0:0:
130,127,20515,1,8,0:0:0:0:
209,38,20677,1,2,3:3:0:0:
209,38,20758,1,0,0:0:0:0:
209,38,20839,2,0,P|176:19|142:16,1,70,8|2,0:0|0:3,0:0:0:0:
243,146,21164,6,0,P|285:142|331:141,1,70,8|0,0:0|1:0,0:0:0:0:
399,187,21488,1,8,0:0:0:0:
495,282,21650,2,0,P|427:271|355:275,1,140,0|2,1:0|1:3,0:0:0:0:
281,338,22137,2,0,P|265:304|263:257,1,70,8|0,0:0|0:0,0:0:0:0:
164,133,22461,2,0,P|164:172|151:214,1,70,8|0,0:0|3:0,0:0:0:0:
25,309,22785,2,0,P|47:307|76:309,3,35,8|8|8|8,0:0|0:0|0:0|0:0,0:0:0:0:
103,283,23110,6,0,P|143:295|180:293,1,70,12|0,0:0|0:0,0:0:0:0:
244,229,23434,2,0,P|275:216|322:212,1,70,8|2,0:0|0:3,0:0:0:0:
303,309,23758,1,8,0:0:0:0:
393,271,23920,1,0,1:0:0:0:
393,271,24001,1,0,0:0:0:0:
393,271,24083,6,0,L|400:184,1,70,0|2,1:0|3:3,0:0:0:0:
474,139,24407,1,8,0:0:0:0:
474,139,24569,2,0,L|462:43,1,70,2|8,0:3|0:0,0:0:0:0:
386,12,24893,1,0,3:0:0:0:
323,87,25055,6,0,P|286:97|249:97,1,70,8|0,0:0|1:0,0:0:0:0:
161,63,25380,1,8,0:0:0:0:
256,192,25542,2,0,P|186:180|108:199,1,140,0|0,3:0|1:0,0:0:0:0:
54,120,26028,6,0,P|48:87|59:44,1,70,8|0,0:0|3:0,0:0:0:0:
207,112,26353,2,0,P|203:151|185:190,1,70,12|0,0:0|3:0,0:0:0:0:
78,282,26677,2,0,P|44:267|-6:267,1,70,12|0,0:0|1:0,0:0:0:0:
207,359,27001,2,0,P|239:346|282:343,1,70,8|8,0:0|1:2,0:0:0:0:
434,247,27326,5,8,0:0:0:0:
468,155,27488,1,0,1:0:0:0:
394,89,27650,1,8,0:0:0:0:
311,142,27812,1,0,1:0:0:0:
333,237,27974,1,8,0:0:0:0:
387,173,28137,5,0,1:0:0:0:
387,173,28218,1,0,1:0:0:0:
387,173,28299,1,4,0:3:0:0:
182,71,29434,5,0,0:0:0:0:
182,71,29596,2,0,P|128:86|66:81,1,105.000004005432,4|0,0:0|0:0,0:0:0:0:
76,255,30245,2,0,P|93:208|146:194,1,105.000004005432,2|0,0:0|0:0,0:0:0:0:
337,241,30893,6,0,P|283:241|229:215,2,105.000004005432,8|2|0,3:2|0:0|1:0,0:0:0:0:
403,189,31704,2,0,P|416:136|405:84,1,105.000004005432,8|0,0:0|1:0,0:0:0:0:
339,35,32191,6,0,B|299:18|265:58|220:41,1,105.000004005432,4|0,0:0|0:0,0:0:0:0:
155,24,32677,1,0,3:0:0:0:
94,82,32839,2,0,P|68:125|88:178,1,105.000004005432,2|0,0:0|0:0,0:0:0:0:
129,245,33326,1,8,0:0:0:0:
129,245,33488,6,0,L|197:243,1,52.5000020027161,8|8,3:2|0:0,0:0:0:0:
257,277,33812,2,0,P|289:265|316:247,1,52.5000020027161,2|0,0:0|0:0,0:0:0:0:
387,240,34137,1,0,1:0:0:0:
387,240,34299,2,0,L|394:182,1,52.5000020027161,0|2,1:0|0:3,0:0:0:0:
414,319,34623,1,8,0:0:0:0:
489,355,34785,6,0,P|438:341|366:346,1,105.000004005432,12|2,0:0|0:0,0:0:0:0:
153,290,35434,2,0,P|204:288|273:271,1,105.000004005432,12|2,0:0|0:0,0:0:0:0:
459,201,36083,6,0,P|430:167|366:170,1,105.000004005432,12|2,0:0|0:0,0:0:0:0:
299,205,36569,1,8,0:0:0:0:
229,157,36731,2,0,P|220:104|228:47,1,105.000004005432,8|2,0:0|3:2,0:0:0:0:
150,16,37218,1,8,0:0:0:0:
108,88,37380,6,0,L|53:97,1,52.5000020027161,12|0,0:0|3:0,0:0:0:0:
14,169,37704,2,0,P|14:204|21:238,1,52.5000020027161,8|0,0:0|3:0,0:0:0:0:
115,261,38028,2,0,P|115:226|108:192,1,52.5000020027161,8|0,0:0|3:0,0:0:0:0:
18,330,38353,2,0,L|90:338,1,52.5000020027161,8|2,0:0|0:0,0:0:0:0:
175,338,38677,6,0,L|212:342,3,26.2500010013581,4|0|0|0,1:2|1:0|1:0|1:0,0:0:0:0:
247,309,39001,2,0,P|282:297|336:299,1,70,8|4,0:0|0:0,0:0:0:0:
455,235,39407,6,0,L|495:239,6,35,2|2|2|0|0|0|0,0:3|0:3|0:3|1:0|1:0|1:0|1:0,0:0:0:0:
420,211,39974,6,0,P|387:199|333:201,1,70,12|0,0:0|3:0,0:0:0:0:
213,232,40299,1,8,0:0:0:0:
269,152,40461,1,0,3:0:0:0:
200,82,40623,2,0,P|210:42|205:-2,1,70,8|0,0:0|3:0,0:0:0:0:
102,75,40947,2,0,P|94:37|72:6,1,70,8|0,0:0|3:0,0:0:0:0:
22,132,41272,6,0,P|30:203|33:278,1,140,8|8,0:0|0:0,0:0:0:0:
147,329,41758,1,0,3:0:0:0:
195,243,41920,2,0,P|160:232|119:236,1,70,8|0,3:2|3:0,0:0:0:0:
203,127,42245,2,0,P|247:126|278:113,1,70,8|0,0:0|3:0,0:0:0:0:
366,16,42569,6,0,P|372:85|380:160,1,140,12|8,0:0|0:0,0:0:0:0:
418,245,43055,1,0,3:0:0:0:
478,357,43218,2,0,P|444:346|393:343,1,70,8|0,0:0|3:0,0:0:0:0:
312,224,43542,2,0,P|320:263|320:310,1,70,8|0,0:0|3:0,0:0:0:0:
234,338,43866,6,0,P|168:359|78:366,1,140,8|8,0:0|0:0,0:0:0:0:
26,298,44353,1,0,3:0:0:0:
75,213,44515,2,0,P|70:178|50:143,2,70,8|0|8,0:0|3:0|0:0,0:0:0:0:
97,366,45001,1,2,1:3:0:0:
147,281,45164,6,0,P|216:274|281:303,1,140,12|8,0:0|0:0,0:0:0:0:
477,263,45650,1,0,3:0:0:0:
408,193,45812,2,0,P|325:187|257:217,1,140,12|8,0:0|0:0,0:0:0:0:
90,145,46299,1,0,3:0:0:0:
172,92,46461,6,0,P|216:91|251:102,1,70,12|0,0:0|3:0,0:0:0:0:
326,51,46785,2,0,P|367:72|395:106,1,70,8|0,0:0|3:0,0:0:0:0:
480,107,47110,1,8,0:0:0:0:
480,107,47191,1,0,3:0:0:0:
480,107,47272,2,0,P|493:142|496:194,1,70,0|0,3:0|3:0,0:0:0:0:
457,263,47596,1,0,3:0:0:0:
361,284,47758,6,0,B|304:281|304:281|282:260|282:260|215:256,1,140,12|8,0:0|0:0,0:0:0:0:
152,317,48245,1,0,3:0:0:0:
243,351,48407,2,0,B|252:321|252:321|239:202,1,140,12|8,0:0|0:0,0:0:0:0:
231,34,48893,1,0,3:0:0:0:
174,113,49055,6,0,L|87:104,2,70,8|0|0,0:0|0:0|1:0,0:0:0:0:
295,136,49542,2,0,L|384:125,2,70,0|8|8,1:0|1:3|1:3,0:0:0:0:
236,209,50028,2,0,L|242:263,2,35,8|8|8,0:3|0:3|0:3,0:0:0:0:
62,217,50353,6,0,P|49:259|96:292,1,105.000004005432,12|2,0:0|3:0,0:0:0:0:
150,224,50839,2,0,P|148:171|162:118,1,105.000004005432,8|0,0:0|0:0,0:0:0:0:
233,77,51326,6,0,B|281:103|295:65|348:90,1,105.000004005432,8|0,0:0|1:0,0:0:0:0:
377,157,51812,2,0,P|440:147|465:184,1,105.000004005432,8|2,0:0|3:0,0:0:0:0:
464,275,52299,6,0,L|461:330,1,52.5000020027161,2|2,0:0|3:0,0:0:0:0:
331,289,52623,2,0,L|326:227,1,52.5000020027161,2|8,0:0|0:0,0:0:0:0:
354,111,52947,6,0,P|302:119|252:96,1,105.000004005432,12|0,0:0|1:0,0:0:0:0:
196,38,53434,2,0,P|147:26|83:58,1,105.000004005432,12|2,0:0|0:0,0:0:0:0:
39,104,53920,2,0,L|44:167,1,52.5000020027161,8|2,0:0|0:0,0:0:0:0:
116,198,54245,5,2,3:0:0:0:
70,287,54407,2,0,P|113:275|187:285,1,105.000004005432,4|2,0:0|3:0,0:0:0:0:
234,336,54893,2,0,L|296:341,1,52.5000020027161,0|0,1:0|3:0,0:0:0:0:
376,267,55218,2,0,L|448:270,1,52.5000020027161,8|8,0:3|0:0,0:0:0:0:
510,154,55542,6,0,L|389:149,1,105.000004005432,12|2,0:0|0:0,0:0:0:0:
115,60,56191,2,0,L|216:55,1,78.7500030040742,0|0,1:0|0:0,0:0:0:0:
222,86,56515,2,0,P|225:105|222:132,3,26.2500010013581,8|0|8|8,0:0|3:0|0:0|0:0,0:0:0:0:
211,157,56839,2,0,P|187:210|220:265,1,119.000002269745,8|2,0:0|0:3,0:0:0:0:
324,339,57326,1,2,0:0:0:0:
324,339,57488,6,0,L|318:275,1,59.5000011348725,2|8,1:3|0:0,0:0:0:0:
415,199,57812,2,0,L|410:278,1,59.5000011348725,2|2,0:0|0:0,0:0:0:0:
319,171,58137,6,0,L|309:44,1,119.000002269745,8|8,0:0|0:0,0:0:0:0:
405,97,58623,1,8,0:0:0:0:
223,89,58785,2,0,P|214:59|220:16,2,59.5000011348725,8|8|0,0:0|0:3|3:0,0:0:0:0:
319,171,59272,5,4,0:0:0:0:
134,303,59596,1,4,0:0:0:0:
85,95,59920,1,4,0:0:0:0:
472,152,60731,6,0,P|438:165|380:170,1,70,4|0,0:0|0:0,0:0:0:0:
328,44,61055,2,0,P|323:81|326:116,1,70,8|2,0:0|0:0,0:0:0:0:
313,211,61380,1,8,0:0:0:0:
209,344,61704,6,0,P|174:347|140:359,1,70,4|0,0:0|0:0,0:0:0:0:
76,209,62028,2,0,P|96:237|123:261,1,70,8|2,0:0|0:0,0:0:0:0:
47,326,62353,1,8,0:0:0:0:
250,235,62677,6,0,P|263:197|266:155,1,70,4|0,0:0|0:0,0:0:0:0:
428,173,63001,1,8,0:0:0:0:
354,107,63164,2,0,P|316:100|278:69,1,70,0|8,3:0|0:0,0:0:0:0:
221,13,63488,1,0,3:0:0:0:
146,76,63650,6,0,P|146:111|155:151,1,70,8|0,0:0|1:0,0:0:0:0:
319,284,63974,2,0,P|319:249|310:209,1,70,8|8,0:0|0:3,0:0:0:0:
116,251,64299,1,2,0:0:0:0:
116,251,64623,6,0,P|83:262|30:256,1,70,4|0,0:0|0:0,0:0:0:0:
212,174,64947,2,0,P|212:213|235:261,1,70,8|2,0:0|0:0,0:0:0:0:
175,338,65272,1,8,0:0:0:0:
382,345,65596,6,0,P|396:308|396:269,1,70,4|0,0:0|0:0,0:0:0:0:
482,133,65920,2,0,P|468:170|468:209,1,70,8|2,0:0|0:0,0:0:0:0:
502,296,66245,1,8,0:0:0:0:
306,191,66569,6,0,P|273:186|223:196,1,70,4|0,0:0|0:0,0:0:0:0:
181,42,66893,2,0,P|199:72|233:96,1,70,8|0,0:0|1:0,0:0:0:0:
150,155,67218,2,0,P|126:185|84:201,1,70,2|0,0:0|1:0,0:0:0:0:
63,311,67542,1,2,3:0:0:0:
3,233,67704,1,2,3:0:0:0:
63,311,67866,2,0,P|135:305|205:330,1,140,0|2,1:0|3:3,0:0:0:0:
417,309,68515,5,12,0:0:0:0:
327,269,68677,1,0,3:0:0:0:
390,194,68839,1,8,0:0:0:0:
478,235,69001,2,0,B|457:164|457:164|466:98,1,140,0|0,3:0|1:0,0:0:0:0:
404,21,69488,5,8,0:0:0:0:
347,100,69650,1,0,3:0:0:0:
347,100,69812,1,12,0:0:0:0:
277,30,69974,2,0,P|220:58|144:54,1,140,0|0,1:0|3:0,0:0:0:0:
54,16,70461,6,0,L|61:97,1,70,12|2,0:0|0:3,0:0:0:0:
80,250,70785,1,8,0:0:0:0:
15,172,70947,2,0,P|71:199|147:180,1,140,2|2,1:3|0:3,0:0:0:0:
255,128,71434,2,0,L|248:214,1,70,8|2,0:0|3:0,0:0:0:0:
355,55,71758,2,0,L|363:145,1,70,12|0,0:0|1:0,0:0:0:0:
403,223,72083,6,0,L|441:219,3,35,8|8|8|8,3:2|3:2|3:2|3:2,0:0:0:0:
474,252,72407,2,0,P|476:289|464:332,1,70,12|0,0:0|3:0,0:0:0:0:
386,374,72731,1,8,0:0:0:0:
302,322,72893,2,0,L|147:336,1,140,2|0,3:0|3:0,0:0:0:0:
85,273,73380,6,0,P|108:246|121:206,1,70,8|2,0:0|3:0,0:0:0:0:
77,125,73704,1,12,0:0:0:0:
151,61,73866,2,0,P|206:14|270:31,1,140,0|0,1:0|1:0,0:0:0:0:
460,99,74353,6,0,P|394:115|309:110,1,140,12|8,0:0|0:0,0:0:0:0:
129,213,74839,2,0,P|190:193|265:196,1,140,0|2,3:0|3:0,0:0:0:0:
354,247,75326,6,0,L|383:283,2,35,8|2|2,0:0|0:0|0:0,0:0:0:0:
275,103,75650,2,0,L|289:58,2,35,8|2|2,0:0|0:0|0:0,0:0:0:0:
256,278,75974,2,0,L|258:320,2,35,8|2|2,0:0|0:0|0:0,0:0:0:0:
367,148,76299,5,8,1:2:0:0:
367,148,76461,1,8,1:2:0:0:
173,74,76785,1,8,0:0:0:0:
173,74,76947,1,8,1:2:0:0:
49,210,77272,1,8,1:2:0:0:
49,210,77434,1,8,1:2:0:0:
217,317,77758,1,8,1:2:0:0:
217,317,77920,1,8,1:2:0:0:
248,133,78245,6,0,P|214:141|174:143,1,70,8|8,0:0|0:0,0:0:0:0:
266,34,78569,2,0,P|232:36|198:45,1,70,8|8,0:0|0:0,0:0:0:0:
341,100,78893,2,0,P|379:94|436:93,1,70,8|2,0:0|0:3,0:0:0:0:
440,189,79218,1,2,0:3:0:0:
325,197,79380,2,0,P|390:226|442:186,1,140,8|12,0:0|0:3,0:0:0:0:
388,272,79866,6,0,P|379:311|386:363,1,70,12|2,0:3|3:0,0:0:0:0:
286,369,80191,1,8,1:2:0:0:
241,281,80353,2,0,P|194:323|127:294,1,140,8|0,0:0|1:0,0:0:0:0:
83,210,80839,6,0,L|68:163,5,46.6666666666667,6|8|8|0|2|0,3:2|3:0|3:0|1:0|1:3|1:0,0:0:0:0:
114,117,81488,6,0,P|101:78|106:20,2,93.3333333333333,8|8|8,0:0|0:0|1:2,0:0:0:0:
232,173,82137,2,0,P|277:149|308:111,2,93.3333333333333,8|8|8,0:0|0:0|1:2,0:0:0:0:
122,243,82785,5,4,0:3:0:0:
144,268,83758,1,2,0:0:0:0:
180,277,84731,1,2,0:0:0:0:
224,260,85704,2,0,P|224:291|237:344,2,70,2|0|2,0:0|0:0|0:0,0:0:0:0:
245,163,86191,1,0,0:0:0:0:
245,163,86353,1,2,0:0:0:0:
472,26,86677,6,0,P|450:53|439:100,1,70,4|0,3:2|0:0,0:0:0:0:
343,104,87001,2,0,P|365:133|373:173,1,70,0|0,1:0|0:0,0:0:0:0:
505,166,87326,1,8,1:2:0:0:
289,346,87650,6,0,P|327:345|369:326,1,70,4|0,3:2|0:0,0:0:0:0:
181,321,87974,2,0,P|212:301|230:264,1,70,0|0,1:0|0:0,0:0:0:0:
80,331,88299,1,8,1:2:0:0:
38,137,88623,6,0,P|75:149|123:154,1,70,4|8,3:2|0:3,0:0:0:0:
215,34,88947,1,8,0:3:0:0:
206,132,89110,2,0,P|224:164|263:183,1,70,0|8,1:0|1:2,0:0:0:0:
347,159,89434,2,0,L|360:82,2,70,0|8|0,1:0|1:2|1:0,0:0:0:0:
394,262,89920,5,0,1:0:0:0:
394,262,90083,1,8,0:3:0:0:
299,322,90245,1,2,1:3:0:0:
299,322,90407,1,8,0:3:0:0:
200,270,90569,6,0,P|185:298|180:341,2,70,4|0|8,0:0|3:0|0:0,0:0:0:0:
294,192,91055,2,0,P|235:211|155:207,1,140,0|2,3:0|3:0,0:0:0:0:
98,106,91542,6,0,P|87:144|55:181,2,70,8|0|12,0:0|3:0|0:0,0:0:0:0:
37,16,92028,2,0,P|110:48|170:47,1,140,0|0,1:0|3:0,0:0:0:0:
263,19,92515,5,12,0:0:0:0:
346,70,92677,1,0,3:0:0:0:
431,22,92839,1,8,0:0:0:0:
475,109,93001,2,0,B|449:133|454:161|454:161|467:180|467:180|468:215|419:248,1,140,0|0,3:0|3:0,0:0:0:0:
350,267,93488,2,0,P|347:302|362:351,1,70,8|0,0:0|3:0,0:0:0:0:
502,380,93812,2,0,P|505:345|490:296,1,70,8|2,0:0|0:0,0:0:0:0:
443,230,94137,6,0,L|431:181,3,35,8|8|8|8,0:0|0:0|0:0|0:0,0:0:0:0:
408,154,94461,2,0,L|329:139,1,70,12|0,0:0|3:0,0:0:0:0:
273,213,94785,2,0,L|189:228,1,70,8|0,0:0|3:0,0:0:0:0:
139,151,95110,1,8,0:0:0:0:
139,151,95191,1,0,0:0:0:0:
139,151,95272,1,0,3:0:0:0:
200,75,95434,6,0,P|237:67|274:75,1,70,8|0,0:0|3:0,0:0:0:0:
339,140,95758,1,12,0:0:0:0:
139,151,95920,2,0,P|100:99|118:17,1,140,2|0,3:0|3:0,0:0:0:0:
52,150,96407,6,0,P|31:181|-6:203,1,70,8|0,0:0|3:0,0:0:0:0:
83,256,96731,1,8,0:0:0:0:
42,345,96893,2,0,B|100:373|121:326|182:358,1,140,0|2,3:0|3:0,0:0:0:0:
281,294,97380,6,0,L|324:294,2,35,8|0|2,0:0|0:0|0:0,0:0:0:0:
234,197,97704,2,0,L|199:203,2,35,8|0|2,0:0|0:0|0:0,0:0:0:0:
352,154,98028,2,0,L|401:162,2,35,8|0|2,0:0|0:0|0:0,0:0:0:0:
264,69,98353,1,8,0:0:0:0:
369,102,101920,6,0,P|388:98|413:92,3,35,6|2|2|2,0:0|0:0|0:0|0:0,0:0:0:0:
441,63,102245,2,0,P|433:106|442:162,1,70,8|8,0:0|0:0,0:0:0:0:
481,218,102569,1,0,1:0:0:0:
410,285,102731,2,0,P|342:292|312:364,1,140,2|8,0:3|0:0,0:0:0:0:
216,273,103218,6,0,P|201:237|200:199,1,70,2|0,0:3|1:0,0:0:0:0:
252,124,103542,1,2,3:3:0:0:
198,42,103704,2,0,P|130:24|73:80,1,140,8|8,0:0|0:0,0:0:0:0:
54,216,104191,5,8,0:0:0:0:
147,285,104353,2,0,P|194:275|237:270,1,70,8|0,0:0|1:0,0:0:0:0:
289,187,104677,2,0,P|317:253|386:262,1,140,2|0,3:3|1:0,0:0:0:0:
473,345,105164,6,0,P|465:306|477:254,1,70,2|2,0:0|0:0,0:0:0:0:
495,110,105488,2,0,P|503:149|491:201,1,70,8|2,0:0|0:0,0:0:0:0:
393,159,105812,6,0,L|388:115,3,35,8|8|8|8,0:0|0:0|0:0|0:0,0:0:0:0:
339,130,106137,2,0,P|304:130|253:122,1,70,4|8,0:0|0:0,0:0:0:0:
192,65,106461,1,2,0:3:0:0:
76,54,106623,2,0,P|142:59|220:29,1,140,2|0,3:3|1:0,0:0:0:0:
163,140,107110,5,2,0:3:0:0:
183,244,107272,2,0,P|149:235|97:234,1,70,0|0,1:0|1:0,0:0:0:0:
258,172,107596,2,0,P|333:178|360:250,1,140,8|0,0:0|3:0,0:0:0:0:
286,325,108083,6,0,L|201:330,1,70,8|8,0:0|0:0,0:0:0:0:
147,259,108407,1,0,1:0:0:0:
87,358,108569,2,0,P|103:296|97:217,1,140,2|0,3:3|1:0,0:0:0:0:
27,62,109055,6,0,L|51:152,1,70,2|0,0:0|0:0,0:0:0:0:
162,89,109380,2,0,L|172:8,1,70,8|0,0:0|0:0,0:0:0:0:
324,21,109704,2,0,L|271:86,1,70,4|8,0:0|0:0,0:0:0:0:
192,194,110028,6,0,P|230:183|280:181,1,70,4|0,0:0|3:0,0:0:0:0:
224,335,110353,1,8,0:0:0:0:
328,291,110515,2,0,P|371:301|425:295,1,70,0|8,3:0|0:0,0:0:0:0:
499,255,110839,1,0,3:0:0:0:
499,255,110920,1,0,0:0:0:0:
499,255,111001,2,0,L|493:164,1,70,0|0,0:0|3:0,0:0:0:0:
399,56,111326,6,0,L|311:57,1,70,12|0,0:0|3:0,0:0:0:0:
216,153,111650,2,0,L|308:145,1,70,12|0,0:0|3:0,0:0:0:0:
384,248,111974,2,0,L|295:238,1,70,12|0,0:0|3:0,0:0:0:0:
211,261,112299,1,8,0:0:0:0:
144,352,112461,2,0,P|212:327|295:329,1,140,0|0,3:0|3:0,0:0:0:0:
377,289,112947,2,0,P|399:318|406:361,1,70,8|0,0:0|3:0,0:0:0:0:
374,181,113272,2,0,P|401:157|434:147,1,70,12|0,0:0|3:0,0:0:0:0:
281,232,113596,5,0,1:0:0:0:
281,232,113677,1,0,1:0:0:0:
281,232,113758,2,0,P|263:234|242:231,1,35,0|0,3:0|3:0,0:0:0:0:
197,212,113920,2,0,P|175:183|168:140,1,70,12|0,0:0|3:0,0:0:0:0:
173,27,114245,1,8,0:0:0:0:
258,87,114407,2,0,P|294:100|337:95,1,70,0|8,0:0|0:0,0:0:0:0:
408,16,114731,1,0,3:0:0:0:
412,167,114893,6,0,P|457:164|489:144,1,70,8|2,0:0|3:3,0:0:0:0:
460,290,115218,1,12,0:0:0:0:
360,257,115380,2,0,P|292:258|232:315,1,140,0|0,3:0|3:0,0:0:0:0:
139,267,115866,6,0,P|128:301|129:346,1,70,8|0,0:0|3:0,0:0:0:0:
215,194,116191,1,8,0:0:0:0:
102,96,116353,2,0,P|170:111|257:100,1,140,2|0,3:3|1:0,0:0:0:0:
349,43,116839,6,0,L|423:38,1,70,8|2,0:0|1:3,0:0:0:0:
480,168,117164,2,0,L|396:158,1,70,12|2,0:0|1:3,0:0:0:0:
308,279,117488,2,0,L|399:273,1,70,12|2,0:0|1:3,0:0:0:0:
304,110,117812,2,0,L|214:98,1,70,8|0,3:2|3:0,0:0:0:0:
131,211,118137,2,0,L|219:203,1,70,8|0,3:2|3:0,0:0:0:0:
324,186,118461,5,8,3:2:0:0:
324,186,118623,1,0,3:0:0:0:
411,85,118785,1,8,1:2:0:0:
411,85,118947,1,2,1:3:0:0:
295,18,119110,5,4,0:3:0:0:
167,86,120083,2,0,L|126:78,3,23.3333333333333,4|0|2|2,0:0|0:0|0:0|0:0,0:0:0:0:
256,192,120326,12,0,125596,0:0:0:0:
