osu file format v14

[General]
AudioFilename: audio.mp3
AudioLeadIn: 0
PreviewTime: 60726
Countdown: 0
SampleSet: Soft
StackLeniency: 0.3
Mode: 0
LetterboxInBreaks: 0
WidescreenStoryboard: 1

[Editor]
DistanceSpacing: 0.9
BeatDivisor: 4
GridSize: 4
TimelineZoom: 2.799999

[Metadata]
Title:CIRCUS U CRIC
TitleUnicode:CIRCUS U CRIC
Artist:Nanako
ArtistUnicode:Nanako
Creator:wring
Version:Advanced
Source:jubeat Qubell
Tags:yoshihiko koezuka T_da pop japanese video game bemani
BeatmapID:2602768
BeatmapSetID:1242330

[Difficulty]
HPDrainRate:5
CircleSize:4
OverallDifficulty:7
ApproachRate:9
SliderMultiplier:1.6
SliderTickRate:1

[Events]
//Background and Video events
0,0,"2.jpg",0,0
//Break Periods
//Storyboard Layer 0 (Background)
//Storyboard Layer 1 (Fail)
//Storyboard Layer 2 (Pass)
//Storyboard Layer 3 (Foreground)
//Storyboard Layer 4 (Overlay)
//Storyboard Sound Samples

[TimingPoints]
1056,324.324324324324,4,2,1,80,1,0
2028,-100,4,2,1,30,0,0
2191,-100,4,2,1,5,0,0
3650,-100,4,2,1,80,0,0
4623,-100,4,2,1,30,0,0
4785,-100,4,2,1,5,0,0
6245,-100,4,2,1,80,0,0
7218,-100,4,2,1,30,0,0
7380,-100,4,2,1,5,0,0
8839,-100,4,2,1,80,0,0
9812,-100,4,2,1,45,0,0
10055,-100,4,2,1,5,0,0
10137,-100,4,2,1,70,0,0
10218,-100,4,2,1,15,0,0
10299,-100,4,2,1,70,0,0
10380,-100,4,2,1,15,0,0
10461,-100,4,2,1,80,0,0
10866,-100,4,2,1,20,0,0
10947,-100,4,2,1,80,0,0
11028,-100,4,2,1,20,0,0
11110,-100,4,2,1,80,0,0
29434,-166.666666666667,4,2,1,65,0,0
38677,-166.666666666667,4,2,1,50,0,0
39001,-100,4,2,1,80,0,0
39083,-100,4,2,1,5,0,0
39164,-100,4,2,1,80,0,0
39326,-100,4,2,1,20,0,0
39407,-100,4,2,1,80,0,0
39974,-111.111111111111,4,2,1,70,0,0
47758,-100,4,2,1,80,0,0
50353,-133.333333333333,4,2,1,60,0,0
50596,-133.333333333333,4,2,1,5,0,0
50677,-133.333333333333,4,2,1,60,0,0
51164,-100,4,2,1,5,0,0
51326,-100,4,2,1,60,0,0
51569,-100,4,2,1,10,0,0
51650,-100,4,2,1,60,0,0
52947,-133.333333333333,4,2,1,80,0,0
56839,-117.647058823529,4,2,1,80,0,0
60731,-100,4,2,1,80,0,1
68434,-100,4,2,1,80,0,0
68515,-90.9090909090909,4,2,1,80,0,1
76299,-100,4,2,1,80,0,0
82785,-100,4,2,1,40,0,0
83758,-100,4,2,1,55,0,0
84731,-100,4,2,1,60,0,0
85704,-100,4,2,1,65,0,0
90569,-100,4,2,1,80,0,1
98353,-66.6666666666667,4,2,1,50,0,0
99326,-83.3333333333333,4,2,1,40,0,0
100299,-100,4,2,1,70,0,0
100947,-100,4,2,1,75,0,0
101596,-66.6666666666667,4,2,1,80,0,0
101677,-66.6666666666667,4,2,1,5,0,0
101758,-66.6666666666667,4,2,1,80,0,0
101839,-66.6666666666667,4,2,1,5,0,0
101920,-100,4,2,1,80,0,0
110028,-90.9090909090909,4,2,1,80,0,1
119110,-100,4,2,1,60,0,0
120083,-100,4,2,1,35,0,0
125596,-100,4,2,1,5,0,0

[Colours]
Combo1 : 200,0,0
Combo2 : 6,104,202
Combo3 : 128,0,64
Combo4 : 224,224,224

[HitObjects]
159,110,1056,5,0,3:0:0:0:
269,73,1542,1,0,3:0:0:0:
250,187,2028,2,0,B|344:198|378:117|378:117|329:189|396:264|396:264|320:288|277:257|265:222|265:222|207:193|159:216|159:216|172:230|172:230|121:280|62:256,1,720
81,168,3650,5,0,3:0:0:0:
217,304,4137,1,0,3:0:0:0:
282,104,4623,2,0,B|213:97|176:38|176:38|125:21|125:21|82:45|88:90|88:90|127:104|127:104|116:131|116:131|152:188|83:247|83:247|59:346|152:376|152:376|177:341|165:290,1,720,0|0,0:0|0:0,0:0:0:0:
213,177,6245,5,0,3:0:0:0:
378,37,6731,1,0,3:0:0:0:
441,258,7218,2,0,B|314:316|226:288|212:181|212:181|207:218|180:246|180:246|179:328|264:365|336:350|336:350|291:280|319:212,1,720,0|0,0:0|0:0,0:0:0:0:
342,130,8839,5,0,3:0:0:0:
351,105,9326,1,0,3:0:0:0:
362,79,9812,2,0,P|305:86|234:90,1,120,0|0,0:0|0:0,0:0:0:0:
147,26,10137,6,0,P|148:52|153:73,1,40,8|0,0:0|0:0,0:0:0:0:
58,184,10299,2,0,P|60:161|66:135,1,40,8|0,0:0|0:0,0:0:0:0:
160,203,10461,6,0,L|200:197,3,40,2|0|2|2,3:2|3:0|3:2|3:2,0:0:0:0:
294,172,10785,6,0,P|289:197|289:223,1,40,0|0,1:0|0:0,0:0:0:0:
336,278,10947,2,0,P|340:301|348:324,1,40,0|0,1:0|0:0,0:0:0:0:
449,330,11110,5,2,0:0:0:0:
471,314,11191,1,2,0:0:0:0:
480,287,11272,1,2,0:0:0:0:
479,259,11353,1,2,0:0:0:0:
467,233,11434,6,0,P|459:198|466:151,1,80,12|8,0:0|0:0,0:0:0:0:
365,29,11758,1,8,0:0:0:0:
287,98,11920,2,0,P|295:133|288:180,1,80,2|0,0:3|0:0,0:0:0:0:
289,176,12164,1,0,3:0:0:0:
289,176,12245,1,0,1:0:0:0:
100,295,12407,6,0,P|135:285|192:280,1,80,0|0,1:0|1:0,0:0:0:0:
288,308,12731,1,4,0:0:0:0:
202,139,12893,2,0,P|167:149|110:154,1,80,8|0,0:0|0:0,0:0:0:0:
242,42,13218,1,8,0:0:0:0:
341,168,13380,6,0,P|348:128|372:92,1,80,0|8,1:0|0:0,0:0:0:0:
373,252,13704,1,8,0:0:0:0:
488,312,13866,2,0,B|426:316|426:316|406:330|406:330|331:335,1,160,2|0,0:3|1:0,0:0:0:0:
231,310,14353,1,0,1:0:0:0:
169,226,14515,1,0,1:0:0:0:
141,345,14677,5,8,0:0:0:0:
263,193,14839,1,2,0:0:0:0:
170,64,15001,1,8,0:0:0:0:
197,69,15083,1,2,0:0:0:0:
224,65,15164,1,2,0:0:0:0:
249,52,15245,1,2,0:0:0:0:
267,31,15326,6,0,P|307:44|361:42,1,80,12|8,0:0|0:0,0:0:0:0:
451,16,15650,1,2,0:0:0:0:
470,155,15812,2,0,P|460:204|452:258,1,80,2|0,3:3|0:0,0:0:0:0:
458,261,16055,1,0,0:0:0:0:
458,261,16137,1,0,0:0:0:0:
319,219,16299,6,0,P|276:222|230:230,1,80,0|2,1:0|0:0,0:0:0:0:
138,155,16623,1,2,3:2:0:0:
70,248,16785,2,0,P|74:292|76:338,1,80,8|0,0:0|3:0,0:0:0:0:
185,244,17110,1,2,3:3:0:0:
313,144,17272,6,0,P|273:141|235:161,1,80,8|8,0:0|0:0,0:0:0:0:
288,239,17596,1,2,1:2:0:0:
340,55,17758,2,0,P|256:48|180:88,1,160,2|0,1:3|1:0,0:0:0:0:
105,42,18245,5,0,1:0:0:0:
32,177,18407,1,0,1:0:0:0:
150,160,18569,1,8,0:0:0:0:
185,243,18731,1,0,0:0:0:0:
340,304,18893,1,12,0:0:0:0:
266,203,19055,1,2,0:0:0:0:
412,153,19218,6,0,P|371:149|327:122,1,80,8|2,0:0|0:0,0:0:0:0:
260,43,19542,1,8,0:0:0:0:
171,223,19704,2,0,P|209:210|250:214,1,80,2|8,1:3|0:0,0:0:0:0:
263,225,19947,1,0,1:0:0:0:
274,241,20028,1,0,1:0:0:0:
328,342,20191,5,8,0:0:0:0:
445,287,20353,1,2,0:0:0:0:
386,181,20515,1,8,0:0:0:0:
363,264,20677,1,2,3:3:0:0:
455,127,20839,2,0,P|454:86|473:44,1,80,8|2,0:0|0:3,0:0:0:0:
341,81,21164,6,0,L|253:88,1,80,8|0,0:0|1:0,0:0:0:0:
180,52,21488,1,8,0:0:0:0:
74,183,21650,2,0,L|246:164,1,160,0|2,1:0|1:3,0:0:0:0:
345,157,22137,6,0,P|327:193|322:240,1,80,8|0,0:0|0:0,0:0:0:0:
439,345,22461,2,0,P|440:305|428:264,1,80,8|0,0:0|3:0,0:0:0:0:
259,315,22785,1,8,0:0:0:0:
235,329,22866,1,8,0:0:0:0:
210,315,22947,1,8,0:0:0:0:
183,309,23028,1,8,0:0:0:0:
156,317,23110,6,0,P|118:319|77:331,1,80,12|0,0:0|0:0,0:0:0:0:
78,238,23434,1,8,0:0:0:0:
209,222,23596,2,0,P|216:183|211:135,1,80,2|8,0:3|0:0,0:0:0:0:
284,44,23920,1,0,1:0:0:0:
391,107,24083,6,0,P|384:146|389:194,1,80,0|2,1:0|3:3,0:0:0:0:
285,287,24407,1,8,0:0:0:0:
130,189,24569,1,2,0:3:0:0:
130,189,24650,1,0,0:0:0:0:
130,189,24731,2,0,L|28:199,1,80,8|0,0:0|3:0,0:0:0:0:
205,294,25055,6,0,L|307:284,1,80,8|0,0:0|1:0,0:0:0:0:
357,217,25380,1,8,0:0:0:0:
418,303,25542,2,0,B|404:248|404:248|414:206|414:206|400:145,1,160,0|0,3:0|1:0,0:0:0:0:
232,73,26028,5,8,0:0:0:0:
144,86,26191,1,0,3:0:0:0:
110,187,26353,2,0,P|154:185|197:168,1,80,12|0,0:0|3:0,0:0:0:0:
357,217,26677,5,12,0:0:0:0:
445,230,26840,1,0,1:0:0:0:
469,334,27002,2,0,P|425:332|382:315,1,80,8|8,0:0|1:2,0:0:0:0:
220,323,27326,5,8,0:0:0:0:
220,323,27407,1,0,0:0:0:0:
220,323,27488,1,0,1:0:0:0:
88,237,27650,1,8,0:0:0:0:
88,237,27731,1,0,0:0:0:0:
88,237,27812,1,0,1:0:0:0:
229,164,27974,1,8,0:0:0:0:
181,241,28137,1,0,1:0:0:0:
181,241,28218,1,0,1:0:0:0:
181,241,28299,1,4,0:3:0:0:
177,88,29434,5,0,0:0:0:0:
177,88,29596,2,0,P|224:93|279:75,1,95.9999970703126,4|0,0:0|0:0,0:0:0:0:
358,131,30083,1,0,3:0:0:0:
409,44,30245,2,0,P|456:36|505:57,1,95.9999970703126,2|0,0:0|0:0,0:0:0:0:
358,131,30731,1,8,0:0:0:0:
454,176,30893,6,0,L|463:244,1,47.9999985351563,8|8,3:2|0:0,0:0:0:0:
377,278,31218,2,0,L|368:210,1,47.9999985351563,2|0,0:0|0:0,0:0:0:0:
358,131,31542,1,0,1:0:0:0:
271,80,31704,2,0,P|224:89|177:88,1,95.9999970703126,8|0,0:0|1:0,0:0:0:0:
108,35,32191,6,0,P|91:74|99:131,1,95.9999970703126,4|0,0:0|0:0,0:0:0:0:
169,176,32677,1,0,3:0:0:0:
248,140,32839,2,0,P|265:101|257:44,1,95.9999970703126,2|0,0:0|0:0,0:0:0:0:
177,88,33326,1,8,0:0:0:0:
169,176,33488,6,0,L|218:171,1,47.9999985351563,8|8,3:2|0:0,0:0:0:0:
112,248,33812,2,0,L|138:203,1,47.9999985351563,2|0,0:0|0:0,0:0:0:0:
164,331,34137,5,0,1:0:0:0:
159,323,34299,1,0,1:0:0:0:
269,296,34461,1,2,0:3:0:0:
259,299,34623,1,8,0:0:0:0:
356,343,34785,6,0,L|366:278,1,47.9999985351563,12|0,0:0|0:0,0:0:0:0:
449,334,35110,2,0,L|459:269,1,47.9999985351563,2|0,0:0|0:0,0:0:0:0:
331,226,35434,5,12,0:0:0:0:
331,226,35596,2,0,L|352:118,1,95.9999970703126,0|0,0:0|0:0,0:0:0:0:
424,217,36083,2,0,L|445:109,1,95.9999970703126,12|2,0:0|0:0,0:0:0:0:
302,61,36569,5,8,0:0:0:0:
376,12,36731,2,0,B|391:33|391:33|390:68,1,47.9999985351563,8|2,0:0|3:2,0:0:0:0:
349,131,37055,1,8,0:0:0:0:
442,122,37218,1,2,3:2:0:0:
401,223,37380,6,0,P|375:228|345:230,1,47.9999985351563,12|0,0:0|3:0,0:0:0:0:
292,300,37704,2,0,P|262:302|236:307,1,47.9999985351563,8|0,0:0|3:0,0:0:0:0:
305,152,38028,2,0,P|281:149|258:146,1,47.9999985351563,8|0,0:0|3:0,0:0:0:0:
156,62,38353,2,0,P|185:64|212:69,1,47.9999985351563,8|2,0:0|0:0,0:0:0:0:
197,205,38677,6,0,L|200:237,3,23.9999992675781,4|0|0|0,1:2|1:0|1:0|1:0,0:0:0:0:
195,284,39001,6,0,P|168:279|125:278,1,40,8|0,0:0|0:0,0:0:0:0:
76,278,39164,6,0,P|116:284|174:270,1,80,4|0,0:0|0:0,0:0:0:0:
236,243,39407,5,2,0:3:0:0:
263,238,39488,1,2,0:3:0:0:
288,249,39569,1,2,0:3:0:0:
304,271,39650,1,0,1:0:0:0:
327,286,39731,1,0,1:0:0:0:
353,294,39812,1,0,1:0:0:0:
380,292,39893,1,0,1:0:0:0:
402,280,39974,6,0,P|422:244|424:212,1,71.9999978027344,12|0,0:0|3:0,0:0:0:0:
277,115,40299,1,8,0:0:0:0:
387,43,40461,2,0,P|378:80|387:122,1,71.9999978027344,0|8,3:0|0:0,0:0:0:0:
424,213,40785,1,0,3:0:0:0:
235,206,40947,1,8,0:0:0:0:
226,210,41028,1,0,3:0:0:0:
213,215,41110,6,0,P|176:222|110:221,1,71.9999978027344,0|8,3:0|0:0,0:0:0:0:
14,326,41434,2,0,P|51:333|117:332,1,71.9999978027344,0|8,3:0|0:0,0:0:0:0:
246,301,41758,1,0,3:0:0:0:
342,316,41920,2,0,P|340:341|340:366,2,35.9999989013672,8|0|0,3:2|3:0|3:0,0:0:0:0:
308,219,42245,1,8,0:0:0:0:
321,213,42326,1,0,3:0:0:0:
333,206,42407,1,0,3:0:0:0:
344,198,42488,1,0,0:0:0:0:
354,188,42569,6,0,P|350:149|368:114,1,71.9999978027344,12|8,0:0|0:3,0:0:0:0:
425,53,42893,1,8,0:0:0:0:
450,203,43055,2,0,P|463:170|459:134,1,71.9999978027344,0|8,3:0|0:0,0:0:0:0:
332,36,43380,1,0,3:0:0:0:
198,94,43542,1,8,0:0:0:0:
209,96,43623,1,0,3:0:0:0:
219,98,43704,1,0,3:0:0:0:
116,138,43866,6,0,P|106:100|109:67,1,71.9999978027344,8|0,0:0|3:0,0:0:0:0:
196,201,44191,2,0,P|233:211|260:230,1,71.9999978027344,8|0,0:0|3:0,0:0:0:0:
278,330,44515,1,8,0:0:0:0:
278,330,44596,1,0,0:0:0:0:
278,330,44677,1,0,3:0:0:0:
168,323,44839,2,0,P|157:344|153:371,3,35.9999989013672,8|0|2|0,0:0|3:0|1:3|3:0,0:0:0:0:
100,335,45164,6,0,P|88:300|90:265,1,71.9999978027344,12|0,0:0|3:0,0:0:0:0:
114,154,45488,1,8,0:0:0:0:
224,195,45650,1,0,3:0:0:0:
171,42,45812,6,0,P|132:41|95:27,1,71.9999978027344,12|0,0:0|3:0,0:0:0:0:
232,184,46137,1,0,3:0:0:0:
122,146,46299,1,8,0:0:0:0:
290,84,46461,6,0,P|325:74|377:71,1,71.9999978027344,12|0,0:0|3:0,0:0:0:0:
420,230,46785,2,0,P|383:226|334:210,1,71.9999978027344,8|0,0:0|3:0,0:0:0:0:
454,49,47110,6,0,P|454:73|446:100,1,35.9999989013672,8|0,0:0|3:0,0:0:0:0:
397,145,47272,1,0,3:0:0:0:
270,255,47434,2,0,P|263:235|265:203,1,35.9999989013672,0|0,3:0|3:0,0:0:0:0:
200,174,47596,2,0,P|207:151|223:129,1,35.9999989013672,0|0,3:0|1:0,0:0:0:0:
239,57,47758,6,0,P|199:66|139:63,1,80,12|8,0:0|0:3,0:0:0:0:
37,111,48083,1,8,0:0:0:0:
117,146,48245,1,0,3:0:0:0:
43,322,48407,2,0,P|83:313|143:316,1,80,12|8,0:0|3:0,0:0:0:0:
245,268,48732,1,8,0:0:0:0:
165,233,48894,1,0,3:0:0:0:
245,268,49055,6,0,P|245:308|252:366,1,80,8|0,0:0|0:0,0:0:0:0:
351,301,49380,2,0,P|351:340|346:388,1,80,0|0,1:0|1:0,0:0:0:0:
455,304,49704,1,8,1:3:0:0:
495,202,49866,1,8,1:3:0:0:
398,125,50028,2,0,P|393:149|378:175,1,40,8|8,0:3|0:3,0:0:0:0:
297,179,50191,2,0,P|298:206|311:233,1,40,8|8,0:3|0:3,0:0:0:0:
351,301,50353,6,0,B|312:308|312:308|300:305|300:305|260:312,1,90.0000034332277,12|0,0:0|0:0,0:0:0:0:
247,314,50677,1,2,3:0:0:0:
121,281,50839,2,0,P|89:231|97:166,1,120.000004577637,8|0,0:0|0:0,0:0:0:0:
231,93,51326,2,0,P|263:143|255:208,1,120.000004577637,8|0,0:0|0:0,0:0:0:0:
250,211,51650,1,0,1:0:0:0:
231,93,51812,6,0,B|226:111|210:112|210:112|289:124|311:43,1,160,8|2,0:0|3:0,0:0:0:0:
405,13,52299,1,2,0:0:0:0:
456,102,52461,1,2,3:0:0:0:
496,28,52623,1,2,0:0:0:0:
427,97,52785,1,8,0:0:0:0:
471,180,52947,6,0,P|469:241|499:298,1,120.000004577637,12|0,0:0|1:0,0:0:0:0:
351,220,53434,1,12,0:0:0:0:
400,300,53596,2,0,P|371:318|354:351,1,60.0000022888184,0|2,0:0|0:0,0:0:0:0:
237,263,53920,2,0,P|251:297|250:340,1,60.0000022888184,8|2,0:0|0:0,0:0:0:0:
112,366,54245,5,2,3:0:0:0:
45,326,54407,2,0,L|175:309,1,120.000004577637,4|2,0:0|3:0,0:0:0:0:
215,181,54893,2,0,P|249:180|278:185,1,60.0000022888184,0|0,1:0|3:0,0:0:0:0:
291,195,55137,1,0,1:0:0:0:
299,213,55218,2,0,L|289:252,2,30.0000011444092,8|8|8,0:3|0:3|0:0,0:0:0:0:
396,157,55542,6,0,B|382:109|382:109|405:32,1,120.000004577637,12|2,0:0|0:0,0:0:0:0:
478,114,56028,1,0,3:0:0:0:
296,62,56191,2,0,L|219:73,1,60.0000022888184,0|2,1:0|0:0,0:0:0:0:
262,154,56515,2,0,L|184:167,1,60.0000022888184,8|8,0:0|0:0,0:0:0:0:
112,153,56839,5,8,0:0:0:0:
111,68,57001,1,0,3:0:0:0:
69,229,57164,1,2,0:3:0:0:
22,144,57326,1,2,0:0:0:0:
35,331,57488,6,0,P|66:315|108:307,1,68.0000012969971,2|8,1:3|0:0,0:0:0:0:
209,240,57812,2,0,P|240:258|283:271,1,68.0000012969971,2|2,0:0|0:0,0:0:0:0:
377,349,58137,2,0,P|361:282|353:211,1,136.000002593994,8|8,0:0|0:0,0:0:0:0:
366,78,58623,1,8,0:0:0:0:
366,78,58785,1,8,0:0:0:0:
194,38,58947,6,0,L|231:62,1,34.0000006484985,8|0,0:3|0:0,0:0:0:0:
103,127,59110,2,0,L|152:120,1,34.0000006484985,0|0,3:0|3:0,0:0:0:0:
210,191,59271,5,4,0:0:0:0:
389,82,59595,1,4,0:0:0:0:
486,286,59920,1,4,0:0:0:0:
325,112,60731,5,4,0:0:0:0:
236,76,60893,1,0,0:0:0:0:
89,207,61055,1,8,0:0:0:0:
180,238,61218,1,2,0:0:0:0:
254,177,61380,1,8,0:0:0:0:
254,177,61704,5,4,0:0:0:0:
256,296,61866,1,0,0:0:0:0:
180,238,62028,1,8,0:0:0:0:
183,117,62191,1,2,0:0:0:0:
295,75,62353,1,8,0:0:0:0:
295,75,62677,5,4,0:0:0:0:
277,169,62839,1,0,0:0:0:0:
372,177,63001,1,8,0:0:0:0:
501,306,63164,5,0,3:0:0:0:
414,347,63326,1,8,0:0:0:0:
367,262,63488,1,0,3:0:0:0:
156,372,63650,5,8,0:0:0:0:
243,335,63812,1,0,1:0:0:0:
213,243,63974,1,8,0:0:0:0:
125,281,64137,1,8,0:3:0:0:
243,335,64299,1,2,0:0:0:0:
243,335,64623,5,4,0:0:0:0:
43,353,64785,1,0,0:0:0:0:
213,243,64947,1,8,0:0:0:0:
141,317,65110,1,2,0:0:0:0:
63,259,65272,1,8,0:0:0:0:
63,259,65596,5,4,0:0:0:0:
26,74,65758,1,0,0:0:0:0:
87,147,65920,1,8,0:0:0:0:
235,54,66083,1,2,0:0:0:0:
191,139,66245,1,8,0:0:0:0:
191,139,66569,5,4,0:0:0:0:
319,132,66731,1,0,0:0:0:0:
251,48,66893,1,8,0:0:0:0:
215,154,67055,1,0,1:0:0:0:
366,28,67218,1,2,0:0:0:0:
319,132,67380,1,0,1:0:0:0:
372,233,67542,1,2,3:0:0:0:
325,337,67704,1,2,3:0:0:0:
132,162,67866,6,0,L|138:215,1,40,0|0,1:0|1:0,0:0:0:0:
48,209,68028,2,0,L|55:266,1,40,0|0,1:3|1:0,0:0:0:0:
124,185,68191,2,0,P|129:205|130:226,1,40,2|0,3:3|1:0,0:0:0:0:
41,233,68353,2,0,P|41:254|45:277,1,40,8|8,0:3|0:3,0:0:0:0:
130,329,68515,6,0,B|98:334|98:334|89:341|89:341|42:349,1,88.000002685547,12|0,0:0|3:0,0:0:0:0:
210,265,68839,1,8,0:0:0:0:
295,376,69001,2,0,P|312:330|302:288,1,88.000002685547,0|8,3:0|0:0,0:0:0:0:
305,279,69245,1,0,3:0:0:0:
313,267,69326,1,0,1:0:0:0:
481,179,69488,6,0,P|459:217|418:238,1,88.000002685547,8|0,0:0|3:0,0:0:0:0:
399,56,69812,1,12,0:0:0:0:
256,175,69974,2,0,P|246:132|256:89,1,88.000002685547,0|8,1:0|0:0,0:0:0:0:
251,75,70218,1,0,0:0:0:0:
245,63,70299,1,0,3:0:0:0:
48,35,70461,6,0,P|88:25|145:30,1,88.000002685547,12|2,0:0|0:3,0:0:0:0:
357,134,70785,1,8,0:0:0:0:
256,175,70947,2,0,B|150:173|194:237|94:233,1,176.000005371094,2|2,1:3|0:3,0:0:0:0:
102,127,71434,5,8,0:0:0:0:
233,281,71596,1,2,3:0:0:0:
121,117,71758,1,12,0:0:0:0:
247,274,71920,1,0,1:0:0:0:
67,363,72083,5,8,3:2:0:0:
68,323,72164,1,8,3:2:0:0:
89,290,72245,1,8,3:2:0:0:
118,264,72326,1,8,3:2:0:0:
155,252,72407,6,0,P|198:256|237:285,1,88.000002685547,12|0,0:0|3:0,0:0:0:0:
454,355,72731,1,8,0:0:0:0:
233,281,72893,1,2,3:0:0:0:
342,269,73055,5,8,0:0:0:0:
342,269,73137,1,0,3:0:0:0:
342,269,73218,2,0,P|336:315|351:379,1,88.000002685547,0|8,3:0|0:0,0:0:0:0:
419,196,73542,5,2,3:0:0:0:
465,27,73704,1,12,0:0:0:0:
512,131,73866,1,0,1:0:0:0:
370,93,74028,1,8,0:0:0:0:
370,93,74110,1,0,3:0:0:0:
370,93,74191,1,0,1:0:0:0:
226,193,74353,6,0,P|268:197|319:176,1,88.000002685547,12|0,0:0|3:0,0:0:0:0:
203,181,74677,1,8,0:0:0:0:
98,102,74839,6,0,P|53:106|8:92,1,88.000002685547,0|8,3:0|0:0,0:0:0:0:
121,92,75164,1,2,3:0:0:0:
235,22,75326,6,0,L|230:75,1,44.0000013427735,8|2,0:0|0:0,0:0:0:0:
305,63,75488,2,0,L|300:115,1,44.0000013427735,2|0,0:0|0:0,0:0:0:0:
227,143,75650,6,0,L|236:186,1,44.0000013427735,8|2,0:0|0:0,0:0:0:0:
156,187,75812,2,0,L|165:230,1,44.0000013427735,2|0,0:0|0:0,0:0:0:0:
314,217,75974,6,0,L|302:269,1,44.0000013427735,8|2,0:0|0:0,0:0:0:0:
385,261,76137,2,0,L|373:313,1,44.0000013427735,2|0,0:0|3:0,0:0:0:0:
252,328,76299,5,8,1:2:0:0:
166,305,76461,2,0,P|123:307|81:324,1,80,8|0,1:2|0:0,0:0:0:0:
300,189,76785,5,8,0:0:0:0:
193,115,76947,2,0,P|175:75|175:33,1,80,8|0,1:2|0:0,0:0:0:0:
166,220,77272,5,8,1:2:0:0:
357,103,77434,2,0,P|402:104|449:124,1,80,8|0,1:2|0:0,0:0:0:0:
320,269,77758,5,8,1:2:0:0:
413,292,77920,2,0,P|423:345|420:373,1,80,8|0,1:2|0:0,0:0:0:0:
268,189,78245,5,8,0:0:0:0:
304,99,78407,1,8,0:0:0:0:
230,38,78569,1,8,0:0:0:0:
142,78,78731,1,8,0:0:0:0:
49,46,78893,6,0,P|41:82|53:125,1,80,8|2,0:0|0:3,0:0:0:0:
186,159,79218,2,0,B|162:193|162:193|189:226,1,80,2|8,0:3|0:0,0:0:0:0:
463,338,79704,5,12,0:3:0:0:
463,338,79785,1,12,0:3:0:0:
463,338,79866,2,0,P|471:302|459:259,1,80,12|2,0:3|3:0,0:0:0:0:
326,159,80191,2,0,B|350:193|350:193|323:226,1,80,8|8,1:2|0:0,0:0:0:0:
17,340,80677,2,0,L|68:331,1,40,0|2,1:0|3:0,0:0:0:0:
111,256,80839,5,6,3:2:0:0:
153,222,80947,1,8,3:0:0:0:
193,260,81055,1,8,3:0:0:0:
224,307,81164,5,0,1:0:0:0:
269,315,81272,1,2,1:3:0:0:
307,284,81380,1,0,1:0:0:0:
318,236,81488,5,8,0:0:0:0:
420,313,81704,1,8,0:0:0:0:
354,111,81920,1,8,1:2:0:0:
194,148,82137,1,8,0:0:0:0:
92,71,82353,1,8,0:0:0:0:
158,273,82569,1,8,1:2:0:0:
289,210,82785,6,0,B|322:207|322:207|334:211|334:211|375:207,2,80,4|0|0,0:3|0:0|0:0,0:0:0:0:
213,159,83272,1,0,0:0:0:0:
217,149,83434,1,2,0:0:0:0:
40,276,83758,6,0,B|44:309|44:309|42:322|42:322|48:365,2,80,2|0|0,0:0|0:0|0:0,0:0:0:0:
100,193,84245,1,0,0:0:0:0:
110,196,84407,1,0,0:0:0:0:
260,59,84731,6,0,B|230:55|230:55|214:45|214:45|177:41,2,80,2|0|0,0:0|0:0|0:0,0:0:0:0:
381,30,85218,1,0,0:0:0:0:
371,33,85380,1,0,0:0:0:0:
258,71,85542,1,0,0:0:0:0:
264,195,85704,6,0,P|300:182|352:187,1,80,2|0,0:0|0:0,0:0:0:0:
503,234,86028,2,0,P|465:236|427:258,1,80,2|0,0:0|0:0,0:0:0:0:
410,359,86353,1,2,0:0:0:0:
129,325,86677,5,4,3:2:0:0:
230,300,86839,1,0,0:0:0:0:
105,222,87001,1,0,1:0:0:0:
10,178,87164,1,0,0:0:0:0:
206,133,87326,1,8,1:2:0:0:
206,133,87650,5,4,3:2:0:0:
219,236,87812,1,0,0:0:0:0:
339,53,87974,1,0,1:0:0:0:
321,155,88137,1,0,0:0:0:0:
472,27,88299,1,8,1:2:0:0:
472,27,88623,5,4,3:2:0:0:
339,53,88785,1,8,0:3:0:0:
321,155,88947,1,8,0:3:0:0:
479,320,89110,1,0,1:0:0:0:
302,260,89272,1,8,1:2:0:0:
475,177,89434,1,0,1:0:0:0:
225,194,89596,6,0,P|185:197|140:210,1,80,8|0,1:2|1:0,0:0:0:0:
84,321,89920,2,0,P|83:300|77:273,3,40,0|0|8|8,1:0|1:0|0:3|0:3,0:0:0:0:
49,189,90245,5,2,1:3:0:0:
30,167,90326,1,0,1:0:0:0:
41,141,90407,1,8,0:3:0:0:
56,117,90488,1,0,0:3:0:0:
49,89,90569,6,0,P|89:86|134:73,1,80,4|0,0:0|3:0,0:0:0:0:
322,7,90893,1,8,0:0:0:0:
349,132,91055,2,0,P|317:111|273:103,1,80,0|8,3:0|0:0,0:0:0:0:
263,104,91299,1,0,3:0:0:0:
250,107,91380,1,2,3:0:0:0:
266,281,91542,6,0,P|265:242|279:193,1,80,8|0,0:0|3:0,0:0:0:0:
337,369,91866,1,12,0:0:0:0:
374,251,92028,1,0,1:0:0:0:
454,338,92191,1,8,0:0:0:0:
266,281,92353,1,0,3:0:0:0:
155,119,92515,6,0,P|195:114|241:124,1,80,12|0,0:0|3:0,0:0:0:0:
446,169,92839,1,8,0:0:0:0:
476,71,93001,2,0,B|411:75|411:75|381:96|381:96|316:101,1,160,0|0,3:0|3:0,0:0:0:0:
303,199,93488,5,8,0:0:0:0:
116,139,93650,1,0,3:0:0:0:
262,36,93812,2,0,P|297:15|347:17,1,80,8|2,0:0|0:0,0:0:0:0:
446,169,94137,5,8,0:0:0:0:
456,194,94218,1,8,0:0:0:0:
461,221,94299,1,8,0:0:0:0:
461,248,94380,1,8,0:0:0:0:
452,274,94461,6,0,P|417:295|367:293,1,80,12|0,0:0|3:0,0:0:0:0:
233,140,94785,1,8,0:0:0:0:
233,140,94947,2,0,L|243:237,1,80,0|8,3:0|0:0,0:0:0:0:
244,235,95191,1,0,0:0:0:0:
245,250,95272,1,0,3:0:0:0:
361,85,95434,6,0,P|370:126|360:176,1,80,8|0,0:0|3:0,0:0:0:0:
233,140,95758,1,12,0:0:0:0:
102,114,95920,2,0,P|100:152|115:194,1,80,2|12,3:0|0:0,0:0:0:0:
292,270,96245,5,0,3:0:0:0:
292,270,96326,1,0,0:0:0:0:
292,270,96407,2,0,B|271:256|271:256|212:268,1,80,8|0,0:0|3:0,0:0:0:0:
354,364,96731,1,8,0:0:0:0:
442,294,96893,2,0,B|452:230|452:230|441:186|441:186|450:129,1,160,0|2,3:0|3:0,0:0:0:0:
362,30,97380,5,8,0:0:0:0:
337,43,97461,1,0,0:0:0:0:
309,38,97542,1,2,0:0:0:0:
202,141,97704,5,8,0:0:0:0:
228,131,97785,1,0,0:0:0:0:
254,138,97866,1,2,0:0:0:0:
362,228,98028,5,8,0:0:0:0:
334,233,98110,1,0,0:0:0:0:
322,258,98191,1,2,0:0:0:0:
299,274,98272,1,0,0:0:0:0:
271,274,98353,1,8,0:0:0:0:
256,192,98434,12,0,99326,1:0:0:0:
160,81,100299,5,4,0:0:0:0:
252,36,100623,5,4,0:0:0:0:
158,88,100785,1,8,3:2:0:0:
239,137,100947,2,0,P|251:174|247:220,1,80,8|8,1:2|0:0,0:0:0:0:
142,343,101272,6,0,L|144:300,1,40,2|0,0:0|0:0,0:0:0:0:
144,218,101434,2,0,L|146:167,1,40,2|2,0:0|0:0,0:0:0:0:
153,36,101596,6,0,L|150:104,1,60.0000022888184,4|0,0:0|0:0,0:0:0:0:
53,158,101758,2,0,L|64:220,1,60.0000022888184,4|0,0:0|0:0,0:0:0:0:
219,266,101920,5,6,0:0:0:0:
244,254,102001,1,2,0:0:0:0:
272,254,102083,1,2,0:0:0:0:
297,265,102164,1,2,0:0:0:0:
316,285,102245,6,0,B|349:304|349:304|396:287,1,80,8|8,0:0|0:0,0:0:0:0:
467,366,102569,1,0,1:0:0:0:
483,215,102731,2,0,L|471:132,1,80,2|0,0:3|0:0,0:0:0:0:
477,110,102974,1,0,1:0:0:0:
477,110,103055,1,8,0:0:0:0:
239,131,103218,6,0,P|278:135|325:124,1,80,2|0,0:3|1:0,0:0:0:0:
384,45,103542,1,2,3:3:0:0:
348,300,103704,2,0,L|359:217,1,80,8|0,0:0|3:0,0:0:0:0:
454,291,104028,1,8,0:0:0:0:
250,281,104191,6,0,P|248:322|264:360,1,80,8|8,0:0|0:0,0:0:0:0:
270,177,104515,1,0,1:0:0:0:
196,104,104677,2,0,B|132:140|107:87|35:124,1,160,2|0,3:3|1:0,0:0:0:0:
148,304,105164,5,2,0:0:0:0:
85,203,105326,1,2,0:0:0:0:
148,26,105488,1,8,0:0:0:0:
270,177,105650,1,2,0:0:0:0:
329,85,105812,2,0,P|332:62|340:44,3,40,8|8|8|8,0:0|0:0|0:0|0:0,0:0:0:0:
387,59,106137,6,0,P|426:45|471:47,1,80,4|8,0:0|0:0,0:0:0:0:
482,243,106461,1,2,0:3:0:0:
393,194,106623,2,0,P|357:180|316:181,1,80,2|0,3:3|0:0,0:0:0:0:
288,180,106866,1,0,3:0:0:0:
261,189,106947,1,0,1:0:0:0:
91,233,107110,6,0,P|128:247|170:244,1,80,2|0,0:3|1:0,0:0:0:0:
316,180,107434,1,0,1:0:0:0:
240,30,107596,2,0,P|230:67|239:121,1,80,8|8,0:0|0:0,0:0:0:0:
167,244,107920,1,0,3:0:0:0:
415,356,108083,6,0,P|416:316|403:275,1,80,8|8,0:0|0:0,0:0:0:0:
298,244,108407,1,0,1:0:0:0:
432,168,108569,2,0,B|365:166|365:166|353:155|353:155|271:152,1,160,2|0,3:3|1:0,0:0:0:0:
180,130,109055,5,2,0:0:0:0:
75,177,109218,1,0,0:0:0:0:
123,323,109380,5,8,0:0:0:0:
183,218,109542,1,0,0:0:0:0:
271,242,109704,5,4,0:0:0:0:
294,362,109866,1,8,0:0:0:0:
414,207,110028,6,0,P|371:207|331:183,1,88.000002685547,4|0,0:0|3:0,0:0:0:0:
487,138,110353,1,8,0:0:0:0:
376,24,110515,2,0,L|396:120,1,88.000002685547,0|8,3:0|0:0,0:0:0:0:
393,110,110758,1,0,3:0:0:0:
393,110,110839,1,0,3:0:0:0:
296,293,111001,5,0,0:0:0:0:
236,168,111164,1,0,3:0:0:0:
137,255,111326,6,0,P|94:241|45:232,1,88.000002685547,12|0,0:0|3:0,0:0:0:0:
175,57,111650,6,0,L|226:149,1,88.000002685547,12|0,0:0|3:0,0:0:0:0:
364,137,111974,6,0,P|382:95|409:54,1,88.000002685547,12|0,0:0|3:0,0:0:0:0:
453,220,112299,1,8,0:0:0:0:
386,310,112461,2,0,B|296:303|296:351|215:339,1,176.000005371094,0|0,3:0|3:0,0:0:0:0:
95,309,112947,6,0,P|67:273|62:227,1,88.000002685547,8|0,0:0|3:0,0:0:0:0:
214,150,113272,2,0,P|242:186|247:232,1,88.000002685547,12|0,0:0|3:0,0:0:0:0:
98,125,113596,5,0,1:0:0:0:
82,88,113677,1,0,1:0:0:0:
91,49,113758,1,0,3:0:0:0:
124,27,113839,1,0,3:0:0:0:
163,28,113920,6,0,B|207:37|207:37|252:25,1,88.000002685547,12|0,0:0|3:0,0:0:0:0:
214,150,114245,1,8,0:0:0:0:
340,115,114407,2,0,B|384:106|384:106|429:118,1,88.000002685547,0|8,0:0|0:0,0:0:0:0:
441,123,114650,1,0,3:0:0:0:
455,127,114731,1,0,3:0:0:0:
364,330,114893,6,0,P|355:286|351:240,1,88.000002685547,8|2,0:0|3:3,0:0:0:0:
469,271,115218,1,12,0:0:0:0:
340,115,115380,1,0,3:0:0:0:
233,275,115542,2,0,P|221:231|215:176,1,88.000002685547,8|0,0:0|3:0,0:0:0:0:
82,23,115866,6,0,B|62:61|62:61|73:108,1,88.000002685547,8|0,0:0|3:0,0:0:0:0:
123,190,116191,1,8,0:0:0:0:
26,283,116353,2,0,B|83:274|83:274|112:284|112:284|205:267,1,176.000005371094,2|0,3:3|1:0,0:0:0:0:
312,87,116839,6,0,P|283:119|273:165,1,88.000002685547,8|2,0:0|1:3,0:0:0:0:
372,355,117164,2,0,P|361:316|321:277,1,88.000002685547,12|2,0:0|1:3,0:0:0:0:
113,268,117488,1,12,0:0:0:0:
272,161,117650,1,2,1:3:0:0:
113,268,117812,6,0,P|152:277|206:262,1,88.000002685547,8|0,3:2|3:0,0:0:0:0:
469,183,118137,2,0,P|429:173|375:188,1,88.000002685547,8|0,3:2|3:0,0:0:0:0:
262,378,118461,6,0,P|257:358|262:332,1,44.0000013427735,8|0,3:2|3:0,0:0:0:0:
427,253,118623,2,0,P|432:273|427:299,1,44.0000013427735,0|0,3:0|3:0,0:0:0:0:
305,233,118785,5,8,1:2:0:0:
280,201,118866,1,2,3:2:0:0:
258,167,118947,1,2,1:3:0:0:
266,128,119028,1,2,1:3:0:0:
279,94,119110,5,4,0:3:0:0:
289,78,120083,6,0,L|331:69,3,26.6666666666667,4|0|2|2,0:0|0:0|0:0|0:0,0:0:0:0:
256,192,120299,12,0,125596,0:0:0:0:
