osu file format v14

[General]
AudioFilename: audio.mp3
AudioLeadIn: 0
PreviewTime: 117502
Countdown: 0
SampleSet: Normal
StackLeniency: 0.7
Mode: 0
LetterboxInBreaks: 1
WidescreenStoryboard: 0

[Editor]
Bookmarks: 29212,38812,48412,55612,56812,57412,67612,89212,98812,106012,107812,108412,146812,157612,158812
DistanceSpacing: 0.8
BeatDivisor: 4
GridSize: 4
TimelineZoom: 2

[Metadata]
Title:Mousou Kajitsu
TitleUnicode:妄想果実
Artist:Nanaki feat.GUMI
ArtistUnicode:七希 feat.GUMI
Creator:Natsu
Version:MZV's Normal
Source:
Tags:GUMI vocaloid Tomisaka hardcore Fancies Fruit diva megpoid gaia caren_sk crn doyak SnowNiNo_ Mazziv
BeatmapID:1207463
BeatmapSetID:524966

[Difficulty]
HPDrainRate:4
CircleSize:3
OverallDifficulty:4
ApproachRate:4
SliderMultiplier:1
SliderTickRate:1

[Events]
//Background and Video events
0,0,"EXyGpu1.jpg",0,0
//Break Periods
2,79827,87907
2,108427,116107
//Storyboard Layer 0 (Background)
//Storyboard Layer 1 (Fail)
//Storyboard Layer 2 (Pass)
//Storyboard Layer 3 (Foreground)
//Storyboard Sound Samples

[TimingPoints]
427,300,4,1,1,55,1,0
2452,-100,4,1,1,25,0,0
2527,-100,4,1,1,55,0,0
2752,-100,4,1,1,25,0,0
2827,-100,4,1,1,55,0,0
7252,-100,4,1,1,25,0,0
7327,-100,4,1,1,55,0,0
7552,-100,4,1,1,25,0,0
7627,-100,4,1,1,40,0,0
10027,-100,4,1,1,75,0,0
17152,-100,4,1,1,20,0,0
17227,-100,4,1,1,75,0,0
26752,-100,4,1,1,20,0,0
26827,-100,4,1,1,75,0,0
29227,-100,4,1,1,60,0,0
48427,-100,4,1,1,75,0,0
55627,-100,4,1,1,80,0,0
55777,-100,4,1,1,40,0,0
55927,-100,4,1,1,70,0,0
56077,-100,4,1,1,30,0,0
56227,-100,4,1,1,60,0,0
56377,-100,4,1,1,20,0,0
56527,-100,4,1,1,50,0,0
56677,-100,4,1,1,10,0,0
56827,-100,4,1,1,40,0,0
56977,-100,4,1,1,5,0,0
57427,-100,4,1,1,75,0,0
58027,-100,4,1,1,75,0,1
78127,-100,4,1,1,75,0,0
78427,-100,4,1,1,80,0,0
78727,-100,4,1,1,70,0,0
79027,-100,4,1,1,60,0,0
79327,-100,4,1,1,75,0,0
84427,-100,4,1,1,60,0,0
98827,-100,4,1,1,75,0,0
106027,-100,4,1,1,80,0,0
106177,-100,4,1,1,40,0,0
106327,-100,4,1,1,70,0,0
106477,-100,4,1,1,30,0,0
106627,-100,4,1,1,60,0,0
106777,-100,4,1,1,20,0,0
106927,-100,4,1,1,50,0,0
107077,-100,4,1,1,10,0,0
107227,-100,4,1,1,40,0,0
107377,-100,4,1,1,5,0,0
107827,-100,4,1,1,65,0,0
118027,-100,4,1,1,75,0,1
137227,-100,4,1,1,30,0,1
137452,-100,4,1,1,10,0,1
137527,-100,4,1,1,75,0,1
157327,-100,4,1,1,75,0,0

[Colours]
Combo1 : 255,13,13
Combo2 : 177,255,34
Combo3 : 255,74,165
Combo4 : 0,165,244
Combo5 : 224,224,224
SliderBorder : 0,165,244
SliderTrackOverride : 30,30,30

[HitObjects]
120,280,427,6,0,P|208:264|176:328,1,200,4|0,0:0|0:0,0:0:0:0:
247,30,2827,2,0,P|217:114|178:54,1,200,4|0,0:0|0:0,0:0:0:0:
400,265,5227,2,0,P|342:197|413:193,1,200,4|0,0:0|0:0,0:0:0:0:
156,44,7627,6,0,P|180:124|92:192,1,200
8,264,8677,2,0,P|88:240|160:272,1,150
196,324,9427,1,0,0:0:0:0:
352,336,10027,6,0,P|408:320|432:272,2,100,4|8|0,0:0|0:0|0:0,0:0:0:0:
256,328,10927,1,8,0:0:0:0:
176,272,11227,2,0,P|152:176|192:80,1,200,0|2,0:0|0:0,0:0:0:0:
272,40,12127,1,8,0:0:0:0:
352,96,12427,6,0,B|376:128|376:128|368:200,2,100,6|8|0,0:0|0:0|0:0,0:0:0:0:
272,40,13327,1,8,0:0:0:0:
176,72,13627,2,0,B|112:88|112:88|160:144|120:224,1,200,0|2,0:0|0:0,0:0:0:0:
40,160,14527,1,8,0:0:0:0:
32,256,14827,6,0,P|32:304|64:368,2,100,6|8|0,0:0|0:0|0:0,0:0:0:0:
40,160,15727,1,8,0:0:0:0:
96,80,16027,2,0,B|136:40|192:40|192:40|240:72|296:40,1,200,0|2,0:0|0:0,0:0:0:0:
376,24,16927,1,8,0:0:0:0:
440,104,17227,6,0,P|456:184|448:208,2,100,4|8|2,0:0|0:0|0:0,0:0:0:0:
360,160,18127,1,8,0:0:0:0:
264,144,18427,2,0,P|216:128|152:136,1,100,8|8,0:0|0:0,0:0:0:0:
144,224,19027,2,0,P|192:240|256:232,1,100,8|8,2:0|2:0,0:0:0:0:
336,264,19627,6,0,L|448:288,2,100,4|8|0,0:0|0:0|0:0,0:0:0:0:
240,236,20527,1,8,0:0:0:0:
152,296,20827,2,0,B|112:320|67:297|67:297|96:232|83:185,1,200,0|2,0:0|0:0,0:0:0:0:
56,96,21727,1,8,0:0:0:0:
152,64,22027,6,0,P|200:56|240:24,2,100,6|8|0,0:0|0:0|0:0,0:0:0:0:
56,96,22927,1,8,0:0:0:0:
80,192,23227,2,0,B|96:240|72:288|72:288|120:272|176:296,1,200,0|2,0:0|0:0,0:0:0:0:
256,344,24127,1,8,0:0:0:0:
344,296,24427,6,0,P|378:240|379:193,2,100,6|8|0,0:0|0:0|0:0,0:0:0:0:
280,216,25327,1,8,0:0:0:0:
192,264,25627,2,0,B|152:232|152:232|152:80,1,200,0|2,0:0|0:0,0:0:0:0:
72,136,26527,1,8,0:0:0:0:
72,232,26827,6,0,B|72:280|72:280|131:324,2,100,4|8|2,0:0|0:0|0:0,0:0:0:0:
72,136,27727,1,8,0:0:0:0:
152,83,28027,2,0,P|224:51|256:51,1,100,8|8,0:0|0:0,0:0:0:0:
256,144,28627,2,0,P|184:176|152:176,1,100,8|8,2:0|2:0,0:0:0:0:
80,224,29227,6,0,L|88:328,1,100,4|8,0:0|0:0,0:0:0:0:
176,368,29827,1,2,0:0:0:0:
272,368,30127,1,8,0:0:0:0:
360,320,30427,2,0,P|387:225|360:120,1,200,2|2,0:0|0:0,0:0:0:0:
288,64,31327,1,8,0:0:0:0:
232,144,31627,2,0,P|144:160|96:136,2,100,2|8|2,0:0|0:0|0:0,0:0:0:0:
288,64,32527,1,8,0:0:0:0:
364,128,32827,2,0,P|444:128|492:120,1,100,8|8,0:0|0:0,0:0:0:0:
464,224,33427,2,0,P|384:224|336:232,1,100,8|8,0:0|0:0,0:0:0:0:
280,280,34027,6,0,P|264:240|288:176,1,100,2|8,0:0|0:0,0:0:0:0:
336,104,34627,1,2,0:0:0:0:
264,32,34927,1,8,0:0:0:0:
200,104,35227,2,0,B|144:120|96:104|96:104|48:144|48:192,1,200,2|2,0:0|0:0,0:0:0:0:
48,280,36127,1,8,0:0:0:0:
128,336,36427,2,0,P|176:352|232:328,2,100,8|8|8,0:0|0:0|0:0,0:0:0:0:
176,248,37327,1,8,0:0:0:0:
224,160,37627,2,0,P|232:96|216:48,1,100,2|0,2:0|0:0,0:0:0:0:
120,64,38227,2,0,P|112:128|128:176,1,100,0|0,0:0|0:0,0:0:0:0:
128,264,38827,6,0,P|184:264|232:240,1,100,4|8,0:0|0:0,0:0:0:0:
312,200,39427,2,0,P|288:244|296:304,1,100,2|8,0:0|0:0,0:0:0:0:
384,264,40027,1,2,0:0:0:0:
408,168,40327,1,8,0:0:0:0:
328,104,40627,2,0,P|272:80|216:80,1,100,2|8,0:0|0:0,0:0:0:0:
136,80,41227,2,0,P|80:80|40:104,2,100,2|8|2,0:0|0:0|0:0,0:0:0:0:
112,176,42127,1,8,0:0:0:0:
168,256,42427,2,0,P|224:272|272:264,1,100,8|8,0:0|0:0,0:0:0:0:
304,176,43027,2,0,P|248:160|200:168,1,100,8|8,0:0|0:0,0:0:0:0:
112,176,43627,6,0,P|80:216|80:288,1,100,2|8,0:0|0:0,0:0:0:0:
120,352,44227,2,0,L|232:336,1,100,2|8,0:0|0:0,0:0:0:0:
320,320,44827,1,2,0:0:0:0:
304,224,45127,1,8,0:0:0:0:
208,240,45427,2,0,P|158:235|113:213,1,100,2|8,0:0|0:0,0:0:0:0:
48,144,46027,2,0,P|56:88|112:40,2,100,2|8|2,0:0|0:0|0:0,0:0:0:0:
144,128,46927,1,8,0:0:0:0:
240,104,47227,2,0,P|289:99|336:114,1,100,8|8,0:0|0:0,0:0:0:0:
312,208,47827,2,0,P|262:212|215:197,1,100,8|8,0:0|2:0,0:0:0:0:
120,184,48427,6,0,P|64:240|48:328,2,150,4|4|2,0:0|0:0|2:0,0:0:0:0:
232,128,50827,2,0,B|304:96|304:160|384:120,2,150,4|4|2,0:0|0:0|2:0,0:0:0:0:
240,312,53227,2,0,B|264:272|264:272|304:280|367:272,2,150,4|4|8,0:0|0:0|2:0,0:0:0:0:
104,184,55627,6,0,P|80:144|80:72,1,100,4|4,0:0|0:0,0:0:0:0:
176,112,56227,2,0,P|200:152|200:224,1,100,4|4,0:0|0:0,0:0:0:0:
136,280,56827,1,4,0:0:0:0:
136,280,58027,6,0,P|237:254|328:280,1,200,4|0,0:0|0:0,0:0:0:0:
416,320,58927,1,8,0:0:0:0:
464,232,59227,2,0,P|472:152|464:128,1,100,0|8,0:0|0:0,0:0:0:0:
376,96,59827,2,0,P|368:176|376:200,1,100,2|8,0:0|0:0,0:0:0:0:
400,288,60427,6,0,P|328:256|288:264,2,100,6|8|0,0:0|0:0|0:0,0:0:0:0:
328,352,61327,1,8,0:0:0:0:
232,328,61627,2,0,P|182:320|139:295,1,100,0|8,0:0|0:0,0:0:0:0:
56,240,62227,2,0,P|81:197|88:147,1,100,2|8,0:0|0:0,0:0:0:0:
136,56,62827,6,0,B|200:64|272:48|272:48|232:128,1,200,6|0,0:0|0:0,0:0:0:0:
184,184,63727,1,8,0:0:0:0:
216,280,64027,2,0,P|296:312|344:304,1,100,0|8,0:0|0:0,0:0:0:0:
368,232,64627,2,0,P|288:200|240:208,1,100,2|8,0:0|0:0,0:0:0:0:
184,184,65227,6,0,P|116:172|80:124,2,100,6|8|2,0:0|0:0|0:0,0:0:0:0:
168,88,66127,1,8,0:0:0:0:
256,48,66427,2,0,P|304:32|376:32,1,100,4|12,0:0|0:0,0:0:0:0:
368,128,67027,2,0,P|320:144|248:144,1,100,4|12,0:0|0:0,0:0:0:0:
168,160,67627,6,0,B|128:224|136:288|136:288|200:320,1,200,4|0,0:0|0:0,0:0:0:0:
296,336,68527,1,8,0:0:0:0:
384,296,68827,2,0,P|392:216|384:192,1,100,0|8,0:0|0:0,0:0:0:0:
336,112,69427,2,0,P|287:120|238:109,1,100,2|8,0:0|0:0,0:0:0:0:
152,64,70027,6,0,P|80:32|40:40,2,100,6|8|0,0:0|0:0|0:0,0:0:0:0:
80,136,70927,1,8,0:0:0:0:
160,192,71227,2,0,P|176:248|160:296,1,100,0|8,0:0|0:0,0:0:0:0:
104,368,71827,2,0,P|160:352|208:368,1,100,2|8,0:0|0:0,0:0:0:0:
296,360,72427,6,0,B|320:336|352:336|352:336|368:264|368:264|336:240|320:200,1,200,6|0,0:0|0:0,0:0:0:0:
240,168,73327,1,8,0:0:0:0:
144,160,73627,2,0,P|112:240|120:288,1,100,0|8,0:0|0:0,0:0:0:0:
208,260,74227,2,0,P|240:180|232:132,1,100,2|8,0:0|0:0,0:0:0:0:
216,72,74827,6,0,P|284:80|328:120,2,100,6|8|2,0:0|0:0|0:0,0:0:0:0:
128,112,75727,1,8,0:0:0:0:
96,208,76027,2,0,P|96:256|114:305,1,100,6|8,0:0|0:0,0:0:0:0:
216,280,76627,2,0,P|216:232|197:182,1,100,8|8,2:0|0:0,0:0:0:0:
128,112,77227,6,0,P|72:72|24:72,2,100,6|8|8,0:0|0:0|0:0,0:0:0:0:
197,183,78127,1,8,0:0:0:0:
256,192,78427,12,4,79627,0:0:0:0:
112,264,89227,6,0,P|96:216|104:160,1,100,4|8,0:0|0:0,0:0:0:0:
136,72,89827,1,2,0:0:0:0:
232,104,90127,1,8,0:0:0:0:
200,200,90427,2,0,P|295:227|392:200,1,200,2|2,0:0|0:0,0:0:0:0:
472,144,91327,1,8,0:0:0:0:
480,240,91627,2,0,P|488:296|464:376,2,100,2|8|2,0:0|0:0|0:0,0:0:0:0:
472,144,92527,1,8,0:0:0:0:
408,72,92827,2,0,P|336:64|280:80,1,100,8|8,0:0|0:0,0:0:0:0:
208,88,93427,2,0,P|216:160|200:216,1,100,8|8,0:0|0:0,0:0:0:0:
128,240,94027,6,0,P|120:168|136:112,1,100,2|8,0:0|0:0,0:0:0:0:
208,88,94627,1,2,0:0:0:0:
296,136,94927,1,8,0:0:0:0:
376,80,95227,2,0,P|464:136|464:232,1,200,2|2,0:0|0:0,0:0:0:0:
408,304,96127,1,8,0:0:0:0:
320,256,96427,2,0,P|305:209|316:160,2,100,2|8|2,0:0|0:0|0:0,0:0:0:0:
408,200,97327,1,8,0:0:0:0:
392,104,97627,2,0,P|344:72|272:88,1,100,8|8,0:0|0:0,0:0:0:0:
208,72,98227,2,0,P|159:74|120:104,1,100,8|8,0:0|2:0,0:0:0:0:
88,200,98827,6,0,B|128:256|120:336|48:352,2,150,4|4|2,0:0|0:0|2:0,0:0:0:0:
376,184,101227,2,0,B|344:200|344:200|320:136|344:56,2,150,4|4|2,0:0|0:0|2:0,0:0:0:0:
288,320,103627,2,0,P|400:336|448:288,2,150,4|4|8,0:0|0:0|2:0,0:0:0:0:
136,264,106027,6,0,P|120:208|72:176,1,100,4|4,0:0|0:0,0:0:0:0:
40,272,106627,2,0,P|56:328|104:360,1,100,4|4,0:0|0:0,0:0:0:0:
184,360,107227,1,4,0:0:0:0:
256,192,117427,5,12,0:0:0:0:
96,320,118027,6,0,B|64:288|64:288|64:128,1,200,4|2,0:0|0:0,0:0:0:0:
120,48,118927,1,8,0:0:0:0:
200,112,119227,2,0,P|248:123|297:114,1,100,0|8,0:0|0:0,0:0:0:0:
392,96,119827,2,0,P|384:176|392:200,1,100,2|8,0:0|0:0,0:0:0:0:
456,272,120427,6,0,P|452:321|425:362,2,100,6|8|0,0:0|0:0|0:0,0:0:0:0:
360,288,121327,1,8,0:0:0:0:
304,208,121627,2,0,P|304:104|320:88,1,100,0|8,0:0|0:0,0:0:0:0:
384,64,122227,2,0,P|384:168|368:184,1,100,2|8,0:0|0:0,0:0:0:0:
304,208,122827,6,0,B|256:232|248:280|248:280|128:256,1,200,6|0,0:0|0:0,0:0:0:0:
56,216,123727,1,8,0:0:0:0:
80,120,124027,2,0,P|144:80|184:80,1,100,0|8,0:0|0:0,0:0:0:0:
263,87,124627,2,0,P|296:124|343:142,1,100,2|8,0:0|0:0,0:0:0:0:
432,96,125227,6,0,P|444:144|428:204,2,100,6|8|2,0:0|0:0|0:0,0:0:0:0:
343,142,126127,1,8,0:0:0:0:
256,184,126427,2,0,P|248:135|263:87,1,100,4|12,0:0|0:0,0:0:0:0:
344,24,127027,2,0,P|393:16|440:31,1,100,4|12,0:0|0:0,0:0:0:0:
480,120,127627,6,0,B|488:176|453:211|453:211|464:232|464:232|432:256|432:328,1,200,4|0,0:0|0:0,0:0:0:0:
344,352,128527,1,8,0:0:0:0:
264,288,128827,2,0,P|255:239|266:190,1,100,0|8,0:0|0:0,0:0:0:0:
354,142,129427,2,0,P|362:191|352:240,1,100,2|8,0:0|0:0,0:0:0:0:
264,288,130027,6,0,P|214:284|172:252,2,100,6|8|0,0:0|0:0|0:0,0:0:0:0:
248,192,130927,1,8,0:0:0:0:
152,160,131227,2,0,P|103:149|56:165,1,100,0|8,0:0|0:0,0:0:0:0:
78,263,131827,2,0,P|126:273|173:257,1,100,2|8,0:0|0:0,0:0:0:0:
248,192,132427,6,0,B|280:192|312:152|312:152|360:152|360:152|384:192|440:192,1,200,6|0,0:0|0:0,0:0:0:0:
440,96,133327,1,8,0:0:0:0:
344,72,133627,2,0,L|224:72,1,100,0|8,0:0|0:0,0:0:0:0:
144,72,134227,2,0,P|137:121|112:164,1,100,2|8,0:0|0:0,0:0:0:0:
48,240,134827,6,0,P|120:248|152:296,2,100,6|8|2,0:0|0:0|0:0,0:0:0:0:
72,336,135727,1,8,0:0:0:0:
168,368,136027,2,0,P|216:384|272:360,1,100,8|8,2:0|2:0,0:0:0:0:
312,280,136627,2,0,P|264:264|208:288,1,100,8|8,2:0|2:0,0:0:0:0:
120,304,137227,6,0,L|96:192,2,100,0|12|2,0:0|0:0|0:0,0:0:0:0:
24,256,138127,1,8,0:0:0:0:
24,160,138427,2,0,P|80:120|120:120,1,100,0|8,0:0|0:0,0:0:0:0:
208,120,139027,2,0,P|256:128|293:161,1,100,2|8,0:0|0:0,0:0:0:0:
352,248,139627,6,0,L|382:141,2,100,6|8|0,0:0|0:0|0:0,0:0:0:0:
448,232,140527,1,8,0:0:0:0:
408,328,140827,2,0,P|360:344|296:328,1,100,0|8,0:0|0:0,0:0:0:0:
216,304,141427,2,0,P|232:256|216:192,1,100,2|8,0:0|0:0,0:0:0:0:
192,112,142027,6,0,P|120:80|56:192,1,200,6|0,0:0|0:0,0:0:0:0:
48,256,142927,1,8,0:0:0:0:
128,312,143227,2,0,P|208:344|256:336,1,100,0|8,0:0|0:0,0:0:0:0:
320,344,143827,2,0,P|369:337|412:312,1,100,2|8,0:0|0:0,0:0:0:0:
480,240,144427,6,0,L|488:104,2,100,6|8|2,0:0|0:0|0:0,0:0:0:0:
400,184,145327,1,8,0:0:0:0:
304,160,145627,2,0,P|248:152|192:168,1,100,4|12,0:0|0:0,0:0:0:0:
224,264,146227,2,0,P|280:272|336:256,1,100,4|12,0:0|0:0,0:0:0:0:
400,192,146827,6,0,B|432:64|432:64|344:64,1,200,4|0,0:0|0:0,0:0:0:0:
264,64,147727,1,8,0:0:0:0:
184,120,148027,2,0,P|176:200|184:224,1,100,0|8,0:0|0:0,0:0:0:0:
272,264,148627,2,0,P|280:184|272:160,1,100,2|8,0:0|0:0,0:0:0:0:
264,64,149227,6,0,P|216:24|160:32,2,100,6|8|0,0:0|0:0|0:0,0:0:0:0:
352,112,150127,1,8,0:0:0:0:
384,208,150427,2,0,P|400:264|384:312,1,100,0|8,0:0|0:0,0:0:0:0:
288,328,151027,2,0,P|239:317|192:333,1,100,2|8,0:0|0:0,0:0:0:0:
96,368,151627,6,0,B|120:312|104:275|104:275|115:257|115:257|96:216|128:144,1,200,6|0,0:0|0:0,0:0:0:0:
136,80,152527,1,8,0:0:0:0:
224,128,152827,2,0,P|312:144|360:120,1,100,0|8,0:0|0:0,0:0:0:0:
400,200,153427,2,0,P|342:268|338:321,1,100,2|8,0:0|0:0,0:0:0:0:
248,312,154027,6,0,P|217:227|173:198,2,100,6|8|2,0:0|0:0|0:0,0:0:0:0:
152,304,154927,1,8,0:0:0:0:
72,248,155227,2,0,P|54:201|54:151,1,100,8|8,0:0|0:0,0:0:0:0:
144,112,155827,2,0,P|161:158|161:208,1,100,8|8,2:0|0:0,0:0:0:0:
152,304,156427,6,0,P|184:344|240:360,2,100,6|8|8,0:0|0:0|0:0,0:0:0:0:
240,256,157327,1,8,0:0:0:0:
256,192,157627,12,4,158827,0:0:0:0:
