osu file format v14

[General]
AudioFilename: audio.mp3
AudioLeadIn: 0
PreviewTime: 117502
Countdown: 0
SampleSet: Normal
StackLeniency: 0.7
Mode: 0
LetterboxInBreaks: 1
WidescreenStoryboard: 0

[Editor]
Bookmarks: 19612,29212,38812,48412,55612,56812,57412,67612,89212,98812,106012,107812,108412,146812,157612,158812
DistanceSpacing: 1.2
BeatDivisor: 4
GridSize: 32
TimelineZoom: 2

[Metadata]
Title:Mousou Kajitsu
TitleUnicode:妄想果実
Artist:Nanaki feat.GUMI
ArtistUnicode:七希 feat.GUMI
Creator:Natsu
Version:Gaia's Hard
Source:
Tags:GUMI vocaloid Tomisaka hardcore Fancies Fruit diva megpoid gaia caren_sk crn doyak SnowNiNo_ Mazziv
BeatmapID:1194237
BeatmapSetID:524966

[Difficulty]
HPDrainRate:5
CircleSize:4
OverallDifficulty:6
ApproachRate:8
SliderMultiplier:1.5
SliderTickRate:1

[Events]
//Background and Video events
0,0,"EXyGpu1.jpg",0,0
//Break Periods
2,627,2077
2,3176,3877
2,7612,9277
2,84627,88477
//Storyboard Layer 0 (Background)
//Storyboard Layer 1 (Fail)
//Storyboard Layer 2 (Pass)
//Storyboard Layer 3 (Foreground)
//Storyboard Sound Samples

[TimingPoints]
427,300,4,1,1,55,1,0
427,-125,4,1,1,55,0,0
2827,-125,4,1,1,55,0,0
4627,-76.9230769230769,4,1,1,55,0,0
7252,-76.9230769230769,4,1,1,25,0,0
7327,-76.9230769230769,4,1,1,55,0,0
7552,-76.9230769230769,4,1,1,25,0,0
7627,-76.9230769230769,4,1,1,40,0,0
10027,-100,4,1,1,75,0,0
17152,-100,4,1,1,20,0,0
17227,-100,4,1,1,75,0,0
26752,-100,4,1,1,20,0,0
26827,-100,4,1,1,75,0,0
29227,-100,4,1,1,60,0,0
37627,-100,4,1,1,60,0,0
38827,-100,4,1,1,60,0,0
48427,-125,4,1,1,75,0,0
49627,-90.9090909090909,4,1,1,75,0,0
51427,-125,4,1,1,75,0,0
52027,-90.9090909090909,4,1,1,75,0,0
53227,-100,4,1,1,75,0,0
55627,-100,4,1,1,80,0,0
55777,-100,4,1,1,40,0,0
55927,-100,4,1,1,70,0,0
56077,-100,4,1,1,30,0,0
56227,-100,4,1,1,60,0,0
56377,-100,4,1,1,20,0,0
56527,-100,4,1,1,50,0,0
56677,-100,4,1,1,10,0,0
56827,-100,4,1,1,40,0,0
56977,-100,4,1,1,5,0,0
57427,-100,4,1,1,75,0,0
58027,-100,4,1,1,75,0,1
66727,-100,4,1,1,75,0,1
67027,-100,4,1,1,75,0,1
67327,-100,4,1,1,75,0,1
67627,-100,4,1,1,75,0,1
76327,-100,4,1,1,75,0,1
76627,-100,4,1,1,75,0,1
76927,-100,4,1,1,75,0,1
77227,-100,4,1,1,75,0,1
78277,-153.846153846154,4,1,1,75,0,1
78427,-153.846153846154,4,1,1,80,0,0
78727,-153.846153846154,4,1,1,70,0,0
79027,-100,4,1,1,60,0,0
79327,-100,4,1,1,75,0,0
79627,-100,4,1,1,75,0,0
84427,-100,4,1,1,60,0,0
98827,-125,4,1,1,75,0,0
98977,-125,4,1,1,75,0,0
100027,-90.9090909090909,4,1,1,75,0,0
101227,-125,4,1,1,75,0,0
102427,-90.9090909090909,4,1,1,75,0,0
103627,-125,4,1,1,75,0,0
106027,-125,4,1,1,80,0,0
106177,-125,4,1,1,40,0,0
106327,-125,4,1,1,70,0,0
106477,-125,4,1,1,30,0,0
106627,-125,4,1,1,60,0,0
106777,-125,4,1,1,20,0,0
106927,-125,4,1,1,50,0,0
107077,-125,4,1,1,10,0,0
107227,-125,4,1,1,40,0,0
107377,-125,4,1,1,5,0,0
107827,-90.9090909090909,4,1,1,65,0,0
108427,-111.111111111111,4,1,1,65,0,0
118027,-100,4,1,1,75,0,1
126727,-100,4,1,1,75,0,1
127027,-100,4,1,1,75,0,1
127327,-100,4,1,1,75,0,1
127627,-100,4,1,1,75,0,1
136027,-76.9230769230769,4,1,1,75,0,1
137227,-100,4,1,1,30,0,0
137452,-100,4,1,1,10,0,0
137527,-90.9090909090909,4,1,1,75,0,1
145927,-90.9090909090909,4,1,1,75,0,1
146227,-90.9090909090909,4,1,1,75,0,1
146527,-90.9090909090909,4,1,1,75,0,1
146827,-90.9090909090909,4,1,1,75,0,1
155527,-90.9090909090909,4,1,1,75,0,1
155827,-90.9090909090909,4,1,1,75,0,1
156127,-90.9090909090909,4,1,1,75,0,1
156427,-90.9090909090909,4,1,1,75,0,1
157477,-153.846153846154,4,1,1,75,0,1
157627,-90.9090909090909,4,1,1,80,0,0
157927,-90.9090909090909,4,1,1,70,0,0
158227,-90.9090909090909,4,1,1,60,0,0
158527,-90.9090909090909,4,1,1,75,0,0

[Colours]
Combo1 : 255,13,13
Combo2 : 177,255,34
Combo3 : 255,74,165
Combo4 : 0,165,244
Combo5 : 224,224,224
SliderBorder : 0,165,244
SliderTrackOverride : 30,30,30

[HitObjects]
196,147,427,5,4,0:0:0:0:
394,104,2827,6,0,L|386:167,1,60,4|4,0:0|0:0,0:0:0:0:
199,43,4627,6,0,P|209:73|217:109,3,48.7499977684022,8|8|8|8,2:0|2:0|2:0|2:0,0:0:0:0:
241,113,4927,2,0,L|229:171,3,48.7499977684022,8|8|8|8,2:0|2:0|2:0|2:0,0:0:0:0:
222,195,5227,21,4,0:0:0:0:
341,161,10027,6,0,P|396:202|371:271,1,150,4|8,0:0|0:0,0:0:0:0:
290,322,10477,2,0,P|238:312|132:299,1,150,2|0,2:0|0:0,0:0:0:0:
68,235,10927,1,8,0:0:0:0:
68,235,11077,6,0,B|95:188|95:188|69:142|82:80,1,150,2|2,2:0|2:0,0:0:0:0:
150,27,11527,2,0,P|172:56|169:107,1,75,8|2,0:0|2:0,0:0:0:0:
254,149,11827,2,0,P|264:110|284:53,2,75,2|0|8,0:0|0:0|0:0,0:0:0:0:
204,233,12277,1,0,0:0:0:0:
273,301,12427,6,0,P|307:292|359:282,1,75,6|2,0:0|2:0,0:0:0:0:
447,318,12727,1,8,0:0:0:0:
352,253,12877,2,0,P|276:243|196:231,1,150,2|2,2:0|2:0,0:0:0:0:
128,169,13327,1,8,0:0:0:0:
128,169,13477,38,0,P|64:198|79:280,1,150,0|2,0:0|2:0,0:0:0:0:
164,294,13927,2,0,P|189:268|204:216,1,75,8|2,0:0|2:0,0:0:0:0:
213,135,14227,2,0,P|203:98|195:47,2,75,2|0|8,0:0|0:0|0:0,0:0:0:0:
294,187,14677,1,0,0:0:0:0:
294,187,14827,6,0,P|324:175|383:161,1,75,6|2,0:0|2:0,0:0:0:0:
428,90,15127,1,8,0:0:0:0:
392,180,15277,2,0,P|376:269|367:338,1,150,2|0,2:0|0:0,0:0:0:0:
277,364,15727,1,8,0:0:0:0:
277,364,15877,6,0,P|211:343|131:321,1,150,0|0,0:0|0:0,0:0:0:0:
57,260,16327,2,0,P|42:212|65:180,1,75,8|2,0:0|2:0,0:0:0:0:
114,116,16627,2,0,P|84:103|41:94,2,75,2|0|8,0:0|0:0|0:0,0:0:0:0:
185,182,17077,1,0,0:0:0:0:
259,119,17227,38,0,P|270:77|278:27,1,75,4|0,0:0|0:0,0:0:0:0:
372,29,17527,2,0,P|365:65|355:102,1,75,8|2,0:0|2:0,0:0:0:0:
386,195,17827,2,0,P|421:187|465:171,2,75,2|0|8,0:0|0:0|0:0,0:0:0:0:
311,257,18277,1,0,0:0:0:0:
223,299,18427,6,0,L|141:282,1,75,8|8,0:0|0:0,0:0:0:0:
82,212,18727,2,0,P|92:153|153:138,1,112.5,12|0,0:0|0:0,0:0:0:0:
180,112,19027,2,0,L|167:48,3,37.5,8|8|8|8,2:0|2:0|2:0|2:0,0:0:0:0:
165,27,19327,1,12,2:0:0:0:
355,6,19627,6,0,B|331:31|331:31|327:65|315:165,1,150,4|8,0:0|0:0,0:0:0:0:
350,238,20077,2,0,P|318:193|224:193,1,150,2|0,2:0|0:0,0:0:0:0:
185,277,20527,1,8,0:0:0:0:
265,332,20677,38,0,P|366:317|424:314,1,150,2|2,2:0|2:0,0:0:0:0:
492,256,21127,2,0,P|482:210|435:185,1,75,8|2,0:0|2:0,0:0:0:0:
398,117,21427,2,0,P|407:72|421:36,2,75,2|0|8,0:0|0:0|0:0,0:0:0:0:
356,205,21877,1,0,0:0:0:0:
356,205,22027,6,0,P|321:197|252:185,1,75,6|0,0:0|0:0,0:0:0:0:
203,131,22327,1,8,0:0:0:0:
117,178,22477,2,0,P|60:226|80:295,1,150,2|2,2:0|2:0,0:0:0:0:
156,347,22927,1,8,0:0:0:0:
229,278,23077,6,0,L|200:119,1,150,0|2,0:0|2:0,0:0:0:0:
255,48,23527,2,0,P|291:31|336:51,1,75,8|2,0:0|2:0,0:0:0:0:
401,98,23827,2,0,P|409:58|423:9,2,75,2|0|8,0:0|0:0|0:0,0:0:0:0:
343,177,24277,1,0,0:0:0:0:
405,251,24427,38,0,P|439:240|498:220,2,75,6|2|8,0:0|2:0|0:0,0:0:0:0:
322,199,24877,2,0,B|235:180|235:180|211:201|152:211,1,150,2|0,2:0|0:0,0:0:0:0:
102,145,25327,1,8,0:0:0:0:
32,212,25477,6,0,B|48:304|48:304|81:318|100:338,1,150,0|2,0:0|2:0,0:0:0:0:
192,345,25927,2,0,L|284:322,1,75,8|2,0:0|2:0,0:0:0:0:
325,250,26227,2,0,P|301:242|234:231,2,75,2|0|8,0:0|0:0|0:0,0:0:0:0:
414,288,26677,1,0,0:0:0:0:
483,220,26827,6,0,P|483:182|446:132,1,75,4|0,0:0|0:0,0:0:0:0:
406,72,27127,2,0,P|369:86|326:98,1,75,8|0,0:0|0:0,0:0:0:0:
238,83,27427,2,0,P|201:68|158:57,1,75,2|0,0:0|0:0,0:0:0:0:
74,90,27727,2,0,P|51:126|66:182,1,75,8|0,0:0|0:0,0:0:0:0:
87,247,28027,37,8,0:0:0:0:
176,209,28177,1,8,0:0:0:0:
257,262,28327,2,0,L|342:245,1,75,8|0,0:0|0:0,0:0:0:0:
418,204,28627,2,0,P|444:222|457:236,3,37.5,8|8|8|8,2:0|2:0|2:0|2:0,0:0:0:0:
457,273,28927,1,8,2:0:0:0:
303,152,29227,6,0,P|314:95|411:82,2,150,4|8|2,0:0|0:0|0:0,0:0:0:0:
330,247,29977,1,2,0:0:0:0:
249,302,30127,2,0,P|217:293|147:283,1,75,8|2,0:0|0:0,0:0:0:0:
90,238,30427,6,0,P|62:283|75:317,2,75,2|2|8,0:0|0:0|0:0,0:0:0:0:
146,157,30877,1,2,0:0:0:0:
146,157,31027,2,0,P|135:123|118:65,1,75,2|2,0:0|0:0,0:0:0:0:
202,26,31327,2,0,P|212:61|224:97,1,75,8|2,0:0|0:0,0:0:0:0:
304,152,31627,38,0,P|338:137|396:123,2,75,2|2|8,0:0|0:0|0:0,0:0:0:0:
261,239,32077,1,2,0:0:0:0:
335,301,32227,2,0,P|328:339|312:399,1,75,2|2,0:0|0:0,0:0:0:0:
224,352,32527,2,0,P|233:315|238:278,1,75,8|2,0:0|0:0,0:0:0:0:
178,201,32827,38,0,P|132:166|16:179,1,150,8|8,0:0|0:0,0:0:0:0:
277,63,33427,2,0,P|350:66|412:26,1,150,8|8,0:0|0:0,0:0:0:0:
438,235,34027,22,0,P|407:270|392:319,1,75,2|2,0:0|0:0,0:0:0:0:
331,369,34327,2,0,L|306:208,1,150,8|2,0:0|0:0,0:0:0:0:
252,140,34777,1,2,0:0:0:0:
252,140,34927,6,0,B|205:124|205:124|146:166|194:233,1,150,8|2,0:0|0:0,0:0:0:0:
234,293,35377,1,0,0:0:0:0:
175,371,35527,2,0,P|140:361|82:344,1,75,8|2,0:0|0:0,0:0:0:0:
34,281,35827,2,0,P|11:318|5:367,2,75,2|2|8,0:0|0:0|0:0,0:0:0:0:
83,196,36277,1,2,0:0:0:0:
83,196,36427,6,0,P|68:169|38:116,1,75,8|2,0:0|0:0,0:0:0:0:
61,34,36727,2,0,P|102:47|138:54,1,75,8|2,0:0|0:0,0:0:0:0:
226,85,37027,2,0,L|304:59,1,75,8|2,0:0|0:0,0:0:0:0:
393,43,37327,2,0,B|425:59|425:59|444:87|449:126,1,75,8|8,0:0|0:0,0:0:0:0:
442,94,37627,5,2,2:0:0:0:
246,361,38827,22,0,B|241:340|226:318|226:318|249:199,1,150,4|8,0:0|0:0,0:0:0:0:
226,121,39277,1,2,0:0:0:0:
226,121,39427,2,0,P|162:161|66:145,1,150,2|8,0:0|0:0,0:0:0:0:
40,73,39877,1,2,0:0:0:0:
120,17,40027,6,0,P|162:20|205:47,1,75,2|2,0:0|0:0,0:0:0:0:
250,113,40327,2,0,B|356:97|356:97|402:142,1,150,8|2,0:0|0:0,0:0:0:0:
444,206,40777,1,2,0:0:0:0:
371,271,40927,2,0,P|363:304|355:359,1,75,8|2,0:0|0:0,0:0:0:0:
265,378,41227,6,0,P|259:340|250:304,1,75,2|2,0:0|0:0,0:0:0:0:
208,215,41527,2,0,P|170:231|124:249,1,75,8|2,0:0|0:0,0:0:0:0:
43,223,41827,2,0,P|46:269|67:313,2,75,2|2|8,0:0|0:0|0:0,0:0:0:0:
105,146,42277,1,2,0:0:0:0:
168,71,42427,6,0,P|96:61|12:50,1,150,8|8,0:0|0:0,0:0:0:0:
208,215,43027,2,0,P|280:205|364:194,1,150,8|8,0:0|0:0,0:0:0:0:
205,317,43627,22,0,P|138:298|111:196,1,150,2|8,0:0|0:0,0:0:0:0:
107,127,44077,1,0,0:0:0:0:
107,127,44227,2,0,P|174:146|201:248,1,150,2|8,0:0|0:0,0:0:0:0:
205,317,44677,1,0,0:0:0:0:
290,363,44827,6,0,P|326:356|372:342,1,75,2|2,0:0|0:0,0:0:0:0:
409,259,45127,2,0,P|372:252|327:238,1,75,8|2,0:0|0:0,0:0:0:0:
315,146,45427,2,0,P|323:103|329:60,2,75,2|2|8,0:0|0:0|0:0,0:0:0:0:
232,198,45877,1,2,0:0:0:0:
147,246,46027,6,0,P|121:239|65:227,1,75,2|2,0:0|0:0,0:0:0:0:
14,305,46327,1,8,0:0:0:0:
14,305,46477,1,2,0:0:0:0:
116,352,46627,2,0,P|141:345|198:333,1,75,2|2,0:0|0:0,0:0:0:0:
262,270,46927,2,0,P|303:288|340:307,1,75,8|2,0:0|0:0,0:0:0:0:
420,265,47227,38,0,P|447:223|382:144,1,150,8|8,0:0|0:0,0:0:0:0:
251,20,47827,2,0,P|267:60|279:104,1,75,8|8,0:0|0:0,0:0:0:0:
208,160,48127,2,0,L|141:140,3,37.5,8|8|8|8,2:0|2:0|2:0|2:0,0:0:0:0:
130,124,48427,22,0,P|88:138|50:147,1,60,4|8,0:0|0:0,0:0:0:0:
57,171,48652,1,0,0:0:0:0:
57,171,48727,1,8,0:0:0:0:
84,264,48877,1,4,0:0:0:0:
84,264,49027,2,0,P|150:238|210:265,1,120,8|2,0:0|2:0,0:0:0:0:
370,325,49627,22,0,L|389:269,3,41.2500012588501,8|8|8|8,2:0|2:0|2:0|2:0,0:0:0:0:
414,251,49927,2,0,L|396:188,3,41.2500012588501,8|8|8|8,2:0|2:0|2:0|2:0,0:0:0:0:
406,166,50227,2,0,L|346:122,3,41.2500012588501,8|8|8|8,2:0|2:0|2:0|2:0,0:0:0:0:
360,97,50527,2,0,L|296:92,3,41.2500012588501,8|8|8|8,2:0|2:0|2:0|2:0,0:0:0:0:
279,71,50827,6,0,P|237:81|196:90,1,82.5000025177003,4|8,0:0|0:0,0:0:0:0:
116,34,51127,1,8,0:0:0:0:
116,34,51277,1,4,0:0:0:0:
25,97,51427,2,0,B|43:186|43:186|73:213,1,120,8|2,0:0|2:0,0:0:0:0:
201,336,52027,54,0,L|261:321,3,41.2500012588501,8|8|8|8,2:0|2:0|2:0|2:0,0:0:0:0:
284,300,52327,2,0,L|341:320,3,41.2500012588501,8|8|8|8,2:0|2:0|2:0|2:0,0:0:0:0:
372,304,52627,2,0,P|412:270|379:191,1,123.75000377655,8|8,2:0|2:0,0:0:0:0:
383,158,52927,2,0,P|345:171|293:184,1,82.5000025177003,8|8,2:0|2:0,0:0:0:0:
257,163,53152,1,8,2:0:0:0:
257,163,53227,6,0,P|225:155|161:146,1,75,4|8,0:0|0:0,0:0:0:0:
88,124,53527,2,0,P|100:162|117:229,1,75,8|4,0:0|0:0,0:0:0:0:
92,291,53827,2,0,P|126:279|191:261,1,75,8|8,0:0|0:0,0:0:0:0:
259,253,54127,2,0,L|304:282,3,37.5,8|8|8|8,2:0|2:0|2:0|2:0,0:0:0:0:
338,265,54427,6,0,P|386:213|330:140,1,150,4|8,0:0|0:0,0:0:0:0:
290,75,54877,1,0,0:0:0:0:
194,94,55027,2,0,L|137:82,3,37.5,8|8|8|8,2:0|2:0|2:0|2:0,0:0:0:0:
108,87,55327,2,0,P|121:123|133:192,1,75,2|0,2:0|0:0,0:0:0:0:
52,218,55627,6,0,P|33:258|29:309,1,75,4|0,0:0|0:0,0:0:0:0:
95,360,55927,1,4,0:0:0:0:
95,360,56227,1,4,0:0:0:0:
95,360,56527,1,4,0:0:0:0:
350,292,56827,5,4,0:0:0:0:
193,246,57427,6,0,L|183:199,7,37.5,8|8|8|8|8|8|8|8,2:0|2:0|2:0|2:0|2:0|2:0|2:0|2:0,0:0:0:0:
173,161,58027,6,0,P|190:104|297:110,1,150,4|8,0:0|0:0,0:0:0:0:
360,48,58477,2,0,P|345:121|336:205,1,150,2|0,2:0|0:0,0:0:0:0:
350,292,58927,1,8,0:0:0:0:
267,343,59077,6,0,B|222:330|161:318|161:318|131:265,1,150,2|2,2:0|2:0,0:0:0:0:
108,189,59527,2,0,P|85:181|23:170,1,75,8|0,0:0|0:0,0:0:0:0:
0,79,59827,2,0,P|36:72|72:60,1,75,2|0,0:0|0:0,0:0:0:0:
168,38,60127,2,0,P|168:82|144:128,1,75,8|0,0:0|0:0,0:0:0:0:
231,211,60427,6,0,P|246:153|336:133,1,150,6|8,0:0|0:0,0:0:0:0:
414,168,60877,2,0,P|399:226|309:246,1,150,2|0,2:0|0:0,0:0:0:0:
231,211,61327,1,8,0:0:0:0:
142,169,61477,38,0,L|165:328,1,150,0|2,0:0|2:0,0:0:0:0:
232,383,61927,2,0,P|269:370|322:349,1,75,8|0,0:0|0:0,0:0:0:0:
350,271,62227,2,0,P|386:282|434:295,1,75,2|2,0:0|2:0,0:0:0:0:
510,215,62527,2,0,P|494:176|466:121,1,75,8|0,0:0|0:0,0:0:0:0:
430,62,62827,6,0,P|376:60|357:163,1,150,6|8,0:0|0:0,0:0:0:0:
349,243,63277,2,0,B|305:257|305:257|177:225,1,150,2|0,2:0|0:0,0:0:0:0:
139,159,63727,1,8,0:0:0:0:
49,198,63877,6,0,B|8:243|31:307|31:307|73:332,1,150,2|2,2:0|2:0,0:0:0:0:
157,318,64327,2,0,P|145:282|114:246,1,75,8|0,0:0|0:0,0:0:0:0:
49,198,64627,1,2,0:0:0:0:
139,159,64777,2,0,P|175:152|232:138,2,75,2|8|0,2:0|0:0|0:0,0:0:0:0:
84,49,65227,38,0,P|134:57|181:66,1,75,6|0,0:0|0:0,0:0:0:0:
255,57,65527,2,0,P|291:50|328:44,1,75,8|0,0:0|0:0,0:0:0:0:
420,77,65827,2,0,B|451:143|451:143|448:165|441:188,1,112.5,2|8,0:0|2:0,0:0:0:0:
406,215,66127,2,0,P|417:256|426:306,1,75,8|0,0:0|0:0,0:0:0:0:
352,356,66427,53,4,0:0:0:0:
272,299,66577,1,8,2:0:0:0:
183,339,66727,2,0,L|57:320,1,112.5,12|0,0:0|0:0,0:0:0:0:
31,295,67027,2,0,P|25:279|20:256,3,37.5,4|8|8|8,0:0|2:0|2:0|2:0,0:0:0:0:
1,214,67327,2,0,P|11:179|22:126,1,75,12|0,0:0|0:0,0:0:0:0:
117,26,67627,6,0,P|124:103|136:187,1,150,4|8,0:0|0:0,0:0:0:0:
180,260,68077,2,0,P|186:185|197:111,1,150,2|0,2:0|0:0,0:0:0:0:
264,40,68527,1,8,0:0:0:0:
311,125,68677,6,0,P|371:113|460:95,1,150,2|0,2:0|0:0,0:0:0:0:
511,174,69127,2,0,P|496:213|486:281,1,75,8|0,0:0|0:0,0:0:0:0:
422,316,69427,2,0,P|380:311|335:279,1,75,2|2,0:0|2:0,0:0:0:0:
254,294,69727,2,0,P|216:313|174:315,1,75,8|0,0:0|0:0,0:0:0:0:
100,263,70027,6,0,B|106:221|106:221|61:92,1,150,6|8,0:0|0:0,0:0:0:0:
24,33,70477,2,0,P|74:81|166:77,1,150,2|0,2:0|0:0,0:0:0:0:
221,15,70927,1,8,0:0:0:0:
283,89,71077,38,0,P|348:73|438:56,1,150,2|0,2:0|0:0,0:0:0:0:
476,142,71527,2,0,P|436:149|391:163,1,75,8|0,0:0|0:0,0:0:0:0:
333,226,71827,2,0,P|345:257|362:313,1,75,2|2,0:0|2:0,0:0:0:0:
273,344,72127,2,0,P|261:308|247:273,1,75,8|0,0:0|0:0,0:0:0:0:
179,204,72427,6,0,P|110:189|54:247,1,150,6|8,0:0|0:0,0:0:0:0:
35,334,72877,2,0,P|104:349|160:291,1,150,2|0,2:0|0:0,0:0:0:0:
197,208,73327,1,8,0:0:0:0:
197,208,73477,6,0,P|174:118|160:41,1,150,2|0,2:0|0:0,0:0:0:0:
246,10,73927,2,0,P|281:26|325:41,1,75,8|0,0:0|0:0,0:0:0:0:
382,110,74227,2,0,P|345:116|298:130,1,75,2|2,0:0|2:0,0:0:0:0:
296,222,74527,2,0,P|311:265|320:304,1,75,8|0,0:0|0:0,0:0:0:0:
229,370,74827,37,6,0:0:0:0:
152,309,74977,2,0,L|106:297,4,37.5,8|8|8|8|8,2:0|2:0|0:0|2:0|2:0,0:0:0:0:
199,222,75427,1,2,0:0:0:0:
116,169,75577,1,0,0:0:0:0:
116,169,75652,1,0,0:0:0:0:
116,169,75727,2,0,P|75:178|24:191,1,75,8|0,0:0|0:0,0:0:0:0:
0,75,76027,53,6,0:0:0:0:
0,75,76177,1,8,0:0:0:0:
86,29,76327,2,0,L|201:52,1,112.5,8|0,0:0|0:0,0:0:0:0:
237,77,76627,2,0,L|295:64,3,37.5,8|8|8|8,2:0|2:0|2:0|2:0,0:0:0:0:
322,64,76927,2,0,P|354:94|356:153,1,75,8|0,0:0|0:0,0:0:0:0:
445,173,77227,6,0,P|436:211|426:263,1,75,6|2,0:0|0:0,0:0:0:0:
331,335,77527,2,0,L|307:234,1,75,8|0,0:0|0:0,0:0:0:0:
258,153,77827,2,0,P|294:155|348:161,2,75,8|8|8,0:0|0:0|0:0,0:0:0:0:
163,235,78277,38,0,B|114:242|70:190|70:190|63:232|32:253|32:253|54:275|96:238,1,243.749988842011,4|2,0:0|2:0,0:0:0:0:
158,105,79327,6,0,L|137:61,3,37.5,8|8|8|8,2:0|2:0|2:0|2:0,0:0:0:0:
99,47,79627,5,4,0:0:0:0:
256,192,79702,12,2,84427,0:0:0:0:
293,120,89227,6,0,P|302:75|309:33,2,75,4|2|8,0:0|0:0|0:0,0:0:0:0:
236,199,89677,1,2,0:0:0:0:
314,256,89827,2,0,P|351:232|382:199,2,75,2|2|8,0:0|0:0|0:0,0:0:0:0:
225,214,90277,1,2,0:0:0:0:
158,285,90427,6,0,P|174:330|198:378,1,75,2|2,0:0|0:0,0:0:0:0:
66,311,90727,2,0,P|68:273|79:228,1,75,8|2,0:0|0:0,0:0:0:0:
80,139,91027,2,0,P|53:114|5:112,2,75,2|2|8,0:0|0:0|0:0,0:0:0:0:
176,128,91477,1,2,0:0:0:0:
176,128,91627,38,0,P|167:93|160:35,1,75,2|2,0:0|0:0,0:0:0:0:
254,22,91927,2,0,P|259:59|268:95,1,75,8|2,0:0|0:0,0:0:0:0:
349,148,92227,2,0,P|386:140|446:123,2,75,2|2|8,0:0|0:0|0:0,0:0:0:0:
269,204,92677,1,2,0:0:0:0:
293,298,92827,38,0,B|391:313|391:313|455:268,1,150,8|8,0:0|0:0,0:0:0:0:
189,209,93427,2,0,B|91:224|91:224|27:179,1,150,8|8,0:0|0:0,0:0:0:0:
116,11,94027,22,0,P|142:48|144:93,1,75,2|2,0:0|0:0,0:0:0:0:
218,139,94327,2,0,L|182:224,1,75,8|2,0:0|0:0,0:0:0:0:
145,295,94627,1,2,0:0:0:0:
145,295,94777,1,2,0:0:0:0:
226,348,94927,6,0,P|287:312|377:333,1,150,8|2,0:0|0:0,0:0:0:0:
448,276,95377,1,2,0:0:0:0:
448,276,95527,2,0,P|445:247|420:191,1,75,8|2,0:0|0:0,0:0:0:0:
387,116,95827,2,0,P|389:87|415:31,2,75,2|2|8,0:0|0:0|0:0,0:0:0:0:
318,185,96277,1,2,0:0:0:0:
221,201,96427,6,0,P|187:193|134:182,1,75,2|2,0:0|0:0,0:0:0:0:
53,161,96727,2,0,P|52:205|77:254,1,75,8|2,0:0|0:0,0:0:0:0:
149,278,97027,2,0,P|185:285|222:294,2,75,2|2|8,0:0|0:0|0:0,0:0:0:0:
63,326,97477,1,2,0:0:0:0:
176,382,97627,6,0,P|246:369|340:356,1,150,8|8,0:0|0:0,0:0:0:0:
463,201,98227,2,0,P|404:191|327:179,1,112.5,8|0,0:0|0:0,0:0:0:0:
315,151,98527,2,0,P|306:133|300:96,3,37.5,8|8|8|8,2:0|2:0|2:0|2:0,0:0:0:0:
266,81,98827,22,0,P|232:97|189:112,1,60,4|8,0:0|0:0,0:0:0:0:
121,67,99127,1,8,0:0:0:0:
121,67,99277,1,4,0:0:0:0:
42,158,99427,2,0,P|60:227|76:298,1,120,8|2,0:0|2:0,0:0:0:0:
229,362,100027,54,0,L|271:337,3,41.2500012588501,8|8|8|8,2:0|2:0|2:0|2:0,0:0:0:0:
310,343,100327,2,0,L|335:285,3,41.2500012588501,8|8|8|8,2:0|2:0|2:0|2:0,0:0:0:0:
368,287,100627,2,0,L|353:226,3,41.2500012588501,8|8|8|8,2:0|2:0|2:0|2:0,0:0:0:0:
381,207,100927,2,0,L|335:159,3,41.2500012588501,8|8|8|8,2:0|2:0|2:0|2:0,0:0:0:0:
346,132,101227,6,0,P|306:122|270:112,1,60,4|8,0:0|0:0,0:0:0:0:
224,43,101527,1,8,0:0:0:0:
224,43,101677,1,4,0:0:0:0:
110,79,101827,2,0,P|58:104|65:171,1,120,8|2,0:0|2:0,0:0:0:0:
94,338,102427,54,0,L|154:315,3,41.2500012588501,8|8|8|8,2:0|2:0|2:0|2:0,0:0:0:0:
162,289,102727,2,0,L|224:311,3,41.2500012588501,8|8|8|8,2:0|2:0|2:0|2:0,0:0:0:0:
240,325,103027,2,0,L|313:313,3,41.2500012588501,8|8|8|8,2:0|2:0|2:0|2:0,0:0:0:0:
324,304,103327,2,0,L|384:316,3,41.2500012588501,8|8|8|8,2:0|2:0|2:0|2:0,0:0:0:0:
408,300,103627,6,0,P|436:285|456:235,1,60,4|8,0:0|0:0,0:0:0:0:
478,176,103927,2,0,L|457:109,1,60,8|4,0:0|0:0,0:0:0:0:
373,61,104227,2,0,L|358:139,1,60,8|8,0:0|0:0,0:0:0:0:
291,176,104527,2,0,L|235:158,3,30,8|8|8|8,2:0|2:0|2:0|2:0,0:0:0:0:
231,133,104827,6,0,P|164:145|101:157,1,120,4|8,0:0|0:0,0:0:0:0:
54,223,105277,1,0,0:0:0:0:
108,294,105427,2,0,L|154:308,3,30,8|8|8|8,2:0|2:0|2:0|2:0,0:0:0:0:
180,310,105727,2,0,P|200:288|213:234,1,60,2|0,2:0|0:0,0:0:0:0:
291,176,106027,6,0,L|310:254,1,60,4|0,0:0|0:0,0:0:0:0:
379,286,106327,1,4,0:0:0:0:
379,286,106627,1,4,0:0:0:0:
379,286,106927,1,4,0:0:0:0:
180,153,107227,5,4,0:0:0:0:
337,97,107827,6,0,L|317:152,7,41.2500012588501,8|8|8|8|8|8|8|8,2:0|2:0|2:0|2:0|2:0|2:0|2:0|2:0,0:0:0:0:
281,159,108427,6,0,L|203:144,1,67.4999979400635,12|2,0:0|2:0,0:0:0:0:
26,125,108877,2,0,L|63:203,1,67.4999979400635,8|2,0:0|2:0,0:0:0:0:
134,357,109327,2,0,L|185:288,1,67.4999979400635,8|2,0:0|2:0,0:0:0:0:
341,215,109777,2,0,L|260:204,1,67.4999979400635,8|2,0:0|2:0,0:0:0:0:
136,76,110227,2,0,P|193:37|259:87,1,134.999995880127,8|8,2:0|0:0,0:0:0:0:
326,114,110677,1,10,2:0:0:0:
341,215,110827,6,0,L|327:302,1,67.4999979400635,12|2,0:0|2:0,0:0:0:0:
151,345,111277,2,0,L|161:278,1,67.4999979400635,8|2,0:0|2:0,0:0:0:0:
65,115,111727,2,0,L|51:202,1,67.4999979400635,8|2,0:0|2:0,0:0:0:0:
235,238,112177,2,0,L|245:171,1,67.4999979400635,8|2,0:0|2:0,0:0:0:0:
378,36,112627,2,0,P|441:52|445:132,1,134.999995880127,8|8,2:0|0:0,0:0:0:0:
395,187,113077,1,10,2:0:0:0:
447,284,113227,6,0,P|478:278|517:265,1,67.4999979400635,12|2,0:0|2:0,0:0:0:0:
329,170,113677,2,0,P|360:175|399:189,1,67.4999979400635,8|2,0:0|2:0,0:0:0:0:
216,316,114127,2,0,P|252:306|289:298,1,67.4999979400635,8|2,0:0|2:0,0:0:0:0:
95,186,114577,2,0,P|131:195|168:204,1,67.4999979400635,8|2,0:0|2:0,0:0:0:0:
249,35,115027,2,0,P|281:71|235:159,1,134.999995880127,8|8,0:2|0:0,0:0:0:0:
183,204,115477,1,10,2:0:0:0:
238,280,115627,38,0,P|243:318|247:373,1,67.4999979400635,12|2,0:0|2:0,0:0:0:0:
59,315,116077,2,0,P|97:320|152:324,1,67.4999979400635,8|2,0:0|2:0,0:0:0:0:
87,119,116527,2,0,P|92:157|96:212,1,67.4999979400635,8|2,0:0|2:0,0:0:0:0:
283,202,116977,2,0,P|279:168|275:135,1,67.4999979400635,8|8,0:0|0:0,0:0:0:0:
257,41,117277,1,8,0:0:0:0:
257,41,117427,1,12,0:0:0:0:
371,304,118027,6,0,P|321:341|223:320,1,150,4|8,0:0|0:0,0:0:0:0:
170,259,118477,1,2,2:0:0:0:
109,182,118627,2,0,L|16:158,2,75,2|0|8,0:0|0:0|0:0,0:0:0:0:
197,139,119077,6,0,B|232:121|271:130|271:130|298:104|353:105,1,150,2|2,2:0|2:0,0:0:0:0:
435,88,119527,1,8,0:0:0:0:
435,88,119677,2,0,P|425:123|417:172,1,75,0|2,0:0|0:0,0:0:0:0:
475,239,119977,1,2,2:0:0:0:
475,239,120127,2,0,P|484:274|493:323,1,75,8|0,0:0|0:0,0:0:0:0:
410,367,120427,38,0,B|369:354|301:343|301:343|269:293,1,150,6|8,0:0|0:0,0:0:0:0:
200,255,120877,2,0,B|159:242|91:231|91:231|59:181,1,150,2|0,2:0|0:0,0:0:0:0:
17,116,121327,1,8,0:0:0:0:
114,124,121477,6,0,P|178:110|276:82,1,150,0|2,0:0|2:0,0:0:0:0:
350,53,121927,2,0,P|355:97|336:148,1,75,8|0,0:0|0:0,0:0:0:0:
276,192,122227,2,0,P|271:236|290:287,1,75,2|2,0:0|2:0,0:0:0:0:
258,361,122527,2,0,P|295:351|343:343,1,75,8|0,0:0|0:0,0:0:0:0:
237,272,122827,6,0,P|157:260|85:246,1,150,6|8,0:0|0:0,0:0:0:0:
37,164,123277,2,0,P|39:102|126:78,1,150,2|0,2:0|0:0,0:0:0:0:
193,18,123727,1,8,0:0:0:0:
193,18,123877,38,0,B|166:52|150:62|150:62|166:161,1,150,2|2,2:0|2:0,0:0:0:0:
258,175,124327,2,0,P|287:160|332:150,1,75,8|0,0:0|0:0,0:0:0:0:
416,192,124627,2,0,P|431:229|430:278,1,75,2|2,0:0|2:0,0:0:0:0:
458,357,124927,2,0,P|427:350|357:341,1,75,8|0,0:0|0:0,0:0:0:0:
304,287,125227,5,6,0:0:0:0:
220,337,125377,1,8,2:0:0:0:
220,337,125452,1,8,2:0:0:0:
220,337,125527,2,0,P|181:347|116:353,1,75,8|0,0:0|0:0,0:0:0:0:
74,286,125827,1,2,0:0:0:0:
131,207,125977,1,8,2:0:0:0:
131,207,126052,1,8,2:0:0:0:
131,207,126127,2,0,P|137:164|138:118,1,75,8|0,0:0|0:0,0:0:0:0:
117,36,126427,37,4,0:0:0:0:
209,66,126577,1,8,0:2:0:0:
306,70,126727,2,0,L|425:40,1,112.5,12|0,0:0|0:0,0:0:0:0:
454,71,127027,2,0,L|446:134,3,37.5,4|8|8|8,0:0|0:2|0:2|0:2,0:0:0:0:
474,149,127327,2,0,P|489:186|485:252,1,75,12|0,0:0|0:0,0:0:0:0:
499,326,127627,6,0,P|444:313|332:295,1,150,4|8,0:0|0:0,0:0:0:0:
261,334,128077,2,0,P|206:347|94:365,1,150,2|0,2:0|0:0,0:0:0:0:
31,309,128527,1,8,0:0:0:0:
89,231,128677,6,0,P|106:164|28:98,1,150,2|0,2:0|0:0,0:0:0:0:
8,21,129127,2,0,P|46:26|94:32,1,75,8|0,0:0|0:0,0:0:0:0:
168,75,129427,2,0,P|200:62|249:51,1,75,2|2,0:0|2:0,0:0:0:0:
335,33,129727,2,0,P|323:71|316:120,1,75,8|0,0:0|0:0,0:0:0:0:
373,186,130027,6,0,P|294:202|231:155,1,150,6|8,0:0|0:0,0:0:0:0:
140,159,130477,2,0,P|150:195|175:314,1,150,2|0,2:0|0:0,0:0:0:0:
240,376,130927,1,8,0:0:0:0:
306,305,131077,38,0,P|365:288|478:264,1,150,2|0,2:0|0:0,0:0:0:0:
512,190,131527,2,0,P|479:178|427:171,1,75,8|0,0:0|0:0,0:0:0:0:
396,84,131827,2,0,P|361:98|324:121,1,75,2|2,0:0|2:0,0:0:0:0:
248,61,132127,2,0,P|233:99|221:150,1,75,8|0,0:0|0:0,0:0:0:0:
194,224,132427,6,0,B|163:228|139:244|139:244|82:234|55:169,1,150,6|8,0:0|0:0,0:0:0:0:
30,101,132877,2,0,P|24:169|16:262,1,150,2|0,2:0|0:0,0:0:0:0:
70,332,133327,1,8,0:0:0:0:
70,332,133477,6,0,P|132:361|215:321,1,150,2|0,2:0|0:0,0:0:0:0:
277,269,133927,2,0,P|321:279|362:293,2,75,8|0|2,0:0|0:0|0:0,0:0:0:0:
237,179,134377,1,2,2:0:0:0:
237,179,134527,2,0,P|191:187|145:201,1,75,8|0,0:0|0:0,0:0:0:0:
101,119,134827,37,6,0:0:0:0:
171,51,134977,1,0,0:0:0:0:
171,51,135052,1,0,0:0:0:0:
171,51,135127,2,0,P|216:67|239:100,1,75,8|0,0:0|0:0,0:0:0:0:
284,169,135427,1,2,0:0:0:0:
355,102,135577,2,0,L|355:65,4,37.5,8|8|8|8|8,2:0|2:0|0:0|2:0|2:0,0:0:0:0:
420,187,136027,54,0,L|405:250,4,48.7499977684022,8|8|8|8|8,2:0|2:0|2:0|2:0|2:0,0:0:0:0:
314,246,136477,2,0,L|327:302,4,48.7499977684022,8|8|8|8|8,2:0|2:0|2:0|2:0|2:0,0:0:0:0:
220,193,136927,2,0,L|199:260,3,48.7499977684022,8|8|8|8,2:0|2:0|2:0|2:0,0:0:0:0:
38,84,137527,6,0,P|74:78|130:68,1,82.5000025177003,12|2,0:0|2:0,0:0:0:0:
207,91,137827,2,0,P|199:51|193:-7,2,82.5000025177003,2|0|8,0:0|0:0|0:0,0:0:0:0:
287,132,138277,6,0,P|316:87|421:120,1,165.000005035401,2|2,2:0|2:0,0:0:0:0:
480,166,138727,2,0,P|467:200|457:252,1,82.5000025177003,8|0,0:0|0:0,0:0:0:0:
443,335,139027,2,0,P|369:354|354:346,1,82.5000025177003,2|2,0:0|2:0,0:0:0:0:
295,298,139327,2,0,P|221:279|206:287,1,82.5000025177003,8|0,0:0|0:0,0:0:0:0:
137,319,139627,6,0,B|109:336|109:336|74:194,1,165.000005035401,6|8,0:0|0:0,0:0:0:0:
10,145,140077,2,0,B|64:181|64:181|163:152,1,165.000005035401,2|0,2:0|0:0,0:0:0:0:
225,90,140527,1,8,0:0:0:0:
291,151,140677,38,0,P|279:231|271:324,1,165.000005035401,0|2,0:0|2:0,0:0:0:0:
351,358,141127,2,0,P|389:355|429:320,1,82.5000025177003,8|0,0:0|0:0,0:0:0:0:
431,238,141427,2,0,P|398:212|358:208,1,82.5000025177003,2|2,0:0|2:0,0:0:0:0:
270,233,141727,2,0,L|175:250,1,82.5000025177003,8|0,0:0|0:0,0:0:0:0:
103,215,142027,6,0,P|54:182|99:84,1,165.000005035401,6|8,0:0|0:0,0:0:0:0:
151,36,142477,2,0,P|200:69|155:167,1,165.000005035401,2|0,2:0|0:0,0:0:0:0:
103,215,142927,1,8,0:0:0:0:
161,284,143077,6,0,P|231:268|342:246,1,165.000005035401,2|2,2:0|2:0,0:0:0:0:
338,160,143527,2,0,P|311:126|313:82,1,82.5000025177003,8|0,0:0|0:0,0:0:0:0:
393,49,143827,2,0,P|420:83|418:127,1,82.5000025177003,2|2,0:0|2:0,0:0:0:0:
419,211,144127,2,0,P|410:253|404:314,1,82.5000025177003,8|0,0:0|0:0,0:0:0:0:
351,364,144427,38,0,P|322:351|252:339,1,82.5000025177003,6|0,0:0|0:0,0:0:0:0:
191,299,144727,2,0,P|162:311|92:324,1,82.5000025177003,8|0,0:0|0:0,0:0:0:0:
43,262,145027,2,0,B|22:173|22:173|66:189,1,123.75000377655,2|8,0:0|2:0,0:0:0:0:
95,171,145327,2,0,P|111:128|88:86,1,82.5000025177003,8|0,0:0|0:0,0:0:0:0:
141,15,145627,53,4,0:0:0:0:
222,54,145777,1,8,0:2:0:0:
305,18,145927,2,0,P|296:74|283:165,1,123.75000377655,12|0,0:0|0:0,0:0:0:0:
248,166,146227,2,0,L|273:237,3,41.2500012588501,4|8|8|8,0:0|0:2|0:2|0:2,0:0:0:0:
281,245,146527,2,0,P|323:249|371:224,1,82.5000025177003,12|0,0:0|0:0,0:0:0:0:
453,344,146827,6,0,P|398:327|280:357,1,165.000005035401,4|8,0:0|0:0,0:0:0:0:
207,320,147277,2,0,P|152:337|34:307,1,165.000005035401,2|0,2:0|0:0,0:0:0:0:
7,234,147727,1,8,0:0:0:0:
7,234,147877,6,0,P|19:147|30:59,1,165.000005035401,2|0,2:0|0:0,0:0:0:0:
109,28,148327,2,0,P|119:86|94:125,1,82.5000025177003,8|0,0:0|0:0,0:0:0:0:
137,192,148627,2,0,P|168:177|216:160,1,82.5000025177003,2|2,0:0|2:0,0:0:0:0:
243,74,148927,2,0,P|286:87|326:102,1,82.5000025177003,8|0,0:0|0:0,0:0:0:0:
396,49,149227,6,0,P|416:129|431:214,1,165.000005035401,6|8,0:0|0:0,0:0:0:0:
413,299,149677,2,0,B|394:276|359:274|359:274|302:317|235:296,1,165.000005035401,2|0,2:0|0:0,0:0:0:0:
188,248,150127,1,8,0:0:0:0:
113,299,150277,38,0,P|40:303|14:213,1,165.000005035401,2|0,2:0|0:0,0:0:0:0:
62,154,150727,2,0,P|52:114|45:62,1,82.5000025177003,8|0,0:0|0:0,0:0:0:0:
127,30,151027,2,0,P|133:70|142:110,1,82.5000025177003,2|2,0:0|2:0,0:0:0:0:
222,155,151327,2,0,P|264:131|317:135,1,82.5000025177003,8|0,0:0|0:0,0:0:0:0:
359,63,151627,6,0,P|335:132|323:249,1,165.000005035401,6|8,0:0|0:0,0:0:0:0:
376,297,152077,2,0,P|330:271|187:225,1,165.000005035401,2|0,2:0|0:0,0:0:0:0:
148,181,152527,1,8,0:0:0:0:
96,255,152677,6,0,B|136:350|136:350|165:333|218:338,1,165.000005035401,2|0,2:0|0:0,0:0:0:0:
277,378,153127,2,0,P|292:340|288:290,1,82.5000025177003,8|0,0:0|0:0,0:0:0:0:
224,232,153427,2,0,P|208:194|213:144,1,82.5000025177003,2|2,0:0|2:0,0:0:0:0:
186,65,153727,2,0,P|230:74|281:83,1,82.5000025177003,8|0,0:0|0:0,0:0:0:0:
339,136,154027,37,6,0:0:0:0:
404,72,154177,2,0,P|398:49|389:21,4,41.2500012588501,8|8|8|0|0,2:0|2:0|0:0|0:0|0:0,0:0:0:0:
352,147,154627,1,2,0:0:0:0:
424,201,154777,1,8,2:0:0:0:
424,201,154852,1,8,2:0:0:0:
424,201,154927,2,0,P|424:247|403:298,1,82.5000025177003,8|0,0:0|0:0,0:0:0:0:
359,355,155227,53,8,0:0:0:0:
283,304,155377,1,8,0:0:0:0:
202,346,155527,2,0,P|163:338|71:325,1,123.75000377655,12|0,0:0|0:0,0:0:0:0:
44,298,155827,2,0,P|29:276|19:252,3,41.2500012588501,8|8|8|8,2:0|2:0|2:0|2:0,0:0:0:0:
2,221,156127,2,0,P|12:181|21:133,1,82.5000025177003,12|0,0:0|0:0,0:0:0:0:
16,36,156427,6,0,P|67:47|103:68,1,82.5000025177003,6|2,0:0|0:0,0:0:0:0:
155,167,156727,2,0,P|192:149|232:141,1,82.5000025177003,8|0,0:0|0:0,0:0:0:0:
381,107,157027,2,0,P|388:53|349:23,2,82.5000025177003,8|8|8,0:0|0:0|0:0,0:0:0:0:
319,236,157477,38,0,B|471:199|471:199|440:240|434:283,1,243.749988842011,12|2,0:0|2:0,0:0:0:0:
206,303,158527,6,0,L|148:287,3,41.2500012588501,8|8|8|8,2:0|2:0|2:0|2:0,0:0:0:0:
121,279,158827,5,4,0:0:0:0:
256,192,158902,12,2,163627,0:0:0:0:
