osu file format v14

[General]
AudioFilename: audio.mp3
AudioLeadIn: 0
PreviewTime: 117502
Countdown: 0
SampleSet: Normal
StackLeniency: 0.5
Mode: 0
LetterboxInBreaks: 1
WidescreenStoryboard: 0

[Editor]
Bookmarks: 19612,29212,38812,48412,55612,56812,57412,67612,89212,98812,106012,107812,108412,146812,157612,158812
DistanceSpacing: 1.3
BeatDivisor: 4
GridSize: 4
TimelineZoom: 2

[Metadata]
Title:Mousou Kajitsu
TitleUnicode:妄想果実
Artist:Nanaki feat.GUMI
ArtistUnicode:七希 feat.GUMI
Creator:Natsu
Version:Doyak's Advanced
Source:
Tags:GUMI vocaloid Tomisaka hardcore Fancies Fruit diva megpoid gaia caren_sk crn doyak SnowNiNo_ Mazziv
BeatmapID:1207462
BeatmapSetID:524966

[Difficulty]
HPDrainRate:4
CircleSize:3.5
OverallDifficulty:5
ApproachRate:7
SliderMultiplier:1.2
SliderTickRate:1

[Events]
//Background and Video events
0,0,"EXyGpu1.jpg",0,0
//Break Periods
2,627,1927
2,7612,9127
2,84627,88327
//Storyboard Layer 0 (Background)
//Storyboard Layer 1 (Fail)
//Storyboard Layer 2 (Pass)
//Storyboard Layer 3 (Foreground)
//Storyboard Sound Samples

[TimingPoints]
427,300,4,1,1,55,1,0
2452,-100,4,1,1,25,0,0
2527,-100,4,1,1,55,0,0
2752,-100,4,1,1,25,0,0
2827,-100,4,1,1,55,0,0
7252,-100,4,1,1,25,0,0
7327,-100,4,1,1,55,0,0
7552,-100,4,1,1,25,0,0
7627,-100,4,1,1,40,0,0
10027,-100,4,1,1,75,0,0
17152,-100,4,1,1,20,0,0
17227,-100,4,1,1,75,0,0
26752,-100,4,1,1,20,0,0
26827,-100,4,1,1,75,0,0
29227,-100,4,1,1,60,0,0
48427,-100,4,1,1,75,0,0
55627,-100,4,1,1,80,0,0
55777,-100,4,1,1,40,0,0
55927,-100,4,1,1,70,0,0
56077,-100,4,1,1,30,0,0
56227,-100,4,1,1,60,0,0
56377,-100,4,1,1,20,0,0
56527,-100,4,1,1,50,0,0
56677,-100,4,1,1,10,0,0
56827,-100,4,1,1,40,0,0
56977,-100,4,1,1,5,0,0
57427,-100,4,1,1,75,0,0
58027,-100,4,1,1,75,0,1
78427,-100,4,1,1,80,0,0
78727,-100,4,1,1,70,0,0
79027,-100,4,1,1,60,0,0
79327,-100,4,1,1,75,0,0
84427,-100,4,1,1,60,0,0
98827,-100,4,1,1,75,0,0
106027,-100,4,1,1,80,0,0
106177,-100,4,1,1,40,0,0
106327,-100,4,1,1,70,0,0
106477,-100,4,1,1,30,0,0
106627,-100,4,1,1,60,0,0
106777,-100,4,1,1,20,0,0
106927,-100,4,1,1,50,0,0
107077,-100,4,1,1,10,0,0
107227,-100,4,1,1,40,0,0
107377,-100,4,1,1,5,0,0
107827,-100,4,1,1,65,0,0
118027,-100,4,1,1,75,0,1
137227,-100,4,1,1,30,0,0
137452,-100,4,1,1,10,0,0
137527,-100,4,1,1,75,0,1
157627,-100,4,1,1,80,0,0
157927,-100,4,1,1,70,0,0
158227,-100,4,1,1,60,0,0
158527,-100,4,1,1,75,0,0

[Colours]
Combo1 : 255,13,13
Combo2 : 177,255,34
Combo3 : 255,74,165
Combo4 : 0,165,244
Combo5 : 224,224,224
SliderBorder : 0,165,244
SliderTrackOverride : 30,30,30

[HitObjects]
256,192,427,5,4,0:0:0:0:
256,192,2827,6,0,L|256:252,1,60,4|4,0:0|0:0,0:0:0:0:
217,260,4627,2,0,L|217:320,1,60,8|8,2:0|2:0,0:0:0:0:
295,320,4927,2,0,L|295:260,1,60,8|8,2:0|2:0,0:0:0:0:
256,192,5227,5,4,0:0:0:0:
80,63,10027,38,0,L|198:79,1,120,4|8,0:0|0:0,0:0:0:0:
256,27,10477,2,0,L|239:145,1,120,2|0,2:0|0:0,0:0:0:0:
227,224,10927,1,8,0:0:0:0:
227,224,11077,2,0,P|286:222|343:240,1,120,2|2,2:0|2:0,0:0:0:0:
397,299,11527,1,8,0:0:0:0:
482,168,11827,2,0,L|490:108,2,60,2|0|8,0:0|0:0|0:0,0:0:0:0:
397,299,12427,6,0,L|380:180,1,120,6|8,0:0|0:0,0:0:0:0:
432,122,12877,2,0,L|313:138,1,120,2|2,2:0|2:0,0:0:0:0:
271,204,13327,1,8,0:0:0:0:
271,204,13477,2,0,P|214:222|154:220,1,120,0|2,0:0|2:0,0:0:0:0:
100,162,13927,1,8,0:0:0:0:
23,297,14227,2,0,L|15:357,2,60,2|0|8,0:0|0:0|0:0,0:0:0:0:
100,162,14827,6,0,P|156:144|216:145,1,120,6|8,0:0|0:0,0:0:0:0:
295,145,15277,2,0,P|355:143|412:162,1,120,2|0,2:0|0:0,0:0:0:0:
464,219,15727,2,0,L|456:279,1,60,8|0,0:0|0:0,0:0:0:0:
383,309,16027,2,0,L|391:369,2,60,2|0|8,0:0|0:0|0:0,0:0:0:0:
286,185,16627,2,0,L|278:125,2,60,2|0|8,0:0|0:0|0:0,0:0:0:0:
143,248,17227,38,0,P|83:249|26:231,1,120,4|8,0:0|0:0,0:0:0:0:
26,152,17677,2,0,P|83:134|143:136,1,120,2|0,2:0|0:0,0:0:0:0:
196,192,18127,2,0,L|256:192,1,60,8|0,0:0|0:0,0:0:0:0:
334,192,18427,6,0,L|334:252,1,60,8|8,0:0|0:0,0:0:0:0:
334,329,18727,1,8,0:0:0:0:
178,329,19027,2,0,L|178:269,1,60,8|8,2:0|2:0,0:0:0:0:
178,192,19327,1,8,2:0:0:0:
256,56,19627,6,0,P|312:73|372:72,1,120,4|8,0:0|0:0,0:0:0:0:
413,5,20077,2,0,L|430:124,1,120,2|0,2:0|0:0,0:0:0:0:
382,185,20527,1,8,0:0:0:0:
382,185,20677,2,0,L|399:304,1,120,2|2,2:0|2:0,0:0:0:0:
410,380,21127,1,8,0:0:0:0:
254,362,21427,2,0,L|194:370,2,60,2|0|8,0:0|0:0|0:0,0:0:0:0:
260,206,22027,38,0,P|200:204|143:221,1,120,6|8,0:0|0:0,0:0:0:0:
102,288,22477,2,0,L|85:169,1,120,2|2,2:0|2:0,0:0:0:0:
18,128,22927,1,8,0:0:0:0:
18,128,23077,2,0,L|137:111,1,120,0|2,0:0|2:0,0:0:0:0:
185,49,23527,1,8,0:0:0:0:
278,173,23827,2,0,L|286:233,2,60,2|0|8,0:0|0:0|0:0,0:0:0:0:
426,125,24427,6,0,L|443:244,1,120,6|8,0:0|0:0,0:0:0:0:
365,252,24877,2,0,L|348:133,1,120,2|0,2:0|0:0,0:0:0:0:
278,173,25327,2,0,L|286:233,1,60,8|0,0:0|0:0,0:0:0:0:
210,211,25627,2,0,L|150:219,2,60,2|2|8,0:0|2:0|0:0,0:0:0:0:
189,56,26227,2,0,L|129:64,2,60,2|0|8,0:0|0:0|0:0,0:0:0:0:
309,154,26827,6,0,L|292:273,1,120,4|8,0:0|0:0,0:0:0:0:
369,283,27277,2,0,L|386:164,1,120,0|0,0:0|0:0,0:0:0:0:
356,91,27727,2,0,L|364:31,1,60,8|0,0:0|0:0,0:0:0:0:
287,47,28027,2,0,L|227:47,1,60,8|8,0:0|0:0,0:0:0:0:
149,47,28327,1,8,0:0:0:0:
148,202,28627,2,0,L|208:202,1,60,8|8,2:0|2:0,0:0:0:0:
285,202,28927,1,8,2:0:0:0:
360,338,29227,38,0,P|302:355|243:352,1,120,4|8,0:0|0:0,0:0:0:0:
108,272,29827,2,0,L|48:280,2,60,2|2|8,0:0|0:0|0:0,0:0:0:0:
243,194,30427,2,0,L|303:202,2,60,2|2|8,0:0|0:0|0:0,0:0:0:0:
108,113,31027,2,0,L|48:121,2,60,2|2|8,0:0|0:0|0:0,0:0:0:0:
243,34,31627,6,0,L|303:42,1,60,2|2,0:0|0:0,0:0:0:0:
379,54,31927,1,8,0:0:0:0:
480,172,32227,2,0,L|472:232,1,60,2|2,0:0|0:0,0:0:0:0:
460,308,32527,1,8,0:0:0:0:
316,247,32827,21,8,0:0:0:0:
294,92,33127,1,8,0:0:0:0:
140,114,33427,1,8,0:0:0:0:
161,269,33727,1,8,0:0:0:0:
316,247,34027,22,0,L|324:307,2,60,2|2|8,0:0|0:0|0:0,0:0:0:0:
171,187,34627,2,0,L|111:195,2,60,2|2|8,0:0|0:0|0:0,0:0:0:0:
295,92,35227,2,0,L|287:32,2,60,2|0|8,0:0|0:0|0:0,0:0:0:0:
440,152,35827,2,0,L|500:144,2,60,2|2|8,0:0|0:0|0:0,0:0:0:0:
316,247,36427,6,0,L|256:255,1,60,8|2,0:0|0:0,0:0:0:0:
178,266,36727,1,8,0:0:0:0:
61,162,37027,2,0,L|121:154,1,60,8|2,0:0|0:0,0:0:0:0:
199,143,37327,1,8,0:0:0:0:
316,247,37627,21,2,2:0:0:0:
396,113,38827,22,0,P|339:95|279:96,1,120,4|8,0:0|0:0,0:0:0:0:
233,159,39277,1,2,0:0:0:0:
187,222,39427,2,0,P|127:223|70:205,1,120,2|8,0:0|0:0,0:0:0:0:
40,133,39877,1,2,0:0:0:0:
95,77,40027,2,0,L|103:17,2,60,2|2|8,0:0|0:0|0:0,0:0:0:0:
249,94,40627,2,0,L|257:34,2,60,2|2|8,0:0|0:0|0:0,0:0:0:0:
157,220,41227,6,0,L|149:280,1,60,2|2,0:0|0:0,0:0:0:0:
138,357,41527,1,8,0:0:0:0:
292,375,41827,2,0,L|300:315,1,60,2|2,0:0|0:0,0:0:0:0:
311,238,42128,1,8,0:0:0:0:
249,94,42427,21,8,0:0:0:0:
397,142,42727,1,8,0:0:0:0:
249,192,43027,1,8,0:0:0:0:
397,240,43327,1,8,0:0:0:0:
249,290,43627,22,0,P|189:289|132:307,1,120,2|8,0:0|0:0,0:0:0:0:
63,343,44077,1,0,0:0:0:0:
66,265,44227,2,0,P|67:205|49:148,1,120,2|8,0:0|0:0,0:0:0:0:
13,78,44677,1,0,0:0:0:0:
73,28,44827,2,0,L|133:36,2,60,2|2|8,0:0|0:0|0:0,0:0:0:0:
140,168,45427,2,0,L|200:176,2,60,2|2|8,0:0|0:0|0:0,0:0:0:0:
207,308,46027,6,0,L|267:300,1,60,2|2,0:0|0:0,0:0:0:0:
344,289,46327,1,8,0:0:0:0:
285,147,46627,2,0,L|345:139,1,60,2|2,0:0|0:0,0:0:0:0:
422,129,46927,1,8,0:0:0:0:
303,27,47227,21,8,0:0:0:0:
158,85,47527,1,8,0:0:0:0:
303,141,47827,2,0,L|303:201,1,60,8|8,0:0|0:0,0:0:0:0:
303,278,48127,1,8,2:0:0:0:
160,341,48427,22,0,L|41:324,1,120,4|8,0:0|0:0,0:0:0:0:
53,247,48877,1,4,0:0:0:0:
53,247,49027,2,0,L|172:264,1,120,8|2,0:0|2:0,0:0:0:0:
314,327,49627,54,0,L|374:319,1,60,8|8,2:0|2:0,0:0:0:0:
422,257,49927,2,0,L|414:197,1,60,8|8,2:0|2:0,0:0:0:0:
352,149,50227,2,0,L|292:157,1,60,8|8,2:0|2:0,0:0:0:0:
244,219,50527,2,0,L|252:279,1,60,8|8,2:0|2:0,0:0:0:0:
182,319,50827,6,0,L|165:200,1,120,4|8,0:0|0:0,0:0:0:0:
88,212,51277,1,4,0:0:0:0:
88,212,51427,2,0,L|105:331,1,120,8|2,0:0|2:0,0:0:0:0:
2,212,52027,54,0,L|10:152,1,60,8|8,2:0|2:0,0:0:0:0:
22,75,52327,2,0,L|30:15,1,60,8|8,2:0|2:0,0:0:0:0:
107,15,52627,2,0,L|115:75,1,60,8|8,2:0|2:0,0:0:0:0:
127,152,52927,2,0,L|135:212,1,60,8|8,2:0|2:0,0:0:0:0:
196,259,53227,6,0,L|315:242,1,120,4|8,0:0|0:0,0:0:0:0:
379,293,53677,1,4,0:0:0:0:
379,293,53827,2,0,L|439:285,1,60,8|8,0:0|0:0,0:0:0:0:
504,327,54127,1,8,2:0:0:0:
480,172,54427,6,0,L|463:53,1,120,4|8,0:0|0:0,0:0:0:0:
385,62,54877,1,0,0:0:0:0:
385,62,55027,2,0,L|393:122,2,60,8|8|2,2:0|2:0|2:0,0:0:0:0:
230,81,55627,6,0,L|170:89,1,60,4|0,0:0|0:0,0:0:0:0:
115,145,55927,2,0,L|55:153,1,60,4|0,0:0|0:0,0:0:0:0:
55,231,56227,2,0,L|115:239,1,60,4|0,0:0|0:0,0:0:0:0:
170,295,56527,2,0,L|230:303,1,60,4|0,0:0|0:0,0:0:0:0:
285,359,56827,5,4,0:0:0:0:
285,359,57427,6,0,P|370:307|458:319,1,180,8|8,2:0|2:0,0:0:0:0:
504,368,58027,6,0,L|487:249,1,120,4|8,0:0|0:0,0:0:0:0:
419,209,58477,2,0,P|418:149|436:92,1,120,2|0,2:0|0:0,0:0:0:0:
488,34,58927,1,8,0:0:0:0:
488,34,59077,2,0,L|369:51,1,120,2|2,2:0|2:0,0:0:0:0:
326,116,59527,2,0,L|266:108,1,60,8|0,0:0|0:0,0:0:0:0:
198,69,59827,2,0,L|138:77,2,60,2|0|8,0:0|0:0|0:0,0:0:0:0:
253,214,60427,6,0,L|134:231,1,120,6|8,0:0|0:0,0:0:0:0:
75,180,60877,2,0,P|92:236|91:296,1,120,2|0,2:0|0:0,0:0:0:0:
73,373,61327,1,8,0:0:0:0:
73,373,61477,2,0,L|192:356,1,120,0|2,0:0|2:0,0:0:0:0:
229,287,61927,2,0,L|289:295,1,60,8|0,0:0|0:0,0:0:0:0:
356,334,62227,2,0,L|416:326,2,60,2|2|8,0:0|2:0|0:0,0:0:0:0:
301,187,62827,6,0,L|420:170,1,120,6|8,0:0|0:0,0:0:0:0:
478,221,63277,2,0,P|460:163|462:104,1,120,2|0,2:0|0:0,0:0:0:0:
402,52,63727,1,8,0:0:0:0:
402,52,63877,2,0,L|283:69,1,120,2|2,2:0|2:0,0:0:0:0:
243,135,64327,2,0,L|183:143,1,60,8|0,0:0|0:0,0:0:0:0:
127,88,64627,2,0,L|119:28,2,60,2|2|8,0:0|2:0|0:0,0:0:0:0:
54,225,65227,38,0,L|46:285,1,60,6|0,0:0|0:0,0:0:0:0:
123,295,65527,2,0,L|131:235,1,60,8|0,0:0|0:0,0:0:0:0:
208,245,65827,2,0,L|200:305,1,60,2|8,0:0|2:0,0:0:0:0:
277,315,66127,2,0,L|285:255,1,60,8|0,0:0|0:0,0:0:0:0:
349,211,66427,54,0,L|409:211,1,60,4|0,0:0|0:0,0:0:0:0:
486,213,66727,1,12,0:0:0:0:
486,57,67027,2,0,L|426:57,1,60,4|0,0:0|0:0,0:0:0:0:
349,59,67327,1,12,0:0:0:0:
212,135,67627,6,0,P|152:136|95:118,1,120,4|8,0:0|0:0,0:0:0:0:
54,52,68077,2,0,L|37:171,1,120,2|0,2:0|0:0,0:0:0:0:
101,221,68527,1,8,0:0:0:0:
101,221,68677,2,0,L|118:340,1,120,2|0,2:0|0:0,0:0:0:0:
184,380,69127,2,0,L|244:372,1,60,8|0,0:0|0:0,0:0:0:0:
296,315,69427,2,0,L|356:323,2,60,2|2|8,0:0|2:0|0:0,0:0:0:0:
288,158,70027,6,0,P|348:157|405:175,1,120,6|8,0:0|0:0,0:0:0:0:
446,241,70477,2,0,L|463:122,1,120,2|0,2:0|0:0,0:0:0:0:
425,53,70927,1,8,0:0:0:0:
425,53,71077,2,0,L|306:36,1,120,2|0,2:0|0:0,0:0:0:0:
249,90,71527,2,0,L|189:98,1,60,8|0,0:0|0:0,0:0:0:0:
123,55,71827,2,0,L|63:63,2,60,2|2|8,0:0|2:0|0:0,0:0:0:0:
228,170,72427,6,0,P|229:230|211:287,1,120,6|8,0:0|0:0,0:0:0:0:
264,345,72877,2,0,L|145:328,1,120,2|0,2:0|0:0,0:0:0:0:
91,271,73327,1,8,0:0:0:0:
91,271,73477,2,0,L|108:152,1,120,2|0,2:0|0:0,0:0:0:0:
179,122,73927,2,0,L|171:62,1,60,8|0,0:0|0:0,0:0:0:0:
103,23,74227,2,0,L|43:31,2,60,2|2|8,0:0|2:0|0:0,0:0:0:0:
257,5,74827,38,0,L|317:13,1,60,6|8,0:0|2:0,0:0:0:0:
306,89,75127,2,0,L|246:81,1,60,8|8,0:0|2:0,0:0:0:0:
235,158,75427,2,0,L|295:166,1,60,2|0,0:0|0:0,0:0:0:0:
284,243,75727,2,0,L|224:235,1,60,8|0,0:0|0:0,0:0:0:0:
146,229,76027,54,0,L|146:289,1,60,6|8,0:0|0:0,0:0:0:0:
148,366,76327,1,8,0:0:0:0:
0,366,76627,2,0,L|0:306,1,60,8|8,2:0|2:0,0:0:0:0:
0,229,76927,1,8,0:0:0:0:
74,91,77227,6,0,L|134:91,1,60,6|2,0:0|0:0,0:0:0:0:
174,157,77527,2,0,L|234:157,1,60,8|0,0:0|0:0,0:0:0:0:
277,91,77827,2,0,L|277:31,2,60,8|8|8,0:0|0:0|0:0,0:0:0:0:
316,156,78277,38,0,P|274:265|234:156,1,300,4|2,0:0|2:0,0:0:0:0:
91,91,79327,6,0,L|91:151,1,60,8|8,2:0|2:0,0:0:0:0:
91,228,79627,1,4,0:0:0:0:
256,192,79702,12,2,84427,0:0:0:0:
167,258,89227,6,0,L|159:318,2,60,4|2|8,0:0|0:0|0:0,0:0:0:0:
190,103,89827,2,0,L|130:95,2,60,2|2|8,0:0|0:0|0:0,0:0:0:0:
345,126,90427,2,0,L|353:66,2,60,2|2|8,0:0|0:0|0:0,0:0:0:0:
322,281,91027,2,0,L|382:289,2,60,2|2|8,0:0|0:0|0:0,0:0:0:0:
167,258,91627,6,0,L|107:250,1,60,2|2,0:0|0:0,0:0:0:0:
29,240,91927,1,8,0:0:0:0:
53,85,92227,2,0,L|113:93,1,60,2|2,0:0|0:0,0:0:0:0:
191,103,92527,1,8,0:0:0:0:
312,201,92827,21,8,0:0:0:0:
255,56,93127,1,8,0:0:0:0:
110,113,93427,1,8,0:0:0:0:
167,258,93727,1,8,0:0:0:0:
312,201,94027,22,0,L|372:209,2,60,2|2|8,0:0|0:0|0:0,0:0:0:0:
294,356,94627,2,0,L|354:364,2,60,2|2|8,0:0|0:0|0:0,0:0:0:0:
168,262,95227,2,0,L|108:270,2,60,2|2|8,0:0|0:0|0:0,0:0:0:0:
150,107,95827,2,0,L|90:115,2,60,2|2|8,0:0|0:0|0:0,0:0:0:0:
330,46,96427,6,0,L|390:54,1,60,2|2,0:0|0:0,0:0:0:0:
468,64,96727,1,8,0:0:0:0:
444,219,97027,2,0,L|384:211,1,60,2|2,0:0|0:0,0:0:0:0:
306,201,97327,1,8,0:0:0:0:
256,349,97627,21,8,0:0:0:0:
208,201,97927,1,8,0:0:0:0:
158,349,98227,1,8,0:0:0:0:
110,201,98527,1,8,2:0:0:0:
158,52,98827,22,0,L|277:69,1,120,4|8,0:0|0:0,0:0:0:0:
265,146,99277,1,4,0:0:0:0:
265,146,99427,2,0,L|146:129,1,120,8|2,0:0|2:0,0:0:0:0:
69,264,100027,54,0,L|77:324,1,60,8|8,2:0|2:0,0:0:0:0:
139,372,100327,2,0,L|199:364,1,60,8|8,2:0|2:0,0:0:0:0:
247,302,100627,2,0,L|239:242,1,60,8|8,2:0|2:0,0:0:0:0:
177,194,100927,2,0,L|117:202,1,60,8|8,2:0|2:0,0:0:0:0:
39,190,101227,6,0,L|56:71,1,120,4|8,0:0|0:0,0:0:0:0:
134,83,101677,1,4,0:0:0:0:
134,83,101827,2,0,L|117:202,1,120,8|2,0:0|2:0,0:0:0:0:
227,311,102427,54,0,L|287:303,1,60,8|8,2:0|2:0,0:0:0:0:
364,295,102727,2,0,L|424:287,1,60,8|8,2:0|2:0,0:0:0:0:
411,209,103027,2,0,L|351:217,1,60,8|8,2:0|2:0,0:0:0:0:
274,225,103327,2,0,L|214:233,1,60,8|8,2:0|2:0,0:0:0:0:
174,164,103627,6,0,L|293:147,1,120,4|8,0:0|0:0,0:0:0:0:
352,97,104077,1,4,0:0:0:0:
352,97,104227,2,0,L|412:105,1,60,8|8,0:0|0:0,0:0:0:0:
470,54,104527,1,8,2:0:0:0:
500,206,104827,6,0,L|483:325,1,120,4|8,0:0|0:0,0:0:0:0:
405,312,105277,1,0,0:0:0:0:
405,312,105427,2,0,L|413:252,2,60,8|8|2,2:0|2:0|2:0,0:0:0:0:
249,303,106027,6,0,L|189:295,1,60,4|0,0:0|0:0,0:0:0:0:
134,239,106327,2,0,L|74:231,1,60,4|0,0:0|0:0,0:0:0:0:
74,153,106627,2,0,L|134:145,1,60,4|0,0:0|0:0,0:0:0:0:
189,89,106927,2,0,L|249:81,1,60,4|0,0:0|0:0,0:0:0:0:
304,25,107227,5,4,0:0:0:0:
304,25,107827,6,0,P|389:77|477:65,1,180,8|8,2:0|2:0,0:0:0:0:
504,137,108427,6,0,L|496:197,1,60,12|2,0:0|2:0,0:0:0:0:
415,330,108877,2,0,L|407:270,1,60,8|2,0:0|2:0,0:0:0:0:
325,137,109327,2,0,L|317:197,1,60,8|2,0:0|2:0,0:0:0:0:
236,330,109777,2,0,L|228:270,1,60,8|2,0:0|2:0,0:0:0:0:
146,137,110227,2,0,P|86:135|29:153,1,120,8|8,2:0|0:0,0:0:0:0:
2,226,110677,1,10,2:0:0:0:
52,285,110827,6,0,L|60:345,1,60,12|2,0:0|2:0,0:0:0:0:
156,222,111277,2,0,L|164:162,1,60,8|2,0:0|2:0,0:0:0:0:
259,285,111727,2,0,L|267:345,1,60,8|2,0:0|2:0,0:0:0:0:
363,222,112177,2,0,L|371:162,1,60,8|2,0:0|2:0,0:0:0:0:
259,53,112627,2,0,P|202:70|142:69,1,120,8|8,2:0|0:0,0:0:0:0:
70,38,113077,1,10,2:0:0:0:
78,115,113227,6,0,L|86:175,1,60,12|2,0:0|2:0,0:0:0:0:
167,308,113677,2,0,L|175:248,1,60,8|2,0:0|2:0,0:0:0:0:
257,115,114127,2,0,L|265:175,1,60,8|2,0:0|2:0,0:0:0:0:
346,308,114577,2,0,L|354:248,1,60,8|2,0:0|2:0,0:0:0:0:
434,115,115027,2,0,P|451:172|450:232,1,120,8|8,0:2|0:0,0:0:0:0:
424,305,115477,1,10,2:0:0:0:
346,308,115627,6,0,L|286:316,1,60,12|2,0:0|2:0,0:0:0:0:
166,215,116077,2,0,L|226:223,1,60,8|2,0:0|2:0,0:0:0:0:
346,122,116527,2,0,L|286:130,1,60,8|2,0:0|2:0,0:0:0:0:
166,29,116977,2,0,L|226:37,1,60,8|8,0:0|0:0,0:0:0:0:
305,50,117277,1,8,0:0:0:0:
305,50,117427,1,12,0:0:0:0:
469,311,118027,22,0,L|350:328,1,120,4|8,0:0|0:0,0:0:0:0:
289,278,118477,2,0,L|170:295,1,120,2|0,2:0|0:0,0:0:0:0:
128,360,118927,1,8,0:0:0:0:
128,360,119077,2,0,P|129:300|112:244,1,120,2|2,2:0|2:0,0:0:0:0:
44,203,119527,2,0,L|52:143,1,60,8|0,0:0|0:0,0:0:0:0:
128,126,119827,2,0,L|120:66,2,60,2|2|8,0:0|2:0|0:0,0:0:0:0:
246,227,120427,6,0,L|365:210,1,120,6|8,0:0|0:0,0:0:0:0:
422,263,120877,2,0,L|405:144,1,120,2|0,2:0|0:0,0:0:0:0:
455,85,121327,1,8,0:0:0:0:
455,85,121477,2,0,P|398:103|339:102,1,120,0|2,0:0|2:0,0:0:0:0:
288,42,121927,2,0,L|228:34,1,60,8|0,0:0|0:0,0:0:0:0:
162,75,122227,2,0,L|102:67,2,60,2|2|8,0:0|2:0|0:0,0:0:0:0:
220,219,122827,6,0,L|339:202,1,120,6|8,0:0|0:0,0:0:0:0:
396,149,123277,2,0,L|379:268,1,120,2|0,2:0|0:0,0:0:0:0:
369,345,123727,1,8,0:0:0:0:
369,345,123877,2,0,P|312:327|252:328,1,120,2|2,2:0|2:0,0:0:0:0:
181,295,124327,2,0,L|121:303,1,60,8|0,0:0|0:0,0:0:0:0:
44,312,124627,2,0,L|52:372,2,60,2|2|8,0:0|2:0|0:0,0:0:0:0:
67,157,125227,38,0,L|75:97,1,60,6|8,0:0|2:0,0:0:0:0:
152,107,125527,2,0,L|144:167,1,60,8|0,0:0|0:0,0:0:0:0:
221,177,125827,2,0,L|229:117,1,60,2|8,0:0|2:0,0:0:0:0:
306,126,126127,2,0,L|298:186,1,60,8|0,0:0|0:0,0:0:0:0:
353,241,126427,54,0,L|413:241,1,60,4|0,0:0|0:0,0:0:0:0:
491,241,126727,1,12,0:0:0:0:
353,318,127027,2,0,L|293:318,1,60,4|0,0:0|0:0,0:0:0:0:
215,318,127327,1,12,0:0:0:0:
102,213,127627,6,0,P|100:153|118:96,1,120,4|8,0:0|0:0,0:0:0:0:
196,96,128077,2,0,P|213:152|212:212,1,120,2|0,2:0|0:0,0:0:0:0:
160,271,128527,1,8,0:0:0:0:
160,271,128677,2,0,L|279:254,1,120,2|0,2:0|0:0,0:0:0:0:
356,243,129127,2,0,L|348:303,1,60,8|0,0:0|0:0,0:0:0:0:
424,320,129427,2,0,L|432:380,2,60,2|2|8,0:0|2:0|0:0,0:0:0:0:
405,164,130027,6,0,P|345:166|288:148,1,120,6|8,0:0|0:0,0:0:0:0:
236,90,130477,2,0,P|176:88|119:106,1,120,2|0,2:0|0:0,0:0:0:0:
69,166,130927,1,8,0:0:0:0:
69,166,131077,2,0,L|86:285,1,120,2|0,2:0|0:0,0:0:0:0:
142,338,131527,2,0,L|202:330,1,60,8|0,0:0|0:0,0:0:0:0:
279,330,131827,2,0,L|339:338,2,60,2|2|8,0:0|2:0|0:0,0:0:0:0:
269,173,132427,6,0,P|329:171|386:189,1,120,6|8,0:0|0:0,0:0:0:0:
429,253,132877,2,0,P|427:193|445:136,1,120,2|0,2:0|0:0,0:0:0:0:
480,66,133327,1,8,0:0:0:0:
480,66,133477,2,0,L|361:49,1,120,2|0,2:0|0:0,0:0:0:0:
283,49,133927,2,0,L|223:57,1,60,8|0,0:0|0:0,0:0:0:0:
146,67,134227,2,0,L|138:7,2,60,2|2|8,0:0|2:0|0:0,0:0:0:0:
282,142,134827,38,0,L|342:150,1,60,6|0,0:0|0:0,0:0:0:0:
332,227,135127,2,0,L|272:219,1,60,8|0,0:0|0:0,0:0:0:0:
265,297,135427,2,0,L|325:305,1,60,2|8,0:0|2:0,0:0:0:0:
315,383,135727,2,0,L|255:375,1,60,8|8,0:0|2:0,0:0:0:0:
191,330,136027,54,0,L|130:329,2,60,8|8|8,2:0|2:0|2:0,0:0:0:0:
192,252,136477,2,0,L|131:251,2,60,8|8|8,2:0|2:0|2:0,0:0:0:0:
193,173,136927,2,0,L|72:173,1,120,8|2,2:0|2:0,0:0:0:0:
100,19,137527,5,12,0:0:0:0:
100,19,137677,2,0,P|156:36|216:34,1,120,2|0,2:0|0:0,0:0:0:0:
293,16,138127,1,8,0:0:0:0:
271,89,138277,2,0,P|267:148|284:205,1,120,2|2,2:0|2:0,0:0:0:0:
336,264,138727,2,0,L|396:256,1,60,8|0,0:0|0:0,0:0:0:0:
444,194,139027,2,0,L|504:202,2,60,2|2|8,0:0|2:0|0:0,0:0:0:0:
356,63,139627,6,0,L|237:80,1,120,6|8,0:0|0:0,0:0:0:0:
196,146,140077,2,0,P|136:148|79:131,1,120,2|0,2:0|0:0,0:0:0:0:
2,115,140527,1,8,0:0:0:0:
27,188,140677,2,0,P|44:245|41:304,1,120,0|2,0:0|2:0,0:0:0:0:
105,350,141127,2,0,L|165:342,1,60,8|0,0:0|0:0,0:0:0:0:
219,286,141427,2,0,L|279:278,2,60,2|2|8,0:0|2:0|0:0,0:0:0:0:
166,138,142027,6,0,L|285:121,1,120,6|8,0:0|0:0,0:0:0:0:
350,162,142477,2,0,P|347:221|364:278,1,120,2|0,2:0|0:0,0:0:0:0:
410,342,142927,1,8,0:0:0:0:
443,271,143077,2,0,P|445:211|428:154,1,120,2|2,2:0|2:0,0:0:0:0:
381,90,143527,2,0,L|373:30,1,60,8|0,0:0|0:0,0:0:0:0:
450,22,143827,2,0,L|458:82,2,60,2|2|8,0:0|2:0|0:0,0:0:0:0:
295,43,144427,38,0,L|235:51,1,60,6|0,0:0|0:0,0:0:0:0:
244,128,144727,2,0,L|184:136,1,60,8|0,0:0|0:0,0:0:0:0:
193,213,145027,2,0,L|133:221,1,60,2|8,0:0|2:0,0:0:0:0:
142,298,145327,2,0,L|82:306,1,60,8|0,0:0|0:0,0:0:0:0:
35,243,145627,54,0,L|35:183,1,60,4|0,0:0|0:0,0:0:0:0:
35,105,145927,1,12,0:0:0:0:
191,105,146227,2,0,L|191:165,1,60,4|0,0:0|0:0,0:0:0:0:
191,243,146527,1,12,0:0:0:0:
314,337,146827,6,0,P|371:319|430:322,1,120,4|8,0:0|0:0,0:0:0:0:
482,263,147277,2,0,L|465:144,1,120,2|0,2:0|0:0,0:0:0:0:
453,67,147727,1,8,0:0:0:0:
393,117,147877,2,0,P|335:134|276:131,1,120,2|0,2:0|0:0,0:0:0:0:
231,66,148327,2,0,L|171:58,1,60,8|0,0:0|0:0,0:0:0:0:
112,109,148627,2,0,L|52:101,2,60,2|2|8,0:0|2:0|0:0,0:0:0:0:
239,198,149227,6,0,P|242:257|224:314,1,120,6|8,0:0|0:0,0:0:0:0:
157,355,149677,2,0,L|276:372,1,120,2|0,2:0|0:0,0:0:0:0:
353,383,150127,1,8,0:0:0:0:
422,348,150277,2,0,P|439:291|436:231,1,120,2|0,2:0|0:0,0:0:0:0:
383,174,150727,2,0,L|391:114,1,60,8|0,0:0|0:0,0:0:0:0:
458,76,151027,2,0,L|450:16,2,60,2|2|8,0:0|2:0|0:0,0:0:0:0:
436,231,151627,6,0,P|379:213|319:216,1,120,6|8,0:0|0:0,0:0:0:0:
261,268,152077,2,0,L|278:149,1,120,2|0,2:0|0:0,0:0:0:0:
288,71,152527,1,8,0:0:0:0:
216,101,152677,2,0,P|159:118|99:115,1,120,2|0,2:0|0:0,0:0:0:0:
50,176,153127,2,0,L|58:236,1,60,8|0,0:0|0:0,0:0:0:0:
70,312,153427,2,0,L|10:320,2,60,2|2|8,0:0|2:0|0:0,0:0:0:0:
221,348,154027,38,0,L|229:288,1,60,6|8,0:0|2:0,0:0:0:0:
306,297,154327,2,0,L|314:237,1,60,8|0,0:0|0:0,0:0:0:0:
391,246,154627,2,0,L|399:186,1,60,2|8,0:0|2:0,0:0:0:0:
476,195,154927,2,0,L|484:135,1,60,8|0,0:0|0:0,0:0:0:0:
418,92,155227,54,0,L|358:92,1,60,8|8,0:0|0:0,0:0:0:0:
280,92,155527,1,8,0:0:0:0:
280,248,155827,2,0,L|340:248,1,60,8|8,2:0|2:0,0:0:0:0:
418,248,156127,1,8,0:0:0:0:
280,324,156427,6,0,L|220:324,1,60,6|2,0:0|0:0,0:0:0:0:
180,258,156727,2,0,L|120:258,1,60,8|0,0:0|0:0,0:0:0:0:
76,192,157027,2,0,L|76:132,2,60,8|8|8,0:0|0:0|0:0,0:0:0:0:
38,258,157477,38,0,P|80:367|120:258,1,300,8|2,0:0|2:0,0:0:0:0:
213,132,158527,6,0,L|273:132,1,60,8|8,2:0|2:0,0:0:0:0:
350,132,158827,1,4,0:0:0:0:
256,192,158902,12,2,163627,0:0:0:0:
