osu file format v14

[General]
AudioFilename: audio.mp3
AudioLeadIn: 0
PreviewTime: 117502
Countdown: 0
SampleSet: Normal
StackLeniency: 0.2
Mode: 0
LetterboxInBreaks: 1
WidescreenStoryboard: 0

[Editor]
Bookmarks: 412,7612,10012,19612,29212,38812,48412,58012,78412,84412,89212,98812,108412,118012
DistanceSpacing: 0.8
BeatDivisor: 4
GridSize: 4
TimelineZoom: 1.8

[Metadata]
Title:Mousou Kajitsu
TitleUnicode:妄想果実
Artist:Nanaki feat.GUMI
ArtistUnicode:七希 feat.GUMI
Creator:Natsu
Version:Climax
Source:
Tags:GUMI vocaloid Tomisaka hardcore Fancies Fruit diva megpoid gaia caren_sk crn doyak SnowNiNo_ Mazziv
BeatmapID:1114132
BeatmapSetID:524966

[Difficulty]
HPDrainRate:6
CircleSize:4.2
OverallDifficulty:9
ApproachRate:9.5
SliderMultiplier:2
SliderTickRate:1

[Events]
//Background and Video events
0,0,"EXyGpu1.jpg",0,0
//Break Periods
2,7827,9502
2,84627,88012
//Storyboard Layer 0 (Background)
//Storyboard Layer 1 (Fail)
//Storyboard Layer 2 (Pass)
//Storyboard Layer 3 (Foreground)
//Storyboard Sound Samples

[TimingPoints]
427,300,4,1,1,55,1,0
427,-133.333333333333,4,1,1,55,0,0
2452,-133.333333333333,4,1,1,25,0,0
2527,-133.333333333333,4,1,1,55,0,0
2752,-133.333333333333,4,1,1,25,0,0
2827,-133.333333333333,4,1,1,55,0,0
7252,-133.333333333333,4,1,1,25,0,0
7327,-133.333333333333,4,1,1,55,0,0
7552,-133.333333333333,4,1,1,25,0,0
7627,-133.333333333333,4,1,1,40,0,0
10027,-100,4,1,1,75,0,0
17152,-100,4,1,1,20,0,0
17227,-100,4,1,1,75,0,0
26752,-100,4,1,1,20,0,0
26827,-100,4,1,1,75,0,0
29227,-125,4,1,1,60,0,0
32827,-100,4,1,1,60,0,0
33127,-83.3333333333333,4,1,1,60,0,0
33427,-71.4285714285714,4,1,1,60,0,0
33727,-62.5,4,1,1,60,0,0
34027,-125,4,1,1,60,0,0
37627,-200,4,1,1,60,0,0
38827,-125,4,1,1,60,0,0
42427,-100,4,1,1,60,0,0
42727,-83.3333333333333,4,1,1,60,0,0
43027,-71.4285714285714,4,1,1,60,0,0
43327,-62.5,4,1,1,60,0,0
43627,-125,4,1,1,60,0,0
47227,-100,4,1,1,60,0,0
47527,-83.3333333333333,4,1,1,60,0,0
48427,-125,4,1,1,75,0,0
49327,-200,4,1,1,75,0,0
49627,-125,4,1,1,75,0,0
51727,-200,4,1,1,75,0,0
52027,-125,4,1,1,75,0,0
55627,-100,4,1,1,80,0,0
55777,-100,4,1,1,40,0,0
55927,-125,4,1,1,70,0,0
56077,-125,4,1,1,30,0,0
56227,-166.666666666667,4,1,1,60,0,0
56377,-166.666666666667,4,1,1,20,0,0
56527,-250,4,1,1,50,0,0
56677,-250,4,1,1,10,0,0
56827,-500,4,1,1,40,0,0
56977,-500,4,1,1,5,0,0
57427,-166.666666666667,4,1,1,75,0,0
58027,-83.3333333333333,4,1,1,75,0,1
58327,-100,4,1,1,75,0,1
66427,-83.3333333333333,4,1,1,75,0,1
67552,-83.3333333333333,4,1,1,75,0,0
67627,-83.3333333333333,4,1,1,75,0,1
67927,-100,4,1,1,75,0,1
78427,-125,4,1,1,80,0,0
78727,-142.857142857143,4,1,1,70,0,0
79027,-166.666666666667,4,1,1,60,0,0
79327,-83.3333333333333,4,1,1,75,0,0
84427,-100,4,1,1,60,0,0
89227,-125,4,1,1,60,0,0
92827,-100,4,1,1,60,0,0
93127,-83.3333333333333,4,1,1,60,0,0
93427,-71.4285714285714,4,1,1,60,0,0
93727,-62.5,4,1,1,60,0,0
94027,-125,4,1,1,60,0,0
97627,-100,4,1,1,60,0,0
97927,-83.3333333333333,4,1,1,60,0,0
98227,-71.4285714285714,4,1,1,60,0,0
98527,-83.3333333333333,4,1,1,60,0,0
98827,-125,4,1,1,75,0,0
99727,-200,4,1,1,75,0,0
100027,-125,4,1,1,75,0,0
102127,-200,4,1,1,75,0,0
102427,-125,4,1,1,75,0,0
106027,-100,4,1,1,80,0,0
106177,-100,4,1,1,40,0,0
106327,-125,4,1,1,70,0,0
106477,-125,4,1,1,30,0,0
106627,-166.666666666667,4,1,1,60,0,0
106777,-166.666666666667,4,1,1,20,0,0
106927,-250,4,1,1,50,0,0
107077,-250,4,1,1,10,0,0
107227,-500,4,1,1,40,0,0
107377,-500,4,1,1,5,0,0
107827,-125,4,1,1,65,0,0
110227,-111.111111111111,4,1,1,65,0,0
110827,-125,4,1,1,65,0,0
112627,-111.111111111111,4,1,1,65,0,0
113227,-125,4,1,1,65,0,0
115027,-111.111111111111,4,1,1,65,0,0
115627,-125,4,1,1,65,0,0
118027,-83.3333333333333,4,1,1,75,0,1
118327,-100,4,1,1,75,0,1
126427,-83.3333333333333,4,1,1,75,0,1
127552,-83.3333333333333,4,1,1,75,0,0
127627,-83.3333333333333,4,1,1,75,0,1
127927,-100,4,1,1,75,0,1
137227,-200,4,1,1,30,0,0
137452,-200,4,1,1,10,0,0
137527,-100,4,1,1,75,0,1
145627,-83.3333333333333,4,1,1,75,0,1
146752,-83.3333333333333,4,1,1,75,0,0
146827,-83.3333333333333,4,1,1,75,0,1
147127,-100,4,1,1,75,0,1
157627,-125,4,1,1,80,0,0
157927,-142.857142857143,4,1,1,70,0,0
158227,-166.666666666667,4,1,1,60,0,0
158527,-83.3333333333333,4,1,1,75,0,0

[Colours]
Combo1 : 255,13,13
Combo2 : 177,255,34
Combo3 : 255,74,165
Combo4 : 0,165,244
Combo5 : 224,224,224
SliderBorder : 0,165,244
SliderTrackOverride : 30,30,30

[HitObjects]
398,280,427,6,0,B|429:328|404:383|404:383|435:355,1,150.000005722046,4|2,0:0|2:0,0:0:0:0:
487,228,877,1,0,0:0:0:0:
328,333,1027,2,0,P|258:356|187:334,1,150.000005722046,12|2,0:0|2:0,0:0:0:0:
44,278,1477,2,0,P|80:271|116:278,1,75.0000028610231,2|0,0:0|0:0,0:0:0:0:
328,333,1777,5,8,2:0:0:0:
364,338,1852,1,8,2:0:0:0:
400,328,1927,1,8,0:0:0:0:
357,155,2077,1,8,2:0:0:0:
357,155,2152,1,8,2:0:0:0:
356,155,2228,2,0,P|343:209|356:264,1,112.500004291535,2|0,2:0|0:0,0:0:0:0:
256,252,2527,2,0,P|201:239|146:252,1,112.500004291535,2|0,2:0|0:0,0:0:0:0:
61,283,2827,5,4,0:0:0:0:
176,76,2977,1,4,0:0:0:0:
263,251,3127,37,2,2:0:0:0:
249,133,3277,1,0,0:0:0:0:
327,295,3427,2,0,P|264:329|199:296,1,150.000005722046,12|2,0:0|2:0,0:0:0:0:
88,107,3877,5,0,0:0:0:0:
87,300,4027,2,0,P|107:268|110:231,1,75.0000028610231,2|0,2:0|0:0,0:0:0:0:
110,38,4327,2,0,P|91:69|88:107,1,75.0000028610231,2|0,2:0|0:0,0:0:0:0:
234,224,4627,5,8,2:0:0:0:
274,242,4702,1,8,2:0:0:0:
319,247,4777,1,8,2:0:0:0:
363,239,4852,1,8,2:0:0:0:
403,218,4927,1,8,2:0:0:0:
434,186,5002,1,8,2:0:0:0:
455,146,5077,1,8,2:0:0:0:
462,102,5152,1,8,2:0:0:0:
468,30,5227,38,0,L|483:197,1,150.000005722046,4|2,0:0|2:0,0:0:0:0:
498,355,5677,1,0,0:0:0:0:
363,239,5827,2,0,P|288:219|221:247,1,150.000005722046,12|2,0:0|2:0,0:0:0:0:
70,365,6277,6,0,P|99:297|85:224,1,150.000005722046,2|0,2:0|0:0,0:0:0:0:
11,83,6727,1,8,2:0:0:0:
4,127,6802,1,8,2:0:0:0:
17,170,6877,1,8,2:0:0:0:
45,204,6952,1,8,2:0:0:0:
85,224,7027,2,0,P|140:233|187:205,1,112.500004291535,2|0,2:0|0:0,0:0:0:0:
256,154,7327,2,0,L|262:272,1,112.500004291535,2|0,2:0|0:0,0:0:0:0:
267,375,7627,53,2,2:0:0:0:
376,314,10027,6,0,P|391:268|373:222,1,100,4|0,0:0|0:0,0:0:0:0:
193,115,10327,1,8,0:0:0:0:
319,268,10477,1,2,2:0:0:0:
135,69,10627,2,0,P|120:115|138:161,1,100,2|0,0:0|0:0,0:0:0:0:
319,268,10927,5,8,0:0:0:0:
193,115,11077,1,2,2:0:0:0:
119,299,11227,1,2,0:0:0:0:
359,206,11377,2,0,P|314:193|266:215,1,100,2|8,2:0|0:0,0:0:0:0:
225,381,11677,37,2,2:0:0:0:
81,181,11827,1,2,0:0:0:0:
267,213,11977,1,0,0:0:0:0:
26,277,12127,1,8,0:0:0:0:
82,38,12277,1,0,0:0:0:0:
267,213,12427,5,6,0:0:0:0:
45,370,12577,2,0,P|23:326|26:277,1,100,2|8,2:0|0:0,0:0:0:0:
247,119,12877,2,0,P|269:163|267:213,1,100,2|2,2:0|0:0,0:0:0:0:
101,310,13177,5,2,2:0:0:0:
324,264,13327,1,8,0:0:0:0:
170,294,13477,1,0,0:0:0:0:
396,244,13627,1,2,0:0:0:0:
257,305,13777,2,0,P|246:258|266:213,1,100,2|8,2:0|0:0,0:0:0:0:
512,126,14077,37,2,2:0:0:0:
324,264,14227,1,2,0:0:0:0:
512,203,14377,1,0,0:0:0:0:
257,305,14527,1,8,0:0:0:0:
512,279,14677,1,0,0:0:0:0:
192,344,14827,5,6,0:0:0:0:
381,215,14977,2,0,P|400:260|385:306,1,100,2|8,2:0|0:0,0:0:0:0:
192,344,15277,1,2,2:0:0:0:
454,329,15427,1,2,0:0:0:0:
324,264,15577,1,0,0:0:0:0:
473,128,15727,1,8,0:0:0:0:
454,329,15877,1,0,0:0:0:0:
255,294,16027,6,0,P|260:213|324:264,1,200,2|8,0:0|0:0,0:0:0:0:
175,363,16477,1,2,2:0:0:0:
124,205,16627,1,2,0:0:0:0:
14,328,16777,1,0,0:0:0:0:
183,256,16927,2,0,P|200:187|148:133,1,150,8|0,0:0|0:0,0:0:0:0:
183,256,17227,38,0,L|294:244,1,100,4|0,0:0|0:0,0:0:0:0:
413,148,17527,1,8,0:0:0:0:
335,353,17677,1,2,2:0:0:0:
364,88,17827,2,0,P|410:70|457:84,1,100,2|0,0:0|0:0,0:0:0:0:
428,349,18127,2,0,P|381:366|334:352,1,100,8|0,0:0|0:0,0:0:0:0:
130,197,18427,5,8,0:0:0:0:
382,187,18577,1,8,0:0:0:0:
110,242,18727,1,8,0:0:0:0:
402,142,18877,1,8,0:0:0:0:
130,197,19027,5,8,2:0:0:0:
110,242,19102,1,8,2:0:0:0:
112,292,19177,1,8,2:0:0:0:
134,336,19252,1,8,2:0:0:0:
174,366,19327,1,8,2:0:0:0:
393,315,19477,1,0,0:0:0:0:
90,123,19627,37,4,0:0:0:0:
256,373,19777,1,0,0:0:0:0:
358,212,19927,1,8,0:0:0:0:
112,292,20077,2,0,P|159:305|205:288,1,100,2|2,2:0|0:0,0:0:0:0:
391,145,20377,5,0,0:0:0:0:
290,326,20527,1,8,0:0:0:0:
227,85,20677,1,2,2:0:0:0:
328,266,20827,1,2,0:0:0:0:
166,176,20977,2,0,P|212:160|260:171,1,100,2|8,2:0|0:0,0:0:0:0:
390,383,21277,5,2,2:0:0:0:
219,234,21427,1,2,0:0:0:0:
339,162,21577,1,0,0:0:0:0:
251,371,21727,1,8,0:0:0:0:
219,234,21877,1,0,0:0:0:0:
441,260,22027,38,0,P|394:276|347:262,1,100,6|0,0:0|0:0,0:0:0:0:
256,69,22327,1,8,0:0:0:0:
70,259,22477,2,0,P|117:276|164:262,1,100,2|2,2:0|0:0,0:0:0:0:
256,69,22777,5,2,2:0:0:0:
347,262,22927,1,8,0:0:0:0:
244,192,23077,1,0,0:0:0:0:
452,193,23227,1,2,0:0:0:0:
183,241,23377,2,0,P|163:195|178:148,1,100,2|8,2:0|0:0,0:0:0:0:
416,128,23677,5,2,2:0:0:0:
244,192,23827,1,2,0:0:0:0:
289,41,23977,1,0,0:0:0:0:
370,324,24127,1,8,0:0:0:0:
244,192,24277,1,0,0:0:0:0:
473,128,24427,37,6,0:0:0:0:
339,194,24577,2,0,P|324:146|344:100,1,100,2|8,2:0|0:0,0:0:0:0:
500,20,24877,1,2,2:0:0:0:
401,149,25027,1,2,0:0:0:0:
271,32,25177,1,0,0:0:0:0:
212,218,25327,1,8,0:0:0:0:
342,101,25477,1,0,0:0:0:0:
44,143,25627,5,2,0:0:0:0:
261,278,25777,2,0,P|215:295|168:279,1,100,2|8,2:0|0:0,0:0:0:0:
44,143,26077,1,2,2:0:0:0:
128,381,26227,1,2,0:0:0:0:
212,218,26377,1,0,0:0:0:0:
33,290,26527,2,0,P|103:312|168:279,1,150,8|0,0:0|0:0,0:0:0:0:
217,123,26827,6,0,P|200:170|212:218,1,100,4|0,0:0|0:0,0:0:0:0:
312,338,27127,1,8,0:0:0:0:
97,225,27277,1,0,0:0:0:0:
280,171,27427,2,0,P|296:125|285:77,1,100,2|0,0:0|0:0,0:0:0:0:
307,250,27727,2,0,P|346:220|362:173,1,100,8|0,0:0|0:0,0:0:0:0:
54,239,28027,37,8,0:0:0:0:
458,145,28177,1,8,0:0:0:0:
257,369,28327,2,0,P|235:318|249:277,1,100,8|0,0:0|0:0,0:0:0:0:
458,145,28627,5,8,2:0:0:0:
427,184,28702,1,8,2:0:0:0:
382,204,28777,1,8,2:0:0:0:
333,202,28852,1,8,2:0:0:0:
290,176,28927,1,8,2:0:0:0:
256,22,29077,1,0,0:0:0:0:
102,199,29227,6,0,P|140:211|178:202,1,80,4|0,0:0|0:0,0:0:0:0:
409,184,29527,2,0,P|371:172|333:181,1,80,8|0,0:0|0:0,0:0:0:0:
212,275,29827,1,2,0:0:0:0:
300,109,29977,1,2,0:0:0:0:
178,202,30127,1,8,0:0:0:0:
333,181,30277,1,2,0:0:0:0:
0,227,30427,37,2,0:0:0:0:
111,369,30577,1,2,0:0:0:0:
178,202,30727,1,8,0:0:0:0:
19,329,30877,1,2,0:0:0:0:
197,304,31027,1,2,0:0:0:0:
86,162,31177,1,2,0:0:0:0:
269,241,31327,1,8,0:0:0:0:
101,265,31477,1,2,0:0:0:0:
333,181,31627,5,2,0:0:0:0:
127,96,31777,1,2,0:0:0:0:
267,270,31927,1,8,0:0:0:0:
352,64,32077,1,2,0:0:0:0:
177,203,32227,1,2,0:0:0:0:
381,286,32377,1,2,0:0:0:0:
244,113,32527,1,8,0:0:0:0:
159,320,32677,1,2,0:0:0:0:
333,181,32827,22,0,L|432:192,1,100,8|8,0:0|0:0,0:0:0:0:
285,128,33127,6,0,L|270:247,1,119.999996337891,8|0,0:0|0:0,0:0:0:0:
240,74,33427,54,0,L|378:91,1,139.999995727539,8|8,0:0|0:0,0:0:0:0:
196,17,33727,6,0,L|176:183,1,160,8|0,0:0|0:0,0:0:0:0:
94,375,34027,5,2,0:0:0:0:
213,295,34177,1,2,0:0:0:0:
113,207,34327,2,0,L|129:303,1,80,8|0,0:0|0:0,0:0:0:0:
417,332,34627,1,2,0:0:0:0:
298,252,34777,1,2,0:0:0:0:
398,164,34927,2,0,L|382:260,1,80,8|0,0:0|0:0,0:0:0:0:
182,21,35227,6,0,L|198:117,1,80,2|0,0:0|0:0,0:0:0:0:
349,330,35527,1,8,0:0:0:0:
200,195,35677,1,2,0:0:0:0:
329,42,35827,1,2,0:0:0:0:
286,237,35977,1,2,0:0:0:0:
89,203,36127,1,8,0:0:0:0:
280,142,36277,1,2,0:0:0:0:
349,330,36427,5,8,0:0:0:0:
146,286,36577,1,2,0:0:0:0:
380,316,36727,1,8,0:0:0:0:
115,277,36877,1,2,0:0:0:0:
409,299,37027,1,8,0:0:0:0:
84,270,37177,1,2,0:0:0:0:
440,278,37327,1,8,0:0:0:0:
55,263,37477,1,8,0:0:0:0:
466,256,37627,21,2,2:0:0:0:
440,278,37927,53,2,2:0:0:0:
409,299,38227,5,2,2:0:0:0:
380,316,38527,53,2,2:0:0:0:
29,256,38827,21,4,0:0:0:0:
209,342,38977,1,2,0:0:0:0:
305,200,39127,1,8,0:0:0:0:
125,286,39277,1,2,0:0:0:0:
24,114,39427,1,2,0:0:0:0:
204,200,39577,1,2,0:0:0:0:
300,58,39727,1,8,0:0:0:0:
120,144,39877,1,2,0:0:0:0:
283,259,40027,5,2,0:0:0:0:
300,58,40177,1,2,0:0:0:0:
120,144,40327,2,0,P|158:153|195:141,1,80,8|0,0:0|0:0,0:0:0:0:
359,14,40627,1,2,0:0:0:0:
268,167,40777,1,2,0:0:0:0:
500,123,40927,1,8,0:0:0:0:
359,14,41077,1,2,0:0:0:0:
409,276,41227,5,2,0:0:0:0:
500,123,41377,1,2,0:0:0:0:
268,167,41527,1,8,0:0:0:0:
451,194,41677,1,2,0:0:0:0:
208,217,41827,1,2,0:0:0:0:
396,107,41977,1,2,0:0:0:0:
409,276,42127,1,8,0:0:0:0:
268,167,42277,1,2,0:0:0:0:
296,343,42427,6,0,P|324:301|322:252,1,100,8|8,0:0|0:0,0:0:0:0:
187,323,42727,6,0,P|238:353|296:343,1,119.999996337891,8|0,0:0|0:0,0:0:0:0:
195,199,43027,54,0,P|163:259|187:323,1,139.999995727539,8|8,0:0|0:0,0:0:0:0:
331,192,43327,6,0,P|261:160|195:199,1,160,8|0,0:0|0:0,0:0:0:0:
295,343,43627,5,2,0:0:0:0:
407,232,43777,1,2,0:0:0:0:
402,380,43927,2,0,P|378:350|371:311,1,80,8|0,0:0|0:0,0:0:0:0:
429,115,44227,1,2,0:0:0:0:
317,226,44377,1,2,0:0:0:0:
321,77,44527,2,0,P|345:107|352:146,1,80,8|0,0:0|0:0,0:0:0:0:
119,290,44827,5,2,0:0:0:0:
317,226,44977,1,2,0:0:0:0:
89,224,45127,1,8,0:0:0:0:
347,292,45277,1,2,0:0:0:0:
155,194,45427,1,2,0:0:0:0:
412,262,45577,1,2,0:0:0:0:
184,260,45727,1,8,0:0:0:0:
383,196,45877,1,2,0:0:0:0:
80,237,46027,5,2,0:0:0:0:
148,378,46177,1,2,0:0:0:0:
184,165,46327,1,8,0:0:0:0:
116,306,46477,1,2,0:0:0:0:
81,92,46627,1,2,0:0:0:0:
149,233,46777,1,2,0:0:0:0:
181,21,46927,1,8,0:0:0:0:
113,162,47077,1,2,0:0:0:0:
369,88,47227,22,0,P|320:76|273:92,1,100,8|8,0:0|0:0,0:0:0:0:
113,162,47527,54,0,P|169:177|222:151,1,119.999996337891,8|0,0:0|0:0,0:0:0:0:
387,16,47827,21,8,0:0:0:0:
256,242,47977,1,8,0:0:0:0:
444,165,48127,5,8,2:0:0:0:
412,137,48202,1,8,2:0:0:0:
372,124,48277,1,8,2:0:0:0:
331,126,48352,1,8,2:0:0:0:
284,148,48427,37,4,0:0:0:0:
185,293,48577,1,8,0:0:0:0:
357,236,48727,1,8,0:0:0:0:
198,107,48877,2,0,P|188:145|199:183,1,80,4|8,0:0|0:0,0:0:0:0:
428,251,49327,54,0,L|367:251,1,50,2|2,2:0|1:0,0:0:0:0:
256,340,49627,21,8,2:0:0:0:
231,327,49702,1,8,2:0:0:0:
206,316,49777,1,8,2:0:0:0:
181,305,49852,1,8,2:0:0:0:
136,280,49927,5,8,2:0:0:0:
161,267,50002,1,8,2:0:0:0:
186,256,50077,1,8,2:0:0:0:
211,245,50152,1,8,2:0:0:0:
255,219,50227,5,8,2:0:0:0:
230,205,50302,1,8,2:0:0:0:
205,195,50377,1,8,2:0:0:0:
180,184,50452,1,8,2:0:0:0:
135,159,50527,37,8,2:0:0:0:
160,146,50602,1,8,2:0:0:0:
185,135,50677,1,8,2:0:0:0:
210,124,50752,1,8,2:0:0:0:
255,100,50827,53,4,0:0:0:0:
65,28,50977,1,8,0:0:0:0:
301,33,51127,1,8,0:0:0:0:
110,95,51277,2,0,P|102:133|114:171,1,80,4|8,0:0|0:0,0:0:0:0:
306,278,51727,54,0,L|256:278,1,50,2|2,2:0|2:0,0:0:0:0:
24,278,52027,21,8,2:0:0:0:
44,297,52102,1,8,2:0:0:0:
70,308,52177,1,8,2:0:0:0:
97,308,52252,1,8,2:0:0:0:
140,277,52327,5,8,2:0:0:0:
160,258,52402,1,8,2:0:0:0:
185,247,52477,1,8,2:0:0:0:
213,247,52552,1,8,2:0:0:0:
256,278,52627,5,8,2:0:0:0:
276,297,52702,1,8,2:0:0:0:
301,308,52777,1,8,2:0:0:0:
329,308,52852,1,8,2:0:0:0:
372,277,52927,37,8,2:0:0:0:
392,258,53002,1,8,2:0:0:0:
417,247,53077,1,8,2:0:0:0:
445,247,53152,1,8,2:0:0:0:
488,278,53227,53,4,0:0:0:0:
432,131,53377,1,8,0:0:0:0:
392,346,53527,1,8,0:0:0:0:
329,81,53677,2,0,L|321:-2,2,80,4|8|8,0:0|0:0|0:0,0:0:0:0:
360,376,54127,5,8,2:0:0:0:
399,379,54202,1,8,2:0:0:0:
437,367,54277,1,8,2:0:0:0:
467,341,54352,1,8,2:0:0:0:
484,305,54427,2,0,L|481:225,1,80,4|0,0:0|0:0,0:0:0:0:
364,87,54727,2,0,L|366:166,1,80,8|0,0:0|0:0,0:0:0:0:
296,309,55027,5,8,2:0:0:0:
264,332,55102,1,8,2:0:0:0:
225,337,55177,1,8,2:0:0:0:
188,323,55252,1,8,2:0:0:0:
163,292,55327,2,0,L|148:202,1,80,2|0,2:0|0:0,0:0:0:0:
121,29,55627,38,0,L|136:140,1,100,4|0,0:0|0:0,0:0:0:0:
196,33,55927,54,0,L|207:119,1,80,4|0,0:0|0:0,0:0:0:0:
272,42,56227,6,0,L|279:101,1,59.9999981689454,4|0,0:0|0:0,0:0:0:0:
348,52,56527,54,0,L|354:103,1,40,4|0,0:0|0:0,0:0:0:0:
423,60,56827,6,0,L|426:84,1,20,4|0,0:0|0:0,0:0:0:0:
448,322,57427,53,8,2:0:0:0:
438,332,57502,1,8,2:0:0:0:
426,341,57577,1,8,2:0:0:0:
413,348,57652,1,8,2:0:0:0:
399,354,57727,1,8,2:0:0:0:
384,358,57802,1,8,2:0:0:0:
369,360,57877,1,8,2:0:0:0:
354,359,57952,1,8,2:0:0:0:
287,331,58027,54,0,P|369:360|448:322,1,179.999994506836,4|0,0:0|0:0,0:0:0:0:
468,238,58327,37,8,0:0:0:0:
352,143,58477,2,0,P|340:190|357:236,1,100,2|2,2:0|0:0,0:0:0:0:
400,71,58777,2,0,P|354:57|306:70,1,100,0|8,0:0|0:0,0:0:0:0:
111,125,59077,2,0,P|157:139|205:126,1,100,2|2,2:0|0:0,0:0:0:0:
400,71,59377,5,2,2:0:0:0:
271,221,59527,1,8,0:0:0:0:
466,167,59677,1,0,0:0:0:0:
205,125,59827,1,2,0:0:0:0:
343,264,59977,2,0,P|355:216|338:170,1,100,0|8,0:0|0:0,0:0:0:0:
18,50,60427,6,0,L|117:40,1,100,6|0,0:0|0:0,0:0:0:0:
317,26,60727,1,8,0:0:0:0:
94,155,60877,2,0,L|193:145,1,100,2|2,2:0|0:0,0:0:0:0:
393,131,61177,1,0,0:0:0:0:
173,265,61327,2,0,L|272:255,1,100,8|0,0:0|0:0,0:0:0:0:
472,241,61627,1,2,0:0:0:0:
361,365,61777,37,2,2:0:0:0:
393,131,61927,1,8,0:0:0:0:
415,306,62077,1,0,0:0:0:0:
181,274,62227,1,2,0:0:0:0:
393,131,62377,2,0,P|412:176|399:223,1,100,2|8,2:0|0:0,0:0:0:0:
115,318,62827,6,0,P|75:322|100:292,1,100,6|0,0:0|0:0,0:0:0:0:
256,192,63127,1,8,0:0:0:0:
396,318,63277,2,0,P|436:321|411:291,1,100,2|2,2:0|0:0,0:0:0:0:
208,325,63577,2,0,P|160:335|115:318,1,100,0|8,0:0|0:0,0:0:0:0:
213,123,63877,2,0,P|261:112|306:130,1,100,2|2,2:0|0:0,0:0:0:0:
396,318,64177,5,2,2:0:0:0:
256,192,64327,1,8,0:0:0:0:
469,130,64477,1,0,0:0:0:0:
329,256,64627,1,2,0:0:0:0:
373,79,64777,2,0,L|381:192,1,100,2|8,2:0|0:0,0:0:0:0:
65,260,65227,37,6,0:0:0:0:
268,280,65377,1,0,0:0:0:0:
185,94,65527,1,8,0:0:0:0:
18,314,65677,1,0,0:0:0:0:
278,205,65827,1,2,0:0:0:0:
44,57,65977,1,8,2:0:0:0:
44,57,66052,1,8,2:0:0:0:
44,57,66127,1,8,0:0:0:0:
155,331,66277,1,0,0:0:0:0:
407,122,66427,54,0,P|348:121|296:149,1,119.999996337891,4|0,0:0|0:0,0:0:0:0:
155,331,66727,2,0,P|198:290|215:234,1,119.999996337891,12|0,0:0|0:0,0:0:0:0:
188,38,67027,2,0,P|186:97|214:149,1,119.999996337891,4|0,0:0|0:0,0:0:0:0:
394,294,67327,2,0,P|353:251|296:234,1,119.999996337891,12|0,0:0|0:0,0:0:0:0:
1,193,67627,6,0,B|87:234|86:152|174:193,1,179.999994506836,4|0,0:0|0:0,0:0:0:0:
129,261,67927,5,8,0:0:0:0:
41,130,68077,2,0,P|25:83|42:37,1,100,2|2,2:0|0:0,0:0:0:0:
189,86,68377,2,0,B|103:85|103:85|114:95,1,100,0|8,0:0|0:0,0:0:0:0:
289,203,68677,6,0,P|310:226|278:205,1,100,2|2,2:0|0:0,0:0:0:0:
284,94,68977,1,0,0:0:0:0:
414,265,69127,1,8,0:0:0:0:
204,296,69277,1,0,0:0:0:0:
364,172,69427,1,2,0:0:0:0:
304,349,69577,2,0,P|284:304|300:257,1,100,2|8,2:0|0:0,0:0:0:0:
512,78,70027,38,0,L|411:78,1,100,6|0,0:0|0:0,0:0:0:0:
233,78,70327,1,8,0:0:0:0:
374,239,70477,2,0,P|388:191|373:144,1,100,2|2,2:0|0:0,0:0:0:0:
233,78,70777,2,0,P|218:125|233:172,1,100,0|8,0:0|0:0,0:0:0:0:
427,293,71077,6,0,L|327:293,1,100,2|2,2:0|0:0,0:0:0:0:
143,314,71377,1,0,0:0:0:0:
331,212,71527,1,8,0:0:0:0:
181,172,71677,1,0,0:0:0:0:
369,70,71827,1,2,0:0:0:0:
219,30,71977,2,0,L|236:128,1,100,2|8,2:0|0:0,0:0:0:0:
293,354,72427,6,0,L|275:255,1,100,6|0,0:0|0:0,0:0:0:0:
219,30,72727,1,8,0:0:0:0:
111,222,72877,2,0,P|158:235|206:222,1,100,2|2,2:0|0:0,0:0:0:0:
401,162,73177,2,0,P|353:148|305:161,1,100,0|8,0:0|0:0,0:0:0:0:
293,354,73477,38,0,L|275:255,1,100,2|2,2:0|0:0,0:0:0:0:
219,30,73777,1,0,0:0:0:0:
353,225,73927,1,8,0:0:0:0:
159,159,74077,1,0,0:0:0:0:
401,162,74227,1,2,0:0:0:0:
279,277,74377,2,0,P|260:231|273:184,1,100,2|8,2:0|0:0,0:0:0:0:
490,31,74827,5,6,0:0:0:0:
390,185,74977,1,8,2:0:0:0:
344,204,75052,1,8,2:0:0:0:
296,193,75127,1,8,0:0:0:0:
248,182,75202,1,8,2:0:0:0:
202,198,75277,1,8,2:0:0:0:
164,349,75427,1,2,0:0:0:0:
336,312,75577,1,0,0:0:0:0:
103,302,75727,1,8,0:0:0:0:
383,249,75877,1,0,0:0:0:0:
48,248,76027,5,6,0:0:0:0:
422,183,76177,1,8,0:0:0:0:
261,381,76327,2,0,L|235:281,1,100,8|0,0:0|0:0,0:0:0:0:
136,101,76627,1,8,2:0:0:0:
120,56,76702,1,8,2:0:0:0:
157,28,76777,1,8,2:0:0:0:
196,55,76852,1,8,2:0:0:0:
182,100,76927,2,0,L|207:196,1,100,8|0,0:0|0:0,0:0:0:0:
261,381,77227,37,6,0:0:0:0:
136,235,77377,1,2,0:0:0:0:
317,249,77527,1,8,0:0:0:0:
87,327,77677,1,0,0:0:0:0:
198,107,77827,1,8,0:0:0:0:
340,335,77977,1,8,0:0:0:0:
37,246,78127,1,8,0:0:0:0:
240,45,78277,1,4,0:0:0:0:
230,250,78427,38,0,P|175:270|119:253,1,120,2|0,2:0|0:0,0:0:0:0:
125,218,78727,6,0,P|174:232|222:213,1,104.999996795654,2|0,2:0|0:0,0:0:0:0:
214,178,79027,54,0,P|172:192|129:179,1,89.9999972534181,2|0,2:0|0:0,0:0:0:0:
172,118,79327,5,8,2:0:0:0:
172,93,79402,1,8,2:0:0:0:
172,68,79477,1,8,2:0:0:0:
172,43,79552,1,8,2:0:0:0:
172,18,79627,1,4,0:0:0:0:
256,192,79702,12,2,84427,0:0:0:0:
179,330,89227,5,4,0:0:0:0:
301,217,89377,1,2,0:0:0:0:
117,115,89527,1,8,0:0:0:0:
230,237,89677,1,2,0:0:0:0:
332,53,89827,1,2,0:0:0:0:
210,166,89977,1,2,0:0:0:0:
394,268,90127,1,8,0:0:0:0:
281,146,90277,1,2,0:0:0:0:
135,384,90427,5,2,0:0:0:0:
327,306,90577,1,2,0:0:0:0:
97,244,90727,1,8,0:0:0:0:
262,335,90877,1,2,0:0:0:0:
74,346,91027,1,2,0:0:0:0:
269,263,91177,1,2,0:0:0:0:
0,272,91327,1,8,0:0:0:0:
327,306,91477,1,2,0:0:0:0:
140,36,91627,5,2,0:0:0:0:
97,244,91777,1,2,0:0:0:0:
300,176,91927,1,8,0:0:0:0:
120,140,92077,1,2,0:0:0:0:
280,280,92227,1,2,0:0:0:0:
323,72,92377,1,2,0:0:0:0:
120,140,92527,1,8,0:0:0:0:
300,176,92677,1,2,0:0:0:0:
113,40,92827,6,0,L|121:156,1,100,8|8,0:0|0:0,0:0:0:0:
139,331,93127,6,0,L|128:211,1,119.999996337891,8|0,0:0|0:0,0:0:0:0:
35,6,93427,54,0,L|46:145,1,139.999995727539,8|8,0:0|0:0,0:0:0:0:
69,381,93727,6,0,L|55:221,1,160,8|0,0:0|0:0,0:0:0:0:
113,40,94027,5,2,0:0:0:0:
246,157,94177,1,2,0:0:0:0:
55,221,94327,1,8,0:0:0:0:
275,277,94477,1,2,0:0:0:0:
132,138,94627,1,2,0:0:0:0:
341,101,94777,1,2,0:0:0:0:
113,40,94927,1,8,0:0:0:0:
247,167,95077,1,2,0:0:0:0:
69,231,95227,5,2,0:0:0:0:
319,262,95377,1,2,0:0:0:0:
314,10,95527,1,8,0:0:0:0:
162,211,95677,1,2,0:0:0:0:
384,332,95827,1,2,0:0:0:0:
285,101,95977,1,2,0:0:0:0:
69,231,96127,1,8,0:0:0:0:
319,262,96277,1,2,0:0:0:0:
216,64,96427,5,2,0:0:0:0:
292,328,96577,1,2,0:0:0:0:
136,129,96727,1,8,0:0:0:0:
376,255,96877,1,2,0:0:0:0:
92,222,97027,1,2,0:0:0:0:
420,162,97177,1,2,0:0:0:0:
94,325,97327,1,8,0:0:0:0:
418,59,97477,1,2,0:0:0:0:
282,251,97627,6,0,P|329:267|375:254,1,100,8|8,0:0|0:0,0:0:0:0:
220,192,97927,6,0,L|249:336,1,119.999996337891,8|0,0:0|0:0,0:0:0:0:
122,151,98227,54,0,P|188:166|241:124,1,139.999995727539,8|0,0:0|0:0,0:0:0:0:
83,88,98527,21,8,2:0:0:0:
85,129,98602,1,8,2:0:0:0:
87,170,98677,1,8,2:0:0:0:
90,211,98752,1,8,2:0:0:0:
95,263,98827,53,4,0:0:0:0:
243,309,98977,1,8,0:0:0:0:
68,356,99127,1,8,0:0:0:0:
311,351,99277,2,0,P|322:313|312:274,1,80,4|8,0:0|0:0,0:0:0:0:
83,88,99727,54,0,L|141:87,1,50,2|2,2:0|2:0,0:0:0:0:
310,0,100027,21,8,2:0:0:0:
314,27,100102,1,8,2:0:0:0:
309,54,100177,1,8,2:0:0:0:
295,79,100252,1,8,2:0:0:0:
246,95,100327,5,8,2:0:0:0:
241,122,100402,1,8,2:0:0:0:
246,149,100477,1,8,2:0:0:0:
260,174,100552,1,8,2:0:0:0:
310,190,100627,5,8,2:0:0:0:
315,217,100702,1,8,2:0:0:0:
310,244,100777,1,8,2:0:0:0:
296,269,100852,1,8,2:0:0:0:
246,285,100927,37,8,2:0:0:0:
241,312,101002,1,8,2:0:0:0:
246,339,101077,1,8,2:0:0:0:
260,364,101152,1,8,2:0:0:0:
310,380,101227,53,4,0:0:0:0:
471,346,101377,1,8,0:0:0:0:
246,285,101527,1,8,0:0:0:0:
480,240,101677,2,0,P|484:201|470:164,1,80,4|8,0:0|0:0,0:0:0:0:
254,42,102127,54,0,L|312:75,1,50,2|2,2:0|2:0,0:0:0:0:
469,163,102427,21,8,2:0:0:0:
451,184,102502,1,8,2:0:0:0:
426,196,102577,1,8,2:0:0:0:
398,198,102652,1,8,2:0:0:0:
356,168,102727,5,8,2:0:0:0:
338,146,102802,1,8,2:0:0:0:
313,134,102877,1,8,2:0:0:0:
285,132,102952,1,8,2:0:0:0:
243,163,103027,5,8,2:0:0:0:
225,185,103102,1,8,2:0:0:0:
200,197,103177,1,8,2:0:0:0:
172,199,103252,1,8,2:0:0:0:
130,168,103327,37,8,2:0:0:0:
112,146,103402,1,8,2:0:0:0:
87,134,103477,1,8,2:0:0:0:
59,132,103552,1,8,2:0:0:0:
17,163,103627,53,4,0:0:0:0:
104,303,103777,1,8,0:0:0:0:
180,106,103927,1,8,0:0:0:0:
140,368,104077,2,0,P|103:379|65:369,1,80,4|8,0:0|0:0,0:0:0:0:
99,135,104377,1,8,0:0:0:0:
256,278,104527,5,8,2:0:0:0:
295,281,104602,1,8,2:0:0:0:
333,269,104677,1,8,2:0:0:0:
363,243,104752,1,8,2:0:0:0:
380,207,104827,2,0,L|391:286,1,80,4|0,0:0|0:0,0:0:0:0:
280,170,105127,2,0,L|268:90,1,80,8|0,0:0|0:0,0:0:0:0:
81,78,105427,5,8,2:0:0:0:
78,117,105502,1,8,2:0:0:0:
90,155,105577,1,8,2:0:0:0:
116,185,105652,1,8,2:0:0:0:
152,202,105727,2,0,L|73:213,1,80,2|0,2:0|0:0,0:0:0:0:
189,102,106027,38,0,L|288:87,1,100,4|0,0:0|0:0,0:0:0:0:
222,170,106327,54,0,L|301:159,1,80,4|0,0:0|0:0,0:0:0:0:
255,238,106627,6,0,L|314:230,1,59.9999981689454,4|0,0:0|0:0,0:0:0:0:
288,306,106927,54,0,L|344:299,1,40,4|0,0:0|0:0,0:0:0:0:
321,374,107227,6,0,L|346:372,1,20,4|0,0:0|0:0,0:0:0:0:
413,173,107827,53,8,2:0:0:0:
417,188,107902,1,8,2:0:0:0:
427,200,107977,1,8,2:0:0:0:
441,209,108052,1,8,2:0:0:0:
456,212,108127,1,8,2:0:0:0:
472,209,108202,1,8,2:0:0:0:
486,202,108277,1,8,2:0:0:0:
496,190,108352,1,8,2:0:0:0:
512,140,108427,5,12,0:0:0:0:
286,96,108577,2,0,L|293:176,1,80,2|0,2:0|0:0,0:0:0:0:
441,123,108877,53,8,0:0:0:0:
211,82,109027,2,0,L|218:162,1,80,2|0,2:0|0:0,0:0:0:0:
366,109,109327,5,8,0:0:0:0:
131,69,109477,2,0,L|138:149,1,80,2|0,2:0|0:0,0:0:0:0:
286,96,109777,53,8,0:0:0:0:
50,59,109927,2,0,L|57:139,1,80,2|0,2:0|0:0,0:0:0:0:
31,301,110227,21,8,2:0:0:0:
33,343,110302,1,8,2:0:0:0:
72,362,110377,1,8,2:0:0:0:
106,337,110452,1,8,2:0:0:0:
102,294,110527,1,8,0:0:0:0:
64,146,110677,1,10,2:0:0:0:
64,146,110752,1,8,2:0:0:0:
64,146,110827,53,12,0:0:0:0:
106,337,110977,2,0,L|86:245,1,80,2|0,2:0|0:0,0:0:0:0:
141,106,111277,53,8,0:0:0:0:
183,297,111427,2,0,L|162:204,1,80,2|0,2:0|0:0,0:0:0:0:
218,67,111727,5,8,0:0:0:0:
260,258,111877,2,0,L|240:166,1,80,2|0,2:0|0:0,0:0:0:0:
295,27,112177,53,8,0:0:0:0:
337,218,112327,2,0,L|316:125,1,80,2|0,2:0|0:0,0:0:0:0:
418,265,112627,21,8,2:0:0:0:
386,296,112702,1,8,2:0:0:0:
343,309,112777,1,8,2:0:0:0:
300,302,112852,1,8,2:0:0:0:
264,274,112927,1,8,0:0:0:0:
317,67,113077,1,10,2:0:0:0:
317,67,113152,1,8,2:0:0:0:
317,67,113227,53,12,0:0:0:0:
326,210,113377,2,0,P|340:239|349:209,1,80,2|0,2:0|0:0,0:0:0:0:
215,56,113677,53,8,0:0:0:0:
224,199,113827,2,0,P|237:227|246:197,1,80,2|0,2:0|0:0,0:0:0:0:
114,44,114127,5,8,0:0:0:0:
122,187,114277,2,0,P|135:215|144:185,1,80,2|0,2:0|0:0,0:0:0:0:
11,33,114577,53,8,0:0:0:0:
20,176,114727,2,0,P|33:204|42:174,1,80,2|0,2:0|0:0,0:0:0:0:
34,301,115027,21,8,0:2:0:0:
78,296,115102,1,8,0:2:0:0:
115,271,115177,1,8,0:2:0:0:
136,232,115252,1,8,0:2:0:0:
137,187,115327,1,8,0:0:0:0:
18,41,115477,1,10,2:0:0:0:
18,41,115552,1,8,2:0:0:0:
18,41,115627,53,12,0:0:0:0:
161,92,115777,2,0,L|82:105,1,80,2|0,2:0|0:0,0:0:0:0:
205,244,116077,53,8,0:0:0:0:
348,193,116227,2,0,L|269:179,1,80,2|0,2:0|0:0,0:0:0:0:
369,23,116527,5,8,0:0:0:0:
512,74,116677,2,0,L|433:87,1,80,2|0,2:0|0:0,0:0:0:0:
188,116,116977,53,8,0:0:0:0:
316,260,117127,1,8,0:0:0:0:
369,23,117277,1,8,0:0:0:0:
492,320,117427,5,12,0:0:0:0:
492,320,118027,6,0,B|412:376|408:268|304:337,1,179.999994506836,4|0,0:0|0:0,0:0:0:0:
368,384,118327,5,8,0:0:0:0:
447,263,118477,2,0,P|458:215|441:169,1,100,2|2,2:0|0:0,0:0:0:0:
296,217,118777,2,0,B|381:217|381:217|370:206,1,100,0|8,0:0|0:0,0:0:0:0:
216,167,119077,2,0,B|131:167|131:167|141:177,1,100,2|2,2:0|0:0,0:0:0:0:
327,291,119377,5,2,2:0:0:0:
255,98,119527,1,8,0:0:0:0:
170,246,119677,1,0,0:0:0:0:
428,163,119827,1,2,0:0:0:0:
255,98,119977,2,0,P|242:145|260:192,1,100,2|8,2:0|0:0,0:0:0:0:
512,384,120427,38,0,L|412:384,1,100,6|0,0:0|0:0,0:0:0:0:
262,329,120727,1,8,0:0:0:0:
430,273,120877,2,0,L|330:273,1,100,2|2,2:0|0:0,0:0:0:0:
180,218,121177,1,0,0:0:0:0:
347,158,121327,2,0,L|247:158,1,100,8|0,0:0|0:0,0:0:0:0:
97,103,121627,1,2,0:0:0:0:
256,299,121777,5,2,2:0:0:0:
0,245,121927,1,8,0:0:0:0:
97,103,122077,1,0,0:0:0:0:
133,366,122227,1,2,0:0:0:0:
0,245,122377,2,0,P|45:226|92:239,1,100,2|8,2:0|0:0,0:0:0:0:
427,305,122827,6,0,P|438:258|418:206,1,100,6|0,0:0|0:0,0:0:0:0:
256,100,123127,1,8,0:0:0:0:
320,269,123277,2,0,P|360:272|335:242,1,100,2|2,2:0|0:0,0:0:0:0:
154,279,123577,2,0,P|107:294|60:280,1,100,0|8,0:0|0:0,0:0:0:0:
293,186,123877,2,0,P|339:171|386:185,1,100,2|2,2:0|0:0,0:0:0:0:
495,338,124177,37,2,2:0:0:0:
451,111,124327,1,8,0:0:0:0:
342,246,124477,1,0,0:0:0:0:
298,19,124627,1,2,0:0:0:0:
408,177,124777,2,0,P|455:190|500:172,1,100,2|8,2:0|0:0,0:0:0:0:
189,96,125227,5,6,0:0:0:0:
336,244,125377,1,8,2:0:0:0:
336,244,125452,1,8,2:0:0:0:
336,244,125527,1,8,0:0:0:0:
85,192,125677,1,0,0:0:0:0:
407,131,125827,1,2,0:0:0:0:
262,347,125977,1,8,2:0:0:0:
262,347,126052,1,8,2:0:0:0:
262,347,126127,1,8,0:0:0:0:
256,38,126277,1,0,0:0:0:0:
80,272,126427,38,0,P|138:277|191:249,1,119.999996337891,4|0,0:0|0:0,0:0:0:0:
432,112,126727,2,0,P|373:106|320:134,1,119.999996337891,12|0,0:0|0:0,0:0:0:0:
84,289,127027,2,0,P|142:294|195:266,1,119.999996337891,4|0,0:0|0:0,0:0:0:0:
428,95,127327,2,0,P|369:89|316:117,1,119.999996337891,12|0,0:0|0:0,0:0:0:0:
256,384,127627,6,0,B|297:298|215:299|256:211,1,179.999994506836,4|0,0:0|0:0,0:0:0:0:
320,257,127927,1,8,0:0:0:0:
194,339,128077,2,0,P|147:355|101:338,1,100,2|2,2:0|0:0,0:0:0:0:
320,257,128377,2,0,P|367:241|413:258,1,100,0|8,0:0|0:0,0:0:0:0:
293,377,128677,6,0,L|248:286,1,100,2|2,2:0|0:0,0:0:0:0:
148,119,128977,1,0,0:0:0:0:
320,257,129127,1,8,0:0:0:0:
157,233,129277,1,0,0:0:0:0:
375,162,129427,1,2,0:0:0:0:
263,305,129577,2,0,P|243:260|259:213,1,100,2|8,2:0|0:0,0:0:0:0:
485,24,130027,6,0,P|505:69|489:116,1,100,6|0,0:0|0:0,0:0:0:0:
330,229,130327,1,8,0:0:0:0:
338,77,130477,2,0,P|384:61|433:71,1,100,2|2,2:0|0:0,0:0:0:0:
330,229,130777,2,0,P|283:244|234:234,1,100,0|8,0:0|0:0,0:0:0:0:
56,117,131077,38,0,L|73:215,1,100,2|2,2:0|0:0,0:0:0:0:
108,384,131377,1,0,0:0:0:0:
152,167,131527,1,8,0:0:0:0:
123,309,131677,1,0,0:0:0:0:
79,92,131827,1,2,0:0:0:0:
140,240,131977,2,0,P|188:233|220:196,1,100,2|8,2:0|0:0,0:0:0:0:
506,18,132427,6,0,L|496:126,1,100,6|0,0:0|0:0,0:0:0:0:
480,276,132727,1,8,0:0:0:0:
312,180,132877,2,0,P|359:167|407:180,1,100,2|2,2:0|0:0,0:0:0:0:
470,375,133177,2,0,L|480:276,1,100,0|8,0:0|0:0,0:0:0:0:
322,80,133477,6,0,L|312:179,1,100,2|2,2:0|0:0,0:0:0:0:
227,334,133777,1,0,0:0:0:0:
438,284,133927,1,8,0:0:0:0:
299,316,134077,1,0,0:0:0:0:
510,267,134227,1,2,0:0:0:0:
367,305,134377,2,0,P|396:344|443:358,1,100,2|8,2:0|0:0,0:0:0:0:
166,142,134827,37,6,0:0:0:0:
346,242,134977,1,0,0:0:0:0:
97,273,135127,1,8,0:0:0:0:
179,49,135277,1,0,0:0:0:0:
297,304,135427,5,2,0:0:0:0:
161,214,135577,1,8,2:0:0:0:
130,175,135652,1,8,2:0:0:0:
123,126,135727,1,8,0:0:0:0:
140,80,135802,1,8,2:0:0:0:
179,48,135877,1,8,2:0:0:0:
388,96,136027,5,8,2:0:0:0:
348,104,136102,1,8,2:0:0:0:
309,112,136177,1,8,2:0:0:0:
270,120,136252,1,8,2:0:0:0:
231,129,136327,1,8,2:0:0:0:
92,192,136477,37,8,2:0:0:0:
132,200,136552,1,8,2:0:0:0:
171,208,136627,1,8,2:0:0:0:
210,216,136702,1,8,2:0:0:0:
249,225,136777,1,8,2:0:0:0:
388,288,136927,5,8,2:0:0:0:
348,296,137002,1,8,2:0:0:0:
309,304,137077,1,8,2:0:0:0:
270,312,137152,1,8,2:0:0:0:
231,321,137227,22,0,L|245:244,1,75,2|0,2:0|0:0,0:0:0:0:
264,152,137527,37,12,0:0:0:0:
306,327,137677,2,0,P|353:338|399:321,1,100,2|2,2:0|0:0,0:0:0:0:
484,140,137977,2,0,L|444:231,1,100,0|8,0:0|0:0,0:0:0:0:
352,46,138277,2,0,L|391:137,1,100,2|2,2:0|0:0,0:0:0:0:
496,312,138577,5,2,2:0:0:0:
311,199,138727,1,8,0:0:0:0:
484,140,138877,1,0,0:0:0:0:
299,27,139027,1,2,0:0:0:0:
375,242,139177,2,0,P|387:194|370:148,1,100,2|8,2:0|0:0,0:0:0:0:
20,51,139627,38,0,P|8:99|25:145,1,100,6|0,0:0|0:0,0:0:0:0:
152,239,139927,1,8,0:0:0:0:
281,49,140077,2,0,P|231:54|195:87,1,100,2|2,2:0|0:0,0:0:0:0:
152,239,140377,1,0,0:0:0:0:
382,256,140527,2,0,P|352:216|305:200,1,100,8|0,0:0|0:0,0:0:0:0:
152,239,140827,1,2,0:0:0:0:
381,180,140977,5,2,2:0:0:0:
256,309,141127,1,8,0:0:0:0:
212,126,141277,1,0,0:0:0:0:
382,256,141427,1,2,0:0:0:0:
303,363,141577,2,0,P|261:380|210:363,1,100,2|8,2:0|0:0,0:0:0:0:
256,21,142027,6,0,L|256:140,1,100,6|0,0:0|0:0,0:0:0:0:
256,309,142327,1,8,0:0:0:0:
99,187,142477,2,0,P|144:169|194:173,1,100,2|2,2:0|0:0,0:0:0:0:
412,187,142777,2,0,P|367:169|317:173,1,100,0|8,0:0|0:0,0:0:0:0:
256,363,143077,2,0,L|256:244,1,100,2|2,2:0|0:0,0:0:0:0:
147,107,143377,37,2,2:0:0:0:
345,82,143527,1,8,0:0:0:0:
116,83,143677,1,0,0:0:0:0:
369,51,143827,1,2,0:0:0:0:
267,207,143977,2,0,P|244:163|254:115,1,100,2|8,2:0|0:0,0:0:0:0:
460,321,144427,5,6,0:0:0:0:
221,347,144577,1,0,0:0:0:0:
476,295,144727,1,8,0:0:0:0:
197,330,144877,1,0,0:0:0:0:
492,270,145027,1,2,0:0:0:0:
174,315,145177,1,8,2:0:0:0:
174,315,145252,1,8,2:0:0:0:
174,315,145327,1,8,0:0:0:0:
507,240,145477,1,0,0:0:0:0:
283,22,145627,38,0,P|255:74|256:134,1,119.999996337891,4|0,0:0|0:0,0:0:0:0:
228,361,145927,2,0,P|256:309|256:250,1,119.999996337891,12|0,0:0|0:0,0:0:0:0:
42,165,146227,2,0,P|94:193|153:192,1,119.999996337891,4|0,0:0|0:0,0:0:0:0:
470,219,146527,2,0,P|417:190|358:191,1,119.999996337891,12|0,0:0|0:0,0:0:0:0:
256,375,146827,6,0,B|297:289|215:290|256:202,1,179.999994506836,4|0,0:0|0:0,0:0:0:0:
302,141,147127,5,8,0:0:0:0:
194,329,147277,2,0,B|110:335|110:335|140:313,1,100,2|2,2:0|0:0,0:0:0:0:
320,246,147577,2,0,B|404:240|404:240|374:262,1,100,0|8,0:0|0:0,0:0:0:0:
122,325,147877,6,0,P|108:273|122:230,1,100,2|2,2:0|0:0,0:0:0:0:
307,116,148177,1,0,0:0:0:0:
183,278,148327,1,8,0:0:0:0:
247,74,148477,1,0,0:0:0:0:
391,249,148627,1,2,0:0:0:0:
252,166,148777,2,0,P|232:121|248:74,1,100,2|8,2:0|0:0,0:0:0:0:
491,249,149227,38,0,L|390:249,1,100,6|0,0:0|0:0,0:0:0:0:
256,249,149527,1,8,0:0:0:0:
21,249,149677,2,0,L|122:249,1,100,2|2,2:0|0:0,0:0:0:0:
391,249,149977,2,0,P|405:202|390:155,1,100,0|8,0:0|0:0,0:0:0:0:
121,155,150277,6,0,P|106:202|121:249,1,100,2|2,2:0|0:0,0:0:0:0:
288,343,150577,1,0,0:0:0:0:
179,202,150727,1,8,0:0:0:0:
390,155,150877,1,0,0:0:0:0:
126,84,151027,1,2,0:0:0:0:
235,248,151177,2,0,P|251:201|234:155,1,100,2|8,2:0|0:0,0:0:0:0:
56,364,151627,6,0,L|155:354,1,100,6|0,0:0|0:0,0:0:0:0:
340,328,151927,1,8,0:0:0:0:
208,200,152077,2,0,P|195:247|208:295,1,100,2|2,2:0|0:0,0:0:0:0:
256,120,152377,2,0,P|208:106|160:119,1,100,0|8,0:0|0:0,0:0:0:0:
162,363,152677,38,0,P|210:377|258:364,1,100,2|2,2:0|0:0,0:0:0:0:
423,246,152977,1,0,0:0:0:0:
208,295,153127,1,8,0:0:0:0:
387,345,153277,1,0,0:0:0:0:
120,295,153427,1,2,0:0:0:0:
275,243,153577,2,0,P|294:289|281:336,1,100,2|8,2:0|0:0,0:0:0:0:
197,59,154027,5,6,0:0:0:0:
220,290,154177,1,8,2:0:0:0:
220,290,154252,1,8,2:0:0:0:
220,290,154327,1,8,0:0:0:0:
406,173,154477,1,0,0:0:0:0:
82,232,154627,1,2,0:0:0:0:
321,23,154777,1,8,2:0:0:0:
321,23,154852,1,8,2:0:0:0:
321,23,154927,1,8,0:0:0:0:
389,367,155077,1,0,0:0:0:0:
47,195,155227,5,8,0:0:0:0:
297,129,155377,1,8,0:0:0:0:
71,285,155527,2,0,P|44:243|47:194,1,100,8|0,0:0|0:0,0:0:0:0:
199,46,155827,1,8,2:0:0:0:
241,25,155902,1,8,2:0:0:0:
275,57,155977,1,8,2:0:0:0:
257,100,156052,1,8,2:0:0:0:
213,117,156127,2,0,L|113:117,1,100,8|0,0:0|0:0,0:0:0:0:
294,231,156427,37,6,0:0:0:0:
241,25,156577,1,2,0:0:0:0:
117,234,156727,1,8,0:0:0:0:
390,153,156877,1,0,0:0:0:0:
87,63,157027,1,8,0:0:0:0:
174,344,157177,1,8,0:0:0:0:
309,121,157327,1,8,0:0:0:0:
66,174,157477,1,8,0:0:0:0:
257,266,157627,38,0,P|313:283|368:263,1,120,2|0,2:0|0:0,0:0:0:0:
415,317,157927,6,0,L|416:212,1,104.999996795654,2|0,2:0|0:0,0:0:0:0:
460,156,158227,54,0,P|417:168|374:155,1,89.9999972534181,2|0,2:0|0:0,0:0:0:0:
300,118,158527,5,8,2:0:0:0:
300,143,158602,1,8,2:0:0:0:
300,168,158677,1,8,2:0:0:0:
300,193,158752,1,8,2:0:0:0:
300,218,158827,1,4,0:0:0:0:
256,192,158902,12,2,163627,0:0:0:0:
