osu file format v14

[General]
AudioFilename: audio.mp3
AudioLeadIn: 0
PreviewTime: 117502
Countdown: 0
SampleSet: Normal
StackLeniency: 0.7
Mode: 0
LetterboxInBreaks: 1
WidescreenStoryboard: 0

[Editor]
Bookmarks: 19612,29212,38812,48412,55612,56812,57412,67612,89212,98812,106012,107812,108412,146812,157612,158812
DistanceSpacing: 0.8
BeatDivisor: 4
GridSize: 32
TimelineZoom: 1

[Metadata]
Title:Mousou Kajitsu
TitleUnicode:妄想果実
Artist:Nanaki feat.GUMI
ArtistUnicode:七希 feat.GUMI
Creator:Natsu
Version:CRN's Extra
Source:
Tags:GUMI vocaloid Tomisaka hardcore Fancies Fruit diva megpoid gaia caren_sk crn doyak SnowNiNo_ Mazziv
BeatmapID:1160967
BeatmapSetID:524966

[Difficulty]
HPDrainRate:7
CircleSize:4
OverallDifficulty:8
ApproachRate:9.3
SliderMultiplier:1.9
SliderTickRate:1

[Events]
//Background and Video events
0,0,"EXyGpu1.jpg",0,0
//Break Periods
2,84627,88612
2,108427,116962
//Storyboard Layer 0 (Background)
//Storyboard Layer 1 (Fail)
//Storyboard Layer 2 (Pass)
//Storyboard Layer 3 (Foreground)
//Storyboard Sound Samples

[TimingPoints]
427,300,4,1,0,45,1,0
1027,-133.333333333333,4,1,0,45,0,0
4027,-117.647058823529,4,1,0,45,0,0
7327,-100,4,1,0,45,0,0
7627,-100,4,1,0,15,0,0
10027,-100,4,1,0,60,0,0
37627,-100,4,1,0,16,0,0
38827,-100,4,1,0,60,0,0
51727,-117.647058823529,4,1,0,60,0,0
58027,-80,4,1,0,70,0,1
78427,-100,4,1,0,60,0,0
79027,-80,4,1,0,60,0,0
84427,-100,4,1,0,60,0,0
117577,-100,4,1,0,20,0,0
118027,-80,4,1,0,70,0,1
127627,-80,4,1,0,70,0,1
137227,-80,4,1,0,15,0,0
137527,-74.0740740740741,4,1,0,75,0,1
157627,-80,4,1,0,60,0,0

[Colours]
Combo1 : 255,13,13
Combo2 : 177,255,34
Combo3 : 255,74,165
Combo4 : 0,165,244
Combo5 : 224,224,224
SliderBorder : 0,165,244
SliderTrackOverride : 30,30,30

[HitObjects]
120,173,427,6,0,P|66:165|30:146,2,95,4|0|0,0:0|0:0|0:0,0:0:0:0:
256,192,877,1,0,0:0:0:0:
119,175,1027,2,0,P|106:248|116:317,1,142.500005435944,4|0,0:0|0:0,0:0:0:0:
115,315,1477,1,0,0:0:0:0:
256,288,1627,2,0,L|339:301,1,71.2500027179719
326,299,1852,1,0,0:0:0:0:
326,299,1927,1,4,0:0:0:0:
464,229,2077,5,0,0:0:0:0:
327,299,2227,2,0,P|314:226|324:157,1,142.500005435944
351,35,2677,1,0,0:0:0:0:
231,123,2827,1,4,0:0:0:0:
464,229,2977,1,4,0:0:0:0:
495,27,3277,5,0,0:0:0:0:
373,137,3427,2,0,L|224:123,1,142.500005435944,4|0,0:0|0:0,0:0:0:0:
115,18,3877,1,0,0:0:0:0:
115,18,4027,2,0,L|102:113,1,80.750001540184
15,286,4327,2,0,L|2:191,1,80.750001540184
192,192,4627,5,0,0:0:0:0:
189,207,4702,1,0,0:0:0:0:
187,223,4777,1,0,0:0:0:0:
186,240,4852,1,0,0:0:0:0:
183,255,4927,1,0,0:0:0:0:
180,271,5002,1,0,0:0:0:0:
178,287,5077,1,0,0:0:0:0:
176,302,5152,1,0,0:0:0:0:
173,322,5227,6,0,P|255:341|331:323,1,161.500003080368,4|0,0:0|0:0,0:0:0:0:
412,212,5677,1,0,0:0:0:0:
329,323,5827,2,0,L|317:232,2,80.750001540184
192,192,6277,1,0,0:0:0:0:
100,244,6427,2,0,L|18:233,1,80.750001540184
202,112,6727,1,4,0:0:0:0:
202,112,6802,1,0,0:0:0:0:
202,112,6877,2,0,L|191:194,1,80.750001540184
262,12,7177,1,0,0:0:0:0:
314,120,7327,2,0,L|474:113,1,142.5
510,105,7627,6,0,P|517:157|511:204,1,95
424,25,7927,1,0,0:0:0:0:
313,120,8077,1,0,0:0:0:0:
313,120,8227,2,0,P|308:167|315:214,1,95
136,228,8527,2,0,L|35:235,1,95
208,146,8827,1,0,0:0:0:0:
267,286,8977,1,0,0:0:0:0:
417,187,9127,2,0,L|518:180,1,95
338,136,9427,2,0,P|332:227|406:281,1,190
406,281,10027,6,0,L|418:169,1,95,6|0,0:0|0:0,0:0:0:0:
309,354,10327,1,8,0:0:0:0:
195,255,10477,2,0,L|-13:267,1,190
91,25,10927,1,10,0:0:0:0:
105,195,11077,1,0,0:0:0:0:
393,114,11227,5,0,0:0:0:0:
407,284,11377,1,0,0:0:0:0:
512,194,11527,2,0,L|413:201,1,95,10|0,0:0|0:0,0:0:0:0:
195,175,11827,1,0,0:0:0:0:
407,284,11977,1,0,0:0:0:0:
186,332,12127,1,10,0:0:0:0:
417,200,12277,1,0,0:0:0:0:
398,365,12427,6,0,L|294:359,1,95,6|0,0:0|0:0,0:0:0:0:
40,223,12727,2,0,P|34:271|42:323,1,95,8|0,0:0|0:0,0:0:0:0:
198,30,13027,2,0,P|204:78|196:130,1,95,2|0,0:0|0:0,0:0:0:0:
195,175,13252,1,0,0:0:0:0:
195,175,13327,2,0,L|296:165,1,95,8|0,0:0|0:0,0:0:0:0:
491,116,13627,6,0,P|497:164|489:216,1,95,2|0,0:0|0:0,0:0:0:0:
381,29,13927,1,8,0:0:0:0:
259,254,14077,1,0,0:0:0:0:
136,106,14227,1,2,0:0:0:0:
39,225,14377,2,0,L|35:121,1,95,0|8,0:0|0:0,0:0:0:0:
376,106,14677,1,2,0:0:0:0:
473,225,14827,6,4,L|477:121,1,95,6|4,0:0|0:0,0:0:0:0:
473,225,15127,2,0,P|425:236|366:226,1,95,8|0,0:0|0:0,0:0:0:0:
136,106,15427,1,2,0:0:0:0:
39,225,15577,2,0,L|35:121,1,95,0|8,0:0|0:0,0:0:0:0:
98,338,15877,1,0,0:0:0:0:
217,274,16027,6,0,L|221:378,1,95,6|0,0:0|0:0,0:0:0:0:
346,176,16327,1,8,0:0:0:0:
469,319,16477,2,0,L|473:215,1,95,0|2,0:0|0:0,0:0:0:0:
367,365,16777,1,0,0:0:0:0:
218,274,16927,1,10,0:0:0:0:
472,224,17077,1,0,0:0:0:0:
367,365,17227,6,0,P|356:311|360:265,1,95,6|0,0:0|0:0,0:0:0:0:
160,304,17527,1,8,0:0:0:0:
260,25,17677,2,0,P|271:79|267:125,1,95,0|6,0:0|0:0,0:0:0:0:
161,21,17977,1,0,0:0:0:0:
119,173,18127,2,0,L|18:165,1,95,8|0,0:0|0:0,0:0:0:0:
349,207,18427,5,6,0:0:0:0:
203,369,18577,1,4,0:0:0:0:
121,174,18727,2,0,P|191:165|271:187,1,142.5,14|0,0:0|0:0,0:0:0:0:
303,200,19027,1,2,0:0:0:0:
349,207,19102,1,0,0:0:0:0:
396,203,19177,1,0,0:0:0:0:
437,180,19252,1,0,0:0:0:0:
468,144,19327,2,0,L|472:302,1,142.5,2|0,0:0|0:0,0:0:0:0:
472,334,19627,6,0,L|368:321,1,95,6|0,0:0|0:0,0:0:0:0:
145,247,19927,1,8,0:0:0:0:
42,346,20077,2,0,L|30:250,1,95,0|2,0:0|0:0,0:0:0:0:
248,351,20377,1,0,0:0:0:0:
304,199,20527,2,0,L|316:295,1,95,10|0,0:0|0:0,0:0:0:0:
42,346,20827,6,0,L|30:250,1,95,2|0,0:0|0:0,0:0:0:0:
292,106,21127,2,0,L|304:202,1,95,8|0,0:0|0:0,0:0:0:0:
30,251,21427,2,0,L|18:155,1,95,2|0,0:0|0:0,0:0:0:0:
281,12,21727,2,0,L|293:108,1,95,8|0,0:0|0:0,0:0:0:0:
311,281,22027,6,0,P|364:280|404:269,1,95,6|0,0:0|0:0,0:0:0:0:
512,183,22327,1,8,0:0:0:0:
250,341,22477,2,0,P|237:289|237:248,1,95,0|2,0:0|0:0,0:0:0:0:
325,357,22777,1,0,0:0:0:0:
167,193,22927,2,0,P|154:244|154:285,1,95,10|0,0:0|0:0,0:0:0:0:
388,309,23227,6,0,P|400:257|400:216,1,95,2|0,0:0|0:0,0:0:0:0:
67,140,23527,2,0,P|54:191|54:232,1,95,8|0,0:0|0:0,0:0:0:0:
465,316,23827,2,0,P|477:264|477:223,1,95,2|0,0:0|0:0,0:0:0:0:
79,47,24127,2,0,P|66:98|66:139,1,95,8|0,0:0|0:0,0:0:0:0:
0,269,24427,6,0,L|197:255,1,190,6|8,0:0|0:0,0:0:0:0:
187,255,24877,1,0,0:0:0:0:
353,349,25027,2,0,P|365:297|365:256,1,95,2|0,0:0|0:0,0:0:0:0:
276,372,25327,1,8,0:0:0:0:
465,316,25477,1,0,0:0:0:0:
200,349,25627,6,0,P|187:297|187:256,1,95,2|0,0:0|0:0,0:0:0:0:
132,384,25927,1,8,0:0:0:0:
61,153,26077,1,0,0:0:0:0:
8,319,26227,2,0,L|117:306,1,95,2|0,0:0|0:0,0:0:0:0:
320,136,26527,2,0,L|211:149,1,95,10|0,0:0|0:0,0:0:0:0:
82,56,26827,6,0,P|61:145|84:248,1,190,6|8,0:0|0:0,0:0:0:0:
227,148,27277,1,2,0:0:0:0:
327,325,27427,1,0,0:0:0:0:
418,248,27577,2,0,L|524:243,1,95,2|12,0:0|0:0,0:0:0:0:
320,136,27877,1,0,0:0:0:0:
236,333,28027,5,14,0:0:0:0:
58,236,28177,1,0,0:0:0:0:
236,333,28327,2,0,P|252:255|237:181,1,142.5,14|0,0:0|0:0,0:0:0:0:
227,148,28627,1,2,0:0:0:0:
184,117,28702,1,0,0:0:0:0:
132,108,28777,1,0,0:0:0:0:
82,125,28852,1,0,0:0:0:0:
43,160,28927,2,0,L|31:14,1,142.5,2|0,0:0|0:0,0:0:0:0:
123,13,29227,6,0,L|133:126,1,95,4|0,0:0|0:0,0:0:0:0:
93,300,29527,2,0,L|206:290,1,95,8|0,0:0|0:0,0:0:0:0:
370,221,29827,1,0,0:0:0:0:
474,319,29977,2,0,L|464:206,1,95,0|8,0:0|0:0,0:0:0:0:
310,376,30277,1,0,0:0:0:0:
298,230,30427,5,0,0:0:0:0:
474,320,30577,1,0,0:0:0:0:
311,375,30727,2,0,L|301:262,1,95,8|0,0:0|0:0,0:0:0:0:
474,320,31027,1,0,0:0:0:0:
160,192,31177,2,0,L|170:305,1,95,0|8,0:0|0:0,0:0:0:0:
152,72,31477,1,0,0:0:0:0:
160,192,31627,6,0,P|105:198|59:191,1,95
320,69,31927,2,0,P|375:63|421:70,1,95,8|0,0:0|0:0,0:0:0:0:
160,192,32227,5,0,0:0:0:0:
320,69,32377,1,0,0:0:0:0:
160,192,32527,1,8,0:0:0:0:
358,286,32677,1,0,0:0:0:0:
160,192,32827,6,0,P|153:240|154:294,1,95
352,192,33127,2,0,P|359:240|358:294,1,95,8|0,0:0|0:0,0:0:0:0:
120,103,33427,2,0,P|72:108|9:132,1,95
392,103,33727,2,0,P|440:108|503:132,1,95,8|0,0:0|0:0,0:0:0:0:
256,352,34027,6,0,L|256:256,1,95
256,64,34327,1,8,0:0:0:0:
64,208,34477,2,0,P|57:160|58:106,1,95
256,256,34777,1,0,0:0:0:0:
448,176,34927,2,0,P|455:224|454:278,1,95,8|0,0:0|0:0,0:0:0:0:
281,137,35227,6,0,L|392:127,1,95
231,247,35527,2,0,L|120:257,1,95,8|0,0:0|0:0,0:0:0:0:
439,81,35827,2,0,L|449:192,1,95
73,303,36127,2,0,L|63:192,1,95,8|0,0:0|0:0,0:0:0:0:
61,82,36427,5,0,0:0:0:0:
231,248,36577,2,0,L|342:238,1,95,0|8,0:0|0:0,0:0:0:0:
473,172,36877,1,0,0:0:0:0:
325,239,37027,2,0,P|312:187|317:137,1,95
463,80,37327,2,0,P|476:132|471:182,1,95,8|0,0:0|0:0,0:0:0:0:
478,294,37627,6,0,L|367:304,1,95
249,368,37927,2,0,L|259:257,1,95
161,185,38227,2,0,L|50:195,1,95
256,0,38527,2,0,P|272:59|249:154,1,142.5
256,192,38827,6,0,L|367:182,1,95,4|0,0:0|0:0,0:0:0:0:
464,80,39127,1,12,0:0:0:0:
256,192,39277,2,0,L|145:182,1,95
48,80,39577,1,0,0:0:0:0:
17,257,39727,2,0,L|7:146,1,95,8|0,0:0|0:0,0:0:0:0:
332,81,40027,6,0,L|342:192,1,95,0|0,0:0|0:0,0:0:0:0:
91,290,40327,2,0,L|81:179,1,95,8|0,0:0|0:0,0:0:0:0:
395,31,40627,2,0,L|405:142,1,95
17,257,40927,2,0,L|7:146,1,95,8|0,0:0|0:0,0:0:0:0:
332,81,41227,6,0,L|342:192,1,95
360,309,41527,1,8,0:0:0:0:
341,175,41677,2,0,P|382:166|437:177,1,95
251,258,41977,1,0,0:0:0:0:
9,162,42127,2,0,L|19:273,1,95,8|0,0:0|0:0,0:0:0:0:
61,63,42427,5,0,0:0:0:0:
249,176,42577,1,0,0:0:0:0:
151,289,42727,2,0,L|141:178,1,95,8|0,0:0|0:0,0:0:0:0:
431,154,43027,1,0,0:0:0:0:
273,332,43177,1,0,0:0:0:0:
415,366,43327,2,0,L|425:255,1,95,8|0,0:0|0:0,0:0:0:0:
346,46,43627,6,0,L|336:157,1,95
68,159,43927,2,0,L|58:48,1,95,8|0,0:0|0:0,0:0:0:0:
256,224,44227,1,0,0:0:0:0:
166,46,44377,2,0,L|176:157,1,95,0|8,0:0|0:0,0:0:0:0:
346,46,44677,1,0,0:0:0:0:
444,159,44827,6,0,L|454:48,1,95
67,159,45127,2,0,L|57:270,1,95,8|0,0:0|0:0,0:0:0:0:
422,371,45427,2,0,L|432:260,1,95
76,65,45727,2,0,L|66:176,1,95,8|0,0:0|0:0,0:0:0:0:
0,311,46027,6,0,P|41:321|93:312,1,95
322,230,46327,1,8,0:0:0:0:
422,371,46477,2,0,L|432:260,1,95
302,367,46777,1,0,0:0:0:0:
149,137,46927,2,0,L|139:248,1,95,8|0,0:0|0:0,0:0:0:0:
298,24,47227,6,0,L|308:135,1,95
46,26,47527,2,0,L|36:137,1,95,8|0,0:0|0:0,0:0:0:0:
448,22,47827,2,0,L|458:133,1,95
157,31,48127,1,8,0:0:0:0:
156,49,48202,1,0,0:0:0:0:
156,67,48277,1,0,0:0:0:0:
155,85,48352,1,0,0:0:0:0:
154,103,48427,6,0,P|91:142|17:136,1,142.5,4|0,0:0|0:0,0:0:0:0:
24,138,48727,2,0,L|27:247,1,95,0|0,0:0|0:0,0:0:0:0:
32,352,49027,1,4,0:0:0:0:
256,96,49327,1,0,0:0:0:0:
480,352,49627,5,0,0:0:0:0:
449,364,49702,1,0,0:0:0:0:
416,374,49777,1,0,0:0:0:0:
383,368,49852,1,0,0:0:0:0:
352,352,49927,1,0,0:0:0:0:
332,325,50002,1,0,0:0:0:0:
317,294,50077,1,0,0:0:0:0:
289,264,50152,1,0,0:0:0:0:
256,256,50227,1,0,0:0:0:0:
223,264,50302,1,0,0:0:0:0:
195,294,50377,1,0,0:0:0:0:
180,325,50452,1,0,0:0:0:0:
160,352,50527,1,0,0:0:0:0:
129,368,50602,1,0,0:0:0:0:
96,374,50677,1,0,0:0:0:0:
63,364,50752,1,0,0:0:0:0:
32,352,50827,5,4,0:0:0:0:
32,352,50977,1,4,0:0:0:0:
480,352,51277,1,4,0:0:0:0:
480,352,51427,1,4,0:0:0:0:
257,377,51727,2,0,L|256:250,1,121.125002310276
256,207,52027,5,0,0:0:0:0:
220,200,52102,1,0,0:0:0:0:
190,181,52177,1,0,0:0:0:0:
169,150,52252,1,0,0:0:0:0:
162,114,52327,1,0,0:0:0:0:
169,78,52402,1,0,0:0:0:0:
188,48,52477,1,0,0:0:0:0:
219,29,52552,1,0,0:0:0:0:
255,20,52627,1,0,0:0:0:0:
289,27,52702,1,0,0:0:0:0:
320,47,52777,1,0,0:0:0:0:
341,77,52852,1,0,0:0:0:0:
349,113,52927,1,0,0:0:0:0:
341,149,53002,1,0,0:0:0:0:
321,180,53077,1,0,0:0:0:0:
291,199,53152,1,0,0:0:0:0:
256,208,53227,6,0,L|256:96,1,80.750001540184,4|0,0:0|0:0,0:0:0:0:
160,352,53677,1,4,0:0:0:0:
386,218,53977,1,4,0:0:0:0:
256,128,54127,5,0,0:0:0:0:
256,128,54202,1,0,0:0:0:0:
256,128,54277,1,0,0:0:0:0:
256,128,54352,1,0,0:0:0:0:
256,128,54427,2,0,P|262:169|251:214,1,80.750001540184,4|0,0:0|0:0,0:0:0:0:
170,278,54727,2,0,L|86:262,1,80.750001540184
386,221,55027,1,0,0:0:0:0:
386,253,55102,1,0,0:0:0:0:
386,285,55177,1,0,0:0:0:0:
386,317,55252,1,0,0:0:0:0:
386,349,55327,2,0,P|457:360|509:347,1,121.125002310276,4|0,0:0|0:0,0:0:0:0:
504,348,55627,5,6,0:0:0:0:
7,348,55927,1,6,0:0:0:0:
256,32,56227,1,6,0:0:0:0:
384,224,56527,1,6,0:0:0:0:
128,224,56827,1,6,0:0:0:0:
62,56,57427,5,0,0:0:0:0:
62,56,57502,1,0,0:0:0:0:
62,56,57577,1,0,0:0:0:0:
62,56,57652,1,0,0:0:0:0:
62,56,57727,1,0,0:0:0:0:
62,56,57802,1,0,0:0:0:0:
62,56,57877,1,0,0:0:0:0:
62,56,57952,1,0,0:0:0:0:
62,56,58027,6,0,P|39:138|63:238,1,178.125,4|0,0:0|0:0,0:0:0:0:
105,299,58327,2,0,L|235:275,1,118.75,8|0,0:0|0:0,0:0:0:0:
499,146,58627,1,0,0:0:0:0:
404,302,58777,2,0,L|380:172,1,118.75,0|8,0:0|0:0,0:0:0:0:
358,65,59077,1,0,0:0:0:0:
48,230,59227,6,0,P|32:170|42:115,1,118.75
62,56,59452,1,0,0:0:0:0:
62,56,59527,2,0,L|203:84,1,118.75,8|0,0:0|0:0,0:0:0:0:
499,146,59827,1,0,0:0:0:0:
404,302,59977,2,0,L|380:172,1,118.75,0|8,0:0|0:0,0:0:0:0:
291,24,60277,1,0,0:0:0:0:
165,230,60427,6,0,P|98:237|38:228,1,118.75,4|0,0:0|0:0,0:0:0:0:
203,111,60727,1,8,0:0:0:0:
404,300,60877,2,0,P|411:233|402:173,1,118.75
285,338,61177,1,0,0:0:0:0:
181,169,61327,1,8,0:0:0:0:
71,372,61477,1,0,0:0:0:0:
5,266,61627,6,0,L|133:266,1,118.75
407,48,61927,2,0,P|414:111|408:170,1,118.75,8|0,0:0|0:0,0:0:0:0:
408,165,62152,1,0,0:0:0:0:
408,165,62227,1,0,0:0:0:0:
509,84,62377,1,0,0:0:0:0:
457,257,62527,2,0,L|335:232,1,118.75,8|0,0:0|0:0,0:0:0:0:
41,44,62827,6,0,P|13:133|39:236,1,178.125,4|0,0:0|0:0,0:0:0:0:
55,257,63127,2,0,L|177:232,1,118.75,8|0,0:0|0:0,0:0:0:0:
411,48,63427,2,0,P|418:104|402:183,1,118.75
412,342,63727,2,0,P|355:339|280:309,1,118.75,8|0,0:0|0:0,0:0:0:0:
51,139,64027,6,0,P|44:195|60:274,1,118.75
74,315,64252,1,0,0:0:0:0:
74,315,64327,2,0,L|196:290,1,118.75,8|0,0:0|0:0,0:0:0:0:
405,191,64627,1,0,0:0:0:0:
302,384,64777,2,0,L|277:262,1,118.75,0|8,0:0|0:0,0:0:0:0:
233,34,65077,1,0,0:0:0:0:
160,192,65227,5,12,0:0:0:0:
24,96,65377,1,0,0:0:0:0:
24,96,65452,1,0,0:0:0:0:
24,96,65527,1,12,0:0:0:0:
187,334,65677,1,0,0:0:0:0:
187,334,65752,1,0,0:0:0:0:
187,334,65827,1,12,0:0:0:0:
441,272,65977,1,0,0:0:0:0:
441,272,66052,1,0,0:0:0:0:
441,272,66127,1,12,0:0:0:0:
406,53,66277,1,0,0:0:0:0:
192,224,66427,6,0,L|64:192,1,118.75,14|0,0:0|0:0,0:0:0:0:
320,224,66727,2,0,L|448:192,1,118.75,6|0,0:0|0:0,0:0:0:0:
90,326,67027,2,0,L|11:233,1,118.75,14|0,0:0|0:0,0:0:0:0:
422,326,67327,2,0,L|501:233,1,118.75,14|0,0:0|0:0,0:0:0:0:
256,32,67627,6,0,P|242:101|262:161,1,118.75,4|0,0:0|0:0,0:0:0:0:
325,353,67927,1,8,0:0:0:0:
206,310,68077,2,0,L|81:327,1,118.75
382,157,68377,2,0,L|507:140,1,118.75,0|8,0:0|0:0,0:0:0:0:
256,32,68677,1,0,0:0:0:0:
256,32,68752,5,0,0:0:0:0:
256,32,68827,2,0,P|242:101|262:161,1,118.75
87,94,69127,1,8,0:0:0:0:
11,198,69277,2,0,L|-1:76,1,118.75
369,37,69577,2,0,L|381:159,2,118.75,0|8|0,0:0|0:0|0:0,0:0:0:0:
507,228,70027,6,0,P|400:272|262:240,1,237.5,4|8,0:0|0:0,0:0:0:0:
81,199,70477,2,0,P|144:204|205:225,1,118.75
439,357,70777,1,0,0:0:0:0:
283,251,70927,2,0,P|255:308|243:371,1,118.75,8|0,0:0|0:0,0:0:0:0:
115,291,71227,6,0,L|-10:292,1,118.75
367,164,71527,2,0,L|492:163,1,118.75,8|0,0:0|0:0,0:0:0:0:
115,291,71827,2,0,P|102:223|111:164,1,118.75
360,47,72127,2,0,P|373:115|364:174,1,118.75,8|0,0:0|0:0,0:0:0:0:
256,352,72427,6,0,L|256:224,1,118.75,4|0,0:0|0:0,0:0:0:0:
256,32,72727,1,8,0:0:0:0:
367,164,72877,2,0,L|486:159,1,118.75
145,164,73177,2,0,L|26:159,1,118.75,0|8,0:0|0:0,0:0:0:0:
256,32,73477,1,0,0:0:0:0:
484,158,73627,6,0,P|491:95|484:38,1,118.75
28,158,73927,2,0,P|21:95|28:38,1,118.75,8|0,0:0|0:0,0:0:0:0:
361,105,74227,2,0,P|368:168|361:225,1,118.75
151,279,74527,2,0,P|144:216|151:159,1,118.75,8|0,0:0|0:0,0:0:0:0:
256,32,74827,6,0,L|259:152,1,118.75,4|0,0:0|0:0,0:0:0:0:
258,150,75052,1,0,0:0:0:0:
258,150,75127,1,8,0:0:0:0:
423,66,75277,1,0,0:0:0:0:
394,236,75427,1,0,0:0:0:0:
394,236,75502,1,0,0:0:0:0:
394,236,75577,2,0,L|524:227,1,118.75,0|8,0:0|0:0,0:0:0:0:
372,357,75877,1,0,0:0:0:0:
251,262,76027,6,0,P|239:327|248:394,1,118.75,4|0,0:0|0:0,0:0:0:0:
31,338,76327,2,0,P|7:262|30:162,1,178.125,12|0,0:0|0:0,0:0:0:0:
54,120,76627,1,0,0:0:0:0:
96,88,76702,1,0,0:0:0:0:
150,78,76777,1,0,0:0:0:0:
204,90,76852,1,0,0:0:0:0:
251,117,76927,2,0,P|263:52|254:-15,1,118.75,12|0,0:0|0:0,0:0:0:0:
151,203,77227,5,12,0:0:0:0:
377,252,77377,1,0,0:0:0:0:
287,356,77527,2,0,L|297:229,1,118.75,0|0,0:0|0:0,0:0:0:0:
310,98,77827,1,12,0:0:0:0:
458,266,77977,2,0,L|468:139,1,118.75,0|0,0:0|0:0,0:0:0:0:
370,367,78277,1,12,0:0:0:0:
209,156,78427,6,0,P|108:260|224:363,1,332.5
305,328,79027,6,0,P|331:234|280:169,1,178.125
209,156,79327,2,0,L|209:82,1,59.375
291,31,79477,2,0,L|291:105,1,59.375
287,173,79627,1,0,0:0:0:0:
256,192,79702,12,0,84427,0:0:0:0:
352,256,89227,6,0,P|357:201|351:151,1,95,4|0,0:0|0:0,0:0:0:0:
256,288,89527,1,8,0:0:0:0:
160,128,89677,2,0,P|155:183|161:233,1,95
256,32,89977,1,0,0:0:0:0:
448,160,90127,2,0,P|453:105|447:55,1,95,8|0,0:0|0:0,0:0:0:0:
64,96,90427,6,0,P|59:151|65:201,1,95
99,300,90727,2,0,L|-1:309,1,95,8|0,0:0|0:0,0:0:0:0:
192,184,91027,2,0,L|292:193,1,95
495,294,91327,2,0,P|500:239|494:189,1,95,8|0,0:0|0:0,0:0:0:0:
342,25,91627,6,0,P|337:80|343:130,1,95,0|0,0:0|0:0,0:0:0:0:
215,45,91927,1,8,0:0:0:0:
192,184,92077,2,0,L|92:175,1,95
264,267,92377,1,0,0:0:0:0:
383,191,92527,2,0,P|388:246|382:296,1,95,8|0,0:0|0:0,0:0:0:0:
14,285,92827,6,0,P|9:230|15:180,1,95,0|0,0:0|0:0,0:0:0:0:
194,29,93127,2,0,P|199:84|193:134,1,95,8|0,0:0|0:0,0:0:0:0:
191,184,93352,1,0,0:0:0:0:
191,184,93427,2,0,L|291:175,1,95
454,26,93727,2,0,P|459:81|453:131,1,95,8|0,0:0|0:0,0:0:0:0:
490,258,94027,6,0,P|440:267|395:257,1,95,4|0,0:0|0:0,0:0:0:0:
96,187,94327,2,0,L|89:282,1,95,8|0,0:0|0:0,0:0:0:0:
100,64,94627,1,0,0:0:0:0:
96,187,94777,2,0,P|42:194|0:184,1,95,0|8,0:0|0:0,0:0:0:0:
180,264,95077,1,0,0:0:0:0:
348,152,95227,6,0,L|341:247,1,95
88,281,95527,2,0,L|95:186,1,95,8|0,0:0|0:0,0:0:0:0:
440,134,95827,2,0,L|433:229,1,95
0,310,96127,2,0,L|7:215,1,95,8|0,0:0|0:0,0:0:0:0:
187,168,96427,6,0,L|180:263,1,95
275,135,96727,1,8,0:0:0:0:
311,218,96877,2,0,P|363:225|408:215,1,95
180,263,97177,1,0,0:0:0:0:
194,78,97327,2,0,P|142:71|97:81,1,95,8|0,0:0|0:0,0:0:0:0:
6,163,97627,6,0,L|-1:68,1,95
283,40,97927,2,0,L|276:135,1,95,8|0,0:0|0:0,0:0:0:0:
464,336,98227,2,0,L|471:241,1,95
388,107,98527,1,8,0:0:0:0:
384,139,98602,1,0,0:0:0:0:
382,172,98677,1,0,0:0:0:0:
378,203,98752,1,0,0:0:0:0:
374,235,98827,1,12,0:0:0:0:
256,352,99277,5,4,0:0:0:0:
256,352,99427,1,4,0:0:0:0:
256,32,99727,1,4,0:0:0:0:
256,32,100027,5,0,0:0:0:0:
220,39,100102,1,0,0:0:0:0:
190,58,100177,1,0,0:0:0:0:
169,89,100252,1,0,0:0:0:0:
162,125,100327,1,0,0:0:0:0:
169,161,100402,1,0,0:0:0:0:
188,191,100477,1,0,0:0:0:0:
219,210,100552,1,0,0:0:0:0:
255,219,100627,1,0,0:0:0:0:
289,212,100702,1,0,0:0:0:0:
320,192,100777,1,0,0:0:0:0:
341,162,100852,1,0,0:0:0:0:
349,126,100927,1,0,0:0:0:0:
341,90,101002,1,0,0:0:0:0:
321,59,101077,1,0,0:0:0:0:
291,40,101152,1,0,0:0:0:0:
256,31,101227,6,0,L|255:157,1,95,4|0,0:0|0:0,0:0:0:0:
256,352,101677,1,4,0:0:0:0:
256,352,101827,1,4,0:0:0:0:
256,32,102127,1,4,0:0:0:0:
256,32,102427,5,0,0:0:0:0:
292,39,102502,1,0,0:0:0:0:
322,58,102577,1,0,0:0:0:0:
343,89,102652,1,0,0:0:0:0:
350,125,102727,1,0,0:0:0:0:
343,161,102802,1,0,0:0:0:0:
324,191,102877,1,0,0:0:0:0:
293,210,102952,1,0,0:0:0:0:
257,219,103027,1,0,0:0:0:0:
223,212,103102,1,0,0:0:0:0:
192,192,103177,1,0,0:0:0:0:
171,162,103252,1,0,0:0:0:0:
163,126,103327,1,0,0:0:0:0:
171,90,103402,1,0,0:0:0:0:
191,59,103477,1,0,0:0:0:0:
221,40,103552,1,0,0:0:0:0:
256,31,103627,6,0,L|255:153,1,95,4|0,0:0|0:0,0:0:0:0:
256,384,104077,1,4,0:0:0:0:
256,384,104377,5,0,0:0:0:0:
199,349,104452,1,0,0:0:0:0:
199,282,104527,1,0,0:0:0:0:
256,256,104602,1,0,0:0:0:0:
313,282,104677,1,0,0:0:0:0:
313,349,104752,1,0,0:0:0:0:
256,384,104827,1,4,0:0:0:0:
256,32,105127,1,4,0:0:0:0:
256,32,105427,5,0,0:0:0:0:
311,57,105502,1,0,0:0:0:0:
336,112,105577,1,0,0:0:0:0:
311,167,105652,1,0,0:0:0:0:
256,192,105727,1,0,0:0:0:0:
201,167,105802,1,0,0:0:0:0:
176,112,105877,1,0,0:0:0:0:
201,57,105952,1,0,0:0:0:0:
256,32,106027,5,6,0:0:0:0:
32,256,106327,1,6,0:0:0:0:
480,256,106627,1,6,0:0:0:0:
256,112,106927,1,6,0:0:0:0:
256,320,107227,1,6,0:0:0:0:
81,103,117577,5,0,0:0:0:0:
151,170,117727,2,0,L|272:157,1,95
383,15,118027,6,0,P|416:101|384:258,1,237.5,4|8,0:0|0:0,0:0:0:0:
333,350,118477,2,0,L|465:340,1,118.75
189,259,118777,1,0,0:0:0:0:
33,331,118927,2,0,P|17:269|23:205,1,118.75,8|0,0:0|0:0,0:0:0:0:
192,18,119227,6,0,P|208:80|202:144,1,118.75
211,184,119452,1,0,0:0:0:0:
211,184,119527,2,0,L|340:174,1,118.75,8|0,0:0|0:0,0:0:0:0:
467,47,119827,2,0,P|483:109|477:173,1,118.75
117,201,120127,2,0,P|101:139|107:75,1,118.75,8|0,0:0|0:0,0:0:0:0:
364,61,120427,6,0,P|380:123|374:187,1,118.75,4|0,0:0|0:0,0:0:0:0:
219,45,120727,1,8,0:0:0:0:
118,202,120877,2,0,L|0:189,1,118.75
376,177,121177,2,0,L|494:190,1,118.75,0|8,0:0|0:0,0:0:0:0:
215,162,121477,1,0,0:0:0:0:
60,309,121627,6,0,P|44:247|50:183,1,118.75
376,179,121927,2,0,P|392:241|386:305,1,118.75,8|0,0:0|0:0,0:0:0:0:
178,384,122227,2,0,P|162:322|168:258,1,118.75
276,30,122527,2,0,P|292:92|286:156,1,118.75,8|0,0:0|0:0,0:0:0:0:
23,313,122827,6,0,P|1:222|22:128,1,178.125,4|0,0:0|0:0,0:0:0:0:
32,88,123127,2,0,L|160:94,1,118.75,8|0,0:0|0:0,0:0:0:0:
454,145,123427,2,0,P|469:87|464:25,1,118.75
264,115,123727,2,0,P|249:173|254:235,1,118.75,8|0,0:0|0:0,0:0:0:0:
210,362,124027,6,0,L|338:356,1,118.75
454,239,124327,2,0,P|469:297|464:359,1,118.75,8|0,0:0|0:0,0:0:0:0:
264,115,124627,2,0,P|249:173|254:235,1,118.75
253,231,124852,1,0,0:0:0:0:
253,231,124927,1,8,0:0:0:0:
136,151,125077,1,0,0:0:0:0:
55,285,125227,5,12,0:0:0:0:
5,186,125377,1,0,0:0:0:0:
5,186,125452,1,0,0:0:0:0:
5,186,125527,1,12,0:0:0:0:
161,298,125677,1,0,0:0:0:0:
161,298,125752,1,0,0:0:0:0:
161,298,125827,1,12,0:0:0:0:
303,30,125977,1,0,0:0:0:0:
303,30,126052,1,0,0:0:0:0:
303,30,126127,1,12,0:0:0:0:
331,187,126277,1,0,0:0:0:0:
480,96,126427,6,0,P|493:157|485:218,1,118.75,14|0,0:0|0:0,0:0:0:0:
64,320,126727,2,0,P|51:259|59:198,1,118.75,6|0,0:0|0:0,0:0:0:0:
398,109,127027,2,0,P|414:182|401:243,1,118.75,14|0,0:0|0:0,0:0:0:0:
153,308,127327,2,0,P|137:235|154:177,1,118.75,14|0,0:0|0:0,0:0:0:0:
256,32,127627,6,0,P|269:93|261:154,1,118.75,6|0,0:0|0:0,0:0:0:0:
253,343,127927,1,8,0:0:0:0:
359,308,128077,2,0,L|480:327,1,118.75
153,308,128377,2,0,L|32:327,1,118.75,0|8,0:0|0:0,0:0:0:0:
256,32,128677,5,0,0:0:0:0:
256,32,128752,1,0,0:0:0:0:
256,32,128827,2,0,P|269:93|261:154,1,118.75,4|0,0:0|0:0,0:0:0:0:
253,343,129127,1,8,0:0:0:0:
80,238,129277,1,0,0:0:0:0:
432,238,129427,2,0,P|444:297|436:362,1,118.75
80,238,129727,2,0,P|68:297|76:362,1,118.75,8|0,0:0|0:0,0:0:0:0:
256,32,130027,6,0,P|282:151|262:273,1,237.5,4|8,0:0|0:0,0:0:0:0:
385,202,130477,2,0,L|504:194,1,118.75
347,82,130777,1,0,0:0:0:0:
265,264,130927,2,0,L|146:256,1,118.75,8|0,0:0|0:0,0:0:0:0:
46,74,131227,6,0,L|165:82,1,118.75,4|0,0:0|0:0,0:0:0:0:
466,74,131527,2,0,L|347:82,1,118.75,8|0,0:0|0:0,0:0:0:0:
48,192,131827,2,0,P|39:131|48:63,1,118.75
260,6,132127,2,0,P|269:67|260:135,1,118.75,8|0,0:0|0:0,0:0:0:0:
324,249,132427,6,0,P|265:265|201:253,1,118.75,4|0,0:0|0:0,0:0:0:0:
386,176,132727,1,8,0:0:0:0:
470,291,132877,2,0,L|476:169,1,118.75
396,365,133177,1,0,0:0:0:0:
252,266,133327,2,0,L|246:388,1,118.75,8|0,0:0|0:0,0:0:0:0:
474,56,133627,6,0,P|481:119|474:176,1,118.75
18,56,133927,2,0,P|11:119|18:176,1,118.75,8|0,0:0|0:0,0:0:0:0:
357,277,134227,2,0,P|364:214|357:157,1,118.75
147,103,134527,2,0,P|140:166|147:223,1,118.75,8|0,0:0|0:0,0:0:0:0:
252,350,134827,6,0,L|255:230,1,118.75,4|0,0:0|0:0,0:0:0:0:
254,232,135052,1,0,0:0:0:0:
254,232,135127,1,8,0:0:0:0:
135,293,135277,1,0,0:0:0:0:
30,106,135427,1,4,0:0:0:0:
30,106,135502,1,0,0:0:0:0:
30,106,135577,2,0,P|91:100|157:106,1,118.75,0|8,0:0|0:0,0:0:0:0:
396,134,135877,1,0,0:0:0:0:
333,24,136027,5,14,0:0:0:0:
324,54,136102,1,0,0:0:0:0:
316,85,136177,1,0,0:0:0:0:
308,116,136252,1,0,0:0:0:0:
299,147,136327,1,12,0:0:0:0:
179,159,136477,5,0,0:0:0:0:
188,189,136552,1,0,0:0:0:0:
196,220,136627,1,0,0:0:0:0:
204,251,136702,1,0,0:0:0:0:
213,282,136777,1,8,0:0:0:0:
347,225,136927,5,14,0:0:0:0:
338,255,137002,1,0,0:0:0:0:
330,286,137077,1,0,0:0:0:0:
322,317,137152,1,0,0:0:0:0:
313,351,137227,2,0,P|214:372|131:352,1,178.125,14|0,0:0|0:0,0:0:0:0:
85,341,137527,6,0,P|70:279|79:210,1,128.250000489235,12|0,0:0|0:0,0:0:0:0:
389,30,137827,2,0,P|404:92|395:161,1,128.250000489235,0|0,0:0|0:0,0:0:0:0:
458,298,138127,2,0,L|312:283,1,128.250000489235,8|0,0:0|0:0,0:0:0:0:
133,160,138427,5,0,0:0:0:0:
17,279,138577,2,0,L|9:142,1,128.250000489235,0|8,0:0|0:0,0:0:0:0:
172,361,138877,1,0,0:0:0:0:
323,259,139027,2,0,P|334:319|320:385,1,128.250000489235,0|0,0:0|0:0,0:0:0:0:
130,286,139327,2,0,P|119:226|133:160,1,128.250000489235,8|0,0:0|0:0,0:0:0:0:
470,104,139627,6,0,P|481:164|467:230,1,128.250000489235,4|0,0:0|0:0,0:0:0:0:
416,24,139927,1,8,0:0:0:0:
222,224,140077,1,0,0:0:0:0:
33,145,140227,2,0,P|22:205|36:271,1,128.250000489235
396,369,140527,2,0,P|407:309|393:243,1,128.250000489235,8|0,0:0|0:0,0:0:0:0:
118,89,140827,6,0,P|104:186|125:293,1,192.375000733852,4|0,0:0|0:0,0:0:0:0:
139,329,141127,2,0,L|270:309,1,128.250000489235,8|0,0:0|0:0,0:0:0:0:
512,109,141427,2,0,L|363:128,1,128.250000489235
322,23,141727,1,8,0:0:0:0:
426,211,141877,1,0,0:0:0:0:
264,310,142027,6,0,P|245:249|249:183,1,128.250000489235,6|0,0:0|0:0,0:0:0:0:
192,378,142327,1,8,0:0:0:0:
128,258,142477,2,0,L|-8:263,1,128.250000489235
324,155,142777,2,0,L|460:150,1,128.250000489235,0|8,0:0|0:0,0:0:0:0:
256,32,143077,1,0,0:0:0:0:
59,164,143227,6,0,P|40:101|54:38,1,128.250000489235
446,26,143527,2,0,P|465:89|451:152,1,128.250000489235,8|0,0:0|0:0,0:0:0:0:
344,272,143827,2,0,L|464:336,1,128.250000489235
168,272,144127,2,0,L|48:336,1,128.250000489235,8|0,0:0|0:0,0:0:0:0:
256,96,144427,5,14,0:0:0:0:
256,320,144577,1,0,0:0:0:0:
256,320,144652,1,0,0:0:0:0:
256,320,144727,1,14,0:0:0:0:
96,224,144877,1,0,0:0:0:0:
96,224,144952,1,0,0:0:0:0:
96,224,145027,1,14,0:0:0:0:
416,224,145177,1,0,0:0:0:0:
416,224,145252,1,0,0:0:0:0:
416,224,145327,1,14,0:0:0:0:
256,320,145477,1,0,0:0:0:0:
416,224,145627,6,0,P|430:290|428:355,1,128.250000489235,14|0,0:0|0:0,0:0:0:0:
96,224,145927,2,0,P|82:290|84:355,1,128.250000489235,6|0,0:0|0:0,0:0:0:0:
352,96,146227,2,0,P|419:99|481:118,1,128.250000489235,14|0,0:0|0:0,0:0:0:0:
160,96,146527,2,2,P|92:99|30:118,1,128.250000489235,12|0,0:0|0:0,0:0:0:0:
256,160,146827,6,0,L|256:32,1,128.250000489235,4|0,0:0|0:0,0:0:0:0:
256,288,147127,1,8,0:0:0:0:
416,224,147277,2,0,P|430:290|428:355,1,128.250000489235
96,224,147577,2,0,P|82:290|84:355,1,128.250000489235,0|8,0:0|0:0,0:0:0:0:
256,160,147877,1,0,0:0:0:0:
352,288,148027,6,0,P|419:284|481:265,1,128.250000489235,4|0,0:0|0:0,0:0:0:0:
160,288,148327,2,0,P|92:284|30:265,1,128.250000489235,8|0,0:0|0:0,0:0:0:0:
256,384,148627,2,0,L|256:256,1,128.250000489235
256,32,148927,2,0,L|256:160,1,128.250000489235,8|0,0:0|0:0,0:0:0:0:
121,120,149227,6,0,L|-15:113,1,128.250000489235,4|0,0:0|0:0,0:0:0:0:
391,120,149527,2,0,L|527:113,1,128.250000489235,8|0,0:0|0:0,0:0:0:0:
160,288,149827,2,0,L|24:281,1,128.250000489235
320,288,150127,2,0,L|456:281,1,128.250000489235,8|0,0:0|0:0,0:0:0:0:
256,32,150427,6,0,L|256:160,1,128.250000489235,4|0,0:0|0:0,0:0:0:0:
256,384,150727,2,0,L|256:256,1,128.250000489235,8|0,0:0|0:0,0:0:0:0:
447,52,151027,2,0,P|464:112|465:184,1,128.250000489235
65,52,151327,2,0,P|48:112|47:184,1,128.250000489235,8|0,0:0|0:0,0:0:0:0:
5,286,151627,6,0,L|140:278,1,128.250000489235,4|0,0:0|0:0,0:0:0:0:
413,209,151927,2,0,P|430:269|431:341,1,128.250000489235,8|0,0:0|0:0,0:0:0:0:
255,29,152227,2,0,P|238:89|237:161,1,128.250000489235
134,294,152527,2,0,L|-1:286,1,128.250000489235,8|0,0:0|0:0,0:0:0:0:
344,255,152827,5,4,0:0:0:0:
260,365,152977,2,0,P|243:305|242:233,1,128.250000489235,0|8,0:0|0:0,0:0:0:0:
429,323,153277,1,0,0:0:0:0:
152,169,153427,2,0,P|135:229|134:301,1,128.250000489235,4|0,0:0|0:0,0:0:0:0:
430,323,153727,2,0,P|447:263|448:191,1,128.250000489235,8|0,0:0|0:0,0:0:0:0:
320,36,154027,6,0,P|303:96|302:168,1,128.250000489235,4|0,0:0|0:0,0:0:0:0:
301,161,154252,1,0,0:0:0:0:
301,161,154327,1,8,0:0:0:0:
180,79,154477,1,0,0:0:0:0:
180,79,154552,1,0,0:0:0:0:
180,79,154627,2,0,L|46:73,1,128.250000489235,4|0,0:0|0:0,0:0:0:0:
239,289,154927,2,0,L|373:283,1,128.250000489235,8|0,0:0|0:0,0:0:0:0:
189,208,155227,5,4,0:0:0:0:
100,364,155377,1,0,0:0:0:0:
0,214,155527,2,0,P|105:196|196:211,1,192.375000733852,12|0,0:0|0:0,0:0:0:0:
229,240,155827,1,0,0:0:0:0:
276,258,155902,1,0,0:0:0:0:
327,258,155977,1,0,0:0:0:0:
373,237,156052,1,0,0:0:0:0:
412,203,156127,2,0,L|443:335,1,128.250000489235,12|0,0:0|0:0,0:0:0:0:
299,168,156427,5,4,0:0:0:0:
193,330,156577,1,0,0:0:0:0:
100,203,156727,2,4,L|69:335,1,128.250000489235,8|0,0:0|0:0,0:0:0:0:
61,85,157027,1,12,0:0:0:0:
183,187,157177,1,0,0:0:0:0:
279,64,157327,1,12,0:0:0:0:
223,261,157477,1,0,0:0:0:0:
379,302,157627,1,12,0:0:0:0:
256,352,158227,5,0,0:0:0:0:
256,352,158527,1,0,0:0:0:0:
256,352,158602,1,0,0:0:0:0:
256,352,158677,1,0,0:0:0:0:
256,352,158752,1,0,0:0:0:0:
256,352,158827,1,0,0:0:0:0:
256,192,158902,12,0,163627,0:0:0:0:
