osu file format v14

[General]
AudioFilename: audio.mp3
AudioLeadIn: 0
PreviewTime: 117577
Countdown: 1
SampleSet: Normal
StackLeniency: 0.7
Mode: 1
LetterboxInBreaks: 0
WidescreenStoryboard: 1

[Editor]
Bookmarks: 10027,29227,48427,58027,79627,89227,98827,108427,118027,137227,158827
DistanceSpacing: 0.8
BeatDivisor: 4
GridSize: 32
TimelineZoom: 2.7

[Metadata]
Title:Mousou Kajitsu
TitleUnicode:妄想果実
Artist:Nanaki feat.GUMI
ArtistUnicode:七希 feat.GUMI
Creator:Chromoxx
Version:Oni
Source:
Tags:GUMI vocaloid Tomisaka hardcore Fancies Fruit diva megpoid トミサカ
BeatmapID:1274406
BeatmapSetID:602993

[Difficulty]
HPDrainRate:5
CircleSize:5
OverallDifficulty:6
ApproachRate:5
SliderMultiplier:1.4
SliderTickRate:1

[Events]
//Background and Video events
0,0,"EXyGpu1.jpg",0,100
Video,43,"kajitsu.avi"
//Break Periods
//Storyboard Layer 0 (Background)
//Storyboard Layer 1 (Fail)
//Storyboard Layer 2 (Pass)
//Storyboard Layer 3 (Foreground)
//Storyboard Sound Samples

[TimingPoints]
427,300,4,1,0,90,1,0
7627,-100,4,1,0,60,0,0
9952,-100,4,1,0,90,0,0
58027,-100,4,1,0,100,0,1
79627,-100,4,1,0,100,0,0
79777,-100,4,1,0,90,0,0
88027,-100,4,1,0,60,0,0
89152,-100,4,1,0,90,0,0
118027,-100,4,1,0,100,0,1
137227,-100,4,1,0,100,0,0
137527,-100,4,1,0,100,0,1
158827,-100,4,1,0,100,0,0

[HitObjects]
343,280,427,5,4,0:0:0:0:
208,172,727,1,0,0:0:0:0:
368,343,877,1,0,0:0:0:0:
175,207,1027,1,8,0:0:0:0:
294,226,1327,1,0,0:0:0:0:
222,209,1477,1,0,0:0:0:0:
347,236,1777,1,0,0:0:0:0:
347,236,1927,1,8,0:0:0:0:
347,236,2077,1,0,0:0:0:0:
341,235,2152,1,0,0:0:0:0:
294,226,2227,1,8,0:0:0:0:
294,226,2377,1,0,0:0:0:0:
148,197,2527,1,8,0:0:0:0:
274,212,2827,1,4,0:0:0:0:
280,243,2977,1,0,0:0:0:0:
309,219,3277,1,0,0:0:0:0:
304,223,3427,1,8,0:0:0:0:
296,228,3577,1,0,0:0:0:0:
296,227,3727,1,0,0:0:0:0:
274,212,3877,1,0,0:0:0:0:
246,216,4177,1,0,0:0:0:0:
264,210,4327,1,8,0:0:0:0:
264,210,4477,1,0,0:0:0:0:
232,217,4627,1,8,0:0:0:0:
238,216,4702,1,8,0:0:0:0:
231,262,4777,1,0,0:0:0:0:
185,250,4852,1,0,0:0:0:0:
185,250,4927,1,8,0:0:0:0:
185,250,5077,1,8,0:0:0:0:
186,240,5227,1,4,0:0:0:0:
284,170,5527,1,0,0:0:0:0:
284,170,5677,1,0,0:0:0:0:
284,170,5827,1,8,0:0:0:0:
261,212,6127,1,0,0:0:0:0:
261,212,6277,1,0,0:0:0:0:
341,170,6577,1,0,0:0:0:0:
341,170,6727,1,8,0:0:0:0:
346,182,6877,1,0,0:0:0:0:
325,181,6952,1,0,0:0:0:0:
312,181,7027,1,8,0:0:0:0:
311,181,7177,1,0,0:0:0:0:
311,181,7327,1,8,0:0:0:0:
311,187,7627,1,0,0:0:0:0:
167,170,10027,1,4,0:0:0:0:
308,230,10327,1,8,0:0:0:0:
308,230,10477,1,8,0:0:0:0:
308,230,10627,1,0,0:0:0:0:
308,230,10777,1,0,0:0:0:0:
308,230,10927,1,8,0:0:0:0:
279,212,11077,1,0,0:0:0:0:
289,305,11377,1,0,0:0:0:0:
289,305,11527,1,8,0:0:0:0:
239,243,11677,1,8,0:0:0:0:
224,242,11827,1,0,0:0:0:0:
188,145,11977,1,0,0:0:0:0:
188,145,12052,1,0,0:0:0:0:
188,145,12127,1,8,0:0:0:0:
316,185,12277,1,8,0:0:0:0:
297,194,12427,1,0,0:0:0:0:
269,234,12727,1,8,0:0:0:0:
269,234,12877,1,8,0:0:0:0:
269,234,13027,1,0,0:0:0:0:
269,234,13177,1,0,0:0:0:0:
269,234,13327,1,8,0:0:0:0:
269,234,13477,1,0,0:0:0:0:
250,271,13777,1,0,0:0:0:0:
250,271,13927,1,8,0:0:0:0:
302,213,14077,1,8,0:0:0:0:
217,204,14227,1,0,0:0:0:0:
287,264,14377,1,0,0:0:0:0:
245,253,14452,1,0,0:0:0:0:
237,249,14527,1,8,0:0:0:0:
233,247,14677,1,0,0:0:0:0:
233,247,14827,1,8,0:0:0:0:
327,225,15127,1,0,0:0:0:0:
185,238,15277,1,0,0:0:0:0:
185,238,15427,1,8,0:0:0:0:
185,238,15577,1,8,0:0:0:0:
167,232,15727,1,0,0:0:0:0:
167,232,15877,1,8,0:0:0:0:
356,215,16177,1,0,0:0:0:0:
356,215,16327,1,8,0:0:0:0:
356,215,16477,1,8,0:0:0:0:
348,214,16627,1,0,0:0:0:0:
348,214,16777,1,0,0:0:0:0:
336,206,16852,1,0,0:0:0:0:
310,204,16927,1,8,0:0:0:0:
310,204,17077,1,0,0:0:0:0:
310,204,17227,1,8,0:0:0:0:
314,205,17527,1,8,0:0:0:0:
310,204,17677,1,0,0:0:0:0:
310,204,17827,1,8,0:0:0:0:
310,204,17977,1,8,0:0:0:0:
310,204,18127,1,0,0:0:0:0:
300,204,18277,1,8,0:0:0:0:
300,204,18427,1,0,0:0:0:0:
296,202,18577,1,0,0:0:0:0:
276,202,18727,1,8,0:0:0:0:
272,192,18877,1,0,0:0:0:0:
271,193,19027,1,0,0:0:0:0:
256,193,19102,1,0,0:0:0:0:
271,193,19177,1,0,0:0:0:0:
256,193,19252,1,0,0:0:0:0:
251,192,19327,1,8,0:0:0:0:
84,243,19477,1,8,0:0:0:0:
255,190,19627,1,4,0:0:0:0:
308,230,19927,1,8,0:0:0:0:
308,230,20077,1,8,0:0:0:0:
308,230,20227,1,0,0:0:0:0:
308,230,20377,1,0,0:0:0:0:
308,230,20527,1,8,0:0:0:0:
279,212,20677,1,0,0:0:0:0:
289,305,20977,1,0,0:0:0:0:
289,305,21127,1,8,0:0:0:0:
239,243,21277,1,8,0:0:0:0:
224,242,21427,1,0,0:0:0:0:
188,145,21577,1,0,0:0:0:0:
188,145,21652,1,0,0:0:0:0:
188,145,21727,1,8,0:0:0:0:
316,185,21877,1,8,0:0:0:0:
297,194,22027,1,0,0:0:0:0:
269,234,22327,1,8,0:0:0:0:
269,234,22477,1,8,0:0:0:0:
269,234,22627,1,0,0:0:0:0:
269,234,22777,1,0,0:0:0:0:
269,234,22927,1,8,0:0:0:0:
269,234,23077,1,0,0:0:0:0:
250,271,23377,1,0,0:0:0:0:
250,271,23527,1,8,0:0:0:0:
302,213,23677,1,8,0:0:0:0:
217,204,23827,1,0,0:0:0:0:
287,264,23977,1,0,0:0:0:0:
245,253,24052,1,0,0:0:0:0:
237,249,24127,1,8,0:0:0:0:
233,247,24277,1,0,0:0:0:0:
233,247,24427,1,8,0:0:0:0:
327,225,24727,1,0,0:0:0:0:
185,238,24877,1,0,0:0:0:0:
185,238,25027,1,8,0:0:0:0:
185,238,25177,1,8,0:0:0:0:
167,232,25327,1,0,0:0:0:0:
167,232,25477,1,8,0:0:0:0:
356,215,25777,1,0,0:0:0:0:
356,215,25927,1,8,0:0:0:0:
356,215,26077,1,8,0:0:0:0:
348,214,26227,1,0,0:0:0:0:
348,214,26377,1,0,0:0:0:0:
336,206,26452,1,0,0:0:0:0:
310,204,26527,1,8,0:0:0:0:
310,204,26677,1,0,0:0:0:0:
310,204,26827,1,8,0:0:0:0:
314,205,27127,1,8,0:0:0:0:
310,204,27277,1,0,0:0:0:0:
310,204,27427,1,8,0:0:0:0:
310,204,27577,1,8,0:0:0:0:
310,204,27727,1,0,0:0:0:0:
300,204,27877,1,8,0:0:0:0:
300,204,28027,1,0,0:0:0:0:
296,202,28177,1,0,0:0:0:0:
276,202,28327,1,8,0:0:0:0:
272,192,28477,1,0,0:0:0:0:
271,193,28627,1,0,0:0:0:0:
256,193,28702,1,0,0:0:0:0:
271,193,28777,1,0,0:0:0:0:
256,193,28852,1,0,0:0:0:0:
251,192,28927,1,8,0:0:0:0:
274,206,29077,1,8,0:0:0:0:
149,187,29227,1,0,0:0:0:0:
262,229,29527,1,8,0:0:0:0:
311,231,29827,1,0,0:0:0:0:
311,231,29977,1,0,0:0:0:0:
311,231,30127,1,8,0:0:0:0:
311,231,30277,1,8,0:0:0:0:
311,231,30427,1,0,0:0:0:0:
368,262,30727,1,0,0:0:0:0:
237,266,30877,1,0,0:0:0:0:
298,244,31027,1,8,0:0:0:0:
298,244,31177,1,0,0:0:0:0:
282,241,31327,1,8,0:0:0:0:
282,241,31477,1,8,0:0:0:0:
282,241,31627,1,0,0:0:0:0:
249,222,31927,1,8,0:0:0:0:
249,222,32077,1,0,0:0:0:0:
127,176,32227,1,8,0:0:0:0:
249,222,32377,1,8,0:0:0:0:
347,194,32527,1,0,0:0:0:0:
347,194,32677,1,8,0:0:0:0:
347,194,32827,1,0,0:0:0:0:
330,174,33127,1,8,0:0:0:0:
330,174,33427,1,0,0:0:0:0:
330,174,33727,1,8,0:0:0:0:
277,229,34027,1,0,0:0:0:0:
210,268,34177,1,8,0:0:0:0:
177,251,34327,1,0,0:0:0:0:
284,301,34627,1,8,0:0:0:0:
193,281,34777,1,0,0:0:0:0:
187,205,34927,1,8,0:0:0:0:
325,222,35227,1,0,0:0:0:0:
325,222,35527,1,8,0:0:0:0:
325,222,35677,1,8,0:0:0:0:
292,213,35827,1,0,0:0:0:0:
292,213,35977,1,0,0:0:0:0:
292,213,36127,1,8,0:0:0:0:
275,209,36427,1,0,0:0:0:0:
275,209,36577,1,0,0:0:0:0:
271,206,36727,1,8,0:0:0:0:
268,205,36877,1,0,0:0:0:0:
231,188,37027,1,8,0:0:0:0:
231,188,37177,1,8,0:0:0:0:
231,188,37327,1,0,0:0:0:0:
240,184,37477,1,8,0:0:0:0:
240,184,37627,1,0,0:0:0:0:
322,205,38227,1,8,0:0:0:0:
372,256,38827,1,4,0:0:0:0:
331,187,39127,1,8,0:0:0:0:
331,187,39277,1,8,0:0:0:0:
222,247,39427,1,0,0:0:0:0:
331,187,39727,1,8,0:0:0:0:
224,242,39877,1,8,0:0:0:0:
214,232,40027,1,0,0:0:0:0:
214,232,40177,1,0,0:0:0:0:
255,249,40327,1,8,0:0:0:0:
250,214,40627,1,0,0:0:0:0:
234,305,40777,1,0,0:0:0:0:
250,214,40927,1,8,0:0:0:0:
228,211,41077,1,0,0:0:0:0:
234,210,41227,1,8,0:0:0:0:
239,312,41377,1,8,0:0:0:0:
254,304,41527,1,0,0:0:0:0:
282,201,41677,1,8,0:0:0:0:
282,201,41827,1,0,0:0:0:0:
133,134,41977,1,0,0:0:0:0:
137,136,42127,1,8,0:0:0:0:
289,273,42277,1,8,0:0:0:0:
263,250,42427,1,0,0:0:0:0:
201,237,42727,1,8,0:0:0:0:
201,237,43027,1,0,0:0:0:0:
201,237,43327,1,8,0:0:0:0:
286,224,43627,1,0,0:0:0:0:
263,240,43777,1,0,0:0:0:0:
273,221,43927,1,8,0:0:0:0:
273,221,44227,1,0,0:0:0:0:
314,152,44377,1,8,0:0:0:0:
314,152,44527,1,8,0:0:0:0:
259,246,44827,1,0,0:0:0:0:
259,246,44977,1,0,0:0:0:0:
259,246,45127,1,8,0:0:0:0:
216,303,45277,1,0,0:0:0:0:
216,303,45427,1,8,0:0:0:0:
278,244,45727,1,8,0:0:0:0:
278,244,45877,1,8,0:0:0:0:
234,221,46027,1,0,0:0:0:0:
273,222,46177,1,8,0:0:0:0:
273,222,46327,1,8,0:0:0:0:
270,222,46477,1,0,0:0:0:0:
270,222,46627,1,8,0:0:0:0:
273,222,46777,1,0,0:0:0:0:
273,222,46927,1,8,0:0:0:0:
273,222,47077,1,8,0:0:0:0:
273,222,47227,1,0,0:0:0:0:
289,219,47527,1,8,0:0:0:0:
289,219,47827,1,8,0:0:0:0:
288,219,47977,1,0,0:0:0:0:
261,209,48127,1,8,0:0:0:0:
220,195,48202,1,8,0:0:0:0:
261,209,48277,1,8,0:0:0:0:
262,199,48427,1,4,0:0:0:0:
220,195,48577,1,0,0:0:0:0:
204,177,48652,1,0,0:0:0:0:
281,217,48727,1,8,0:0:0:0:
288,219,48877,1,0,0:0:0:0:
213,202,49027,1,12,0:0:0:0:
210,179,49627,1,0,0:0:0:0:
207,178,49777,1,8,0:0:0:0:
149,178,49852,1,8,0:0:0:0:
201,175,49927,1,8,0:0:0:0:
149,178,50077,1,0,0:0:0:0:
149,178,50227,1,8,0:0:0:0:
138,183,50377,1,0,0:0:0:0:
96,176,50452,1,0,0:0:0:0:
96,176,50527,1,8,0:0:0:0:
80,172,50602,1,8,0:0:0:0:
40,163,50677,1,0,0:0:0:0:
125,176,50827,1,4,0:0:0:0:
195,175,50977,1,0,0:0:0:0:
190,176,51052,1,0,0:0:0:0:
179,174,51127,1,8,0:0:0:0:
215,182,51277,1,0,0:0:0:0:
215,183,51427,1,12,0:0:0:0:
242,212,52027,1,0,0:0:0:0:
242,212,52177,1,8,0:0:0:0:
218,214,52252,1,8,0:0:0:0:
242,212,52327,1,8,0:0:0:0:
199,216,52477,1,0,0:0:0:0:
165,227,52627,1,8,0:0:0:0:
173,227,52702,1,8,0:0:0:0:
149,232,52777,1,0,0:0:0:0:
170,227,52852,1,0,0:0:0:0:
194,239,52927,1,8,0:0:0:0:
175,232,53077,1,8,0:0:0:0:
178,230,53227,1,4,0:0:0:0:
334,259,53377,1,0,0:0:0:0:
299,254,53452,1,0,0:0:0:0:
235,243,53527,1,8,0:0:0:0:
235,243,53677,1,0,0:0:0:0:
261,255,53827,1,12,0:0:0:0:
193,178,53977,1,0,0:0:0:0:
304,263,54127,1,8,0:0:0:0:
268,165,54202,1,8,0:0:0:0:
268,171,54277,1,8,0:0:0:0:
255,169,54427,1,4,0:0:0:0:
282,214,54727,1,8,0:0:0:0:
304,212,54877,1,0,0:0:0:0:
311,216,55027,1,8,0:0:0:0:
307,213,55102,1,8,0:0:0:0:
275,207,55177,1,0,0:0:0:0:
222,198,55252,1,0,0:0:0:0:
210,197,55327,1,8,0:0:0:0:
210,197,55477,1,8,0:0:0:0:
210,196,55627,1,4,0:0:0:0:
210,194,55927,1,4,0:0:0:0:
210,194,56227,1,12,0:0:0:0:
210,196,56527,1,12,0:0:0:0:
210,194,56827,1,4,0:0:0:0:
194,120,57427,1,8,0:0:0:0:
239,130,57502,1,8,0:0:0:0:
239,130,57577,1,8,0:0:0:0:
239,130,57652,1,8,0:0:0:0:
239,130,57727,1,8,0:0:0:0:
239,130,57877,1,8,0:0:0:0:
239,130,58027,1,4,0:0:0:0:
313,202,58327,1,8,0:0:0:0:
306,215,58477,1,0,0:0:0:0:
258,208,58552,1,0,0:0:0:0:
218,285,58627,1,8,0:0:0:0:
244,220,58777,1,8,0:0:0:0:
271,230,58927,1,0,0:0:0:0:
271,230,59077,1,8,0:0:0:0:
209,232,59152,1,8,0:0:0:0:
234,274,59227,1,0,0:0:0:0:
243,98,59377,1,0,0:0:0:0:
243,98,59527,1,8,0:0:0:0:
363,280,59677,1,0,0:0:0:0:
282,225,59752,1,0,0:0:0:0:
218,158,59827,1,0,0:0:0:0:
218,158,59977,1,0,0:0:0:0:
218,158,60127,1,8,0:0:0:0:
193,180,60277,1,0,0:0:0:0:
204,190,60427,1,12,0:0:0:0:
205,258,60727,1,0,0:0:0:0:
288,274,60877,1,8,0:0:0:0:
189,257,60952,1,8,0:0:0:0:
246,301,61027,1,8,0:0:0:0:
291,202,61177,1,8,0:0:0:0:
230,206,61327,1,0,0:0:0:0:
219,213,61477,1,8,0:0:0:0:
133,225,61552,1,8,0:0:0:0:
376,242,61627,1,0,0:0:0:0:
376,242,61777,1,0,0:0:0:0:
212,214,61927,1,8,0:0:0:0:
288,292,62077,1,0,0:0:0:0:
205,275,62152,1,0,0:0:0:0:
237,283,62227,1,8,0:0:0:0:
199,273,62302,1,8,0:0:0:0:
197,272,62377,1,0,0:0:0:0:
222,228,62527,1,8,0:0:0:0:
263,172,62677,1,0,0:0:0:0:
263,172,62827,1,4,0:0:0:0:
346,161,63127,1,8,0:0:0:0:
336,163,63277,1,0,0:0:0:0:
269,158,63352,1,0,0:0:0:0:
288,255,63427,1,8,0:0:0:0:
268,249,63577,1,8,0:0:0:0:
291,298,63727,1,0,0:0:0:0:
316,259,63877,1,8,0:0:0:0:
301,245,63952,1,8,0:0:0:0:
276,235,64027,1,0,0:0:0:0:
312,205,64177,1,0,0:0:0:0:
312,205,64327,1,8,0:0:0:0:
340,264,64477,1,0,0:0:0:0:
302,251,64552,1,0,0:0:0:0:
340,264,64627,1,0,0:0:0:0:
302,251,64777,1,0,0:0:0:0:
285,245,64927,1,8,0:0:0:0:
231,186,65227,1,0,0:0:0:0:
280,218,65377,1,0,0:0:0:0:
214,148,65527,1,8,0:0:0:0:
214,148,65677,1,0,0:0:0:0:
214,148,65752,1,0,0:0:0:0:
214,148,65827,1,8,0:0:0:0:
214,148,65977,1,0,0:0:0:0:
214,148,66127,1,8,0:0:0:0:
214,148,66277,1,8,0:0:0:0:
321,170,66427,1,0,0:0:0:0:
296,172,66502,1,0,0:0:0:0:
321,170,66577,1,0,0:0:0:0:
296,172,66727,1,8,0:0:0:0:
184,157,66802,1,0,0:0:0:0:
190,137,66877,1,0,0:0:0:0:
190,153,67027,1,8,0:0:0:0:
190,195,67102,1,8,0:0:0:0:
177,190,67177,1,0,0:0:0:0:
202,172,67252,1,0,0:0:0:0:
234,173,67327,1,8,0:0:0:0:
266,167,67627,1,4,0:0:0:0:
297,173,67927,1,8,0:0:0:0:
297,173,68077,1,0,0:0:0:0:
288,171,68152,1,0,0:0:0:0:
196,165,68227,1,8,0:0:0:0:
313,200,68377,1,8,0:0:0:0:
301,164,68527,1,0,0:0:0:0:
301,164,68677,1,8,0:0:0:0:
315,170,68752,1,8,0:0:0:0:
313,169,68827,1,8,0:0:0:0:
276,167,68977,1,0,0:0:0:0:
276,167,69127,1,8,0:0:0:0:
276,167,69277,1,8,0:0:0:0:
267,170,69427,1,0,0:0:0:0:
267,170,69502,1,0,0:0:0:0:
276,167,69577,1,0,0:0:0:0:
234,166,69652,1,0,0:0:0:0:
254,158,69727,1,8,0:0:0:0:
144,175,69877,1,0,0:0:0:0:
161,176,70027,1,12,0:0:0:0:
363,167,70327,1,0,0:0:0:0:
306,248,70477,1,8,0:0:0:0:
199,226,70552,1,8,0:0:0:0:
306,248,70627,1,8,0:0:0:0:
199,226,70777,1,8,0:0:0:0:
164,210,70927,1,0,0:0:0:0:
222,173,71077,1,8,0:0:0:0:
222,173,71152,1,8,0:0:0:0:
106,149,71227,1,0,0:0:0:0:
282,148,71377,1,0,0:0:0:0:
282,148,71527,1,8,0:0:0:0:
282,148,71677,1,0,0:0:0:0:
216,131,71752,1,0,0:0:0:0:
202,127,71827,1,8,0:0:0:0:
204,128,71902,1,8,0:0:0:0:
205,128,71977,1,0,0:0:0:0:
205,128,72127,1,8,0:0:0:0:
206,128,72277,1,0,0:0:0:0:
185,126,72427,1,4,0:0:0:0:
249,242,72727,1,8,0:0:0:0:
295,213,72877,1,0,0:0:0:0:
233,189,72952,1,0,0:0:0:0:
80,183,73027,1,8,0:0:0:0:
238,171,73177,1,8,0:0:0:0:
238,171,73327,1,0,0:0:0:0:
245,174,73477,1,8,0:0:0:0:
241,172,73552,1,8,0:0:0:0:
238,171,73627,1,0,0:0:0:0:
238,171,73777,1,0,0:0:0:0:
240,171,73927,1,8,0:0:0:0:
278,191,74077,1,8,0:0:0:0:
238,171,74227,1,0,0:0:0:0:
238,171,74302,1,0,0:0:0:0:
178,129,74377,1,0,0:0:0:0:
178,129,74452,1,0,0:0:0:0:
178,129,74527,1,8,0:0:0:0:
281,223,74827,1,0,0:0:0:0:
336,226,74977,1,0,0:0:0:0:
268,209,75052,1,0,0:0:0:0:
336,199,75127,1,8,0:0:0:0:
336,199,75277,1,8,0:0:0:0:
336,199,75427,1,0,0:0:0:0:
336,199,75502,1,8,0:0:0:0:
274,194,75577,1,0,0:0:0:0:
262,192,75652,1,0,0:0:0:0:
275,182,75727,1,8,0:0:0:0:
275,182,75877,1,8,0:0:0:0:
298,226,76027,1,0,0:0:0:0:
302,221,76102,1,0,0:0:0:0:
303,212,76177,1,0,0:0:0:0:
286,191,76327,1,8,0:0:0:0:
249,174,76402,1,0,0:0:0:0:
221,169,76477,1,0,0:0:0:0:
249,174,76627,1,8,0:0:0:0:
262,158,76702,1,8,0:0:0:0:
262,158,76777,1,0,0:0:0:0:
262,158,76852,1,0,0:0:0:0:
262,158,76927,1,8,0:0:0:0:
238,200,77227,1,4,0:0:0:0:
326,220,77377,1,0,0:0:0:0:
326,220,77527,1,8,0:0:0:0:
335,221,77677,1,0,0:0:0:0:
214,242,77752,1,0,0:0:0:0:
335,221,77827,1,8,0:0:0:0:
282,223,77977,1,0,0:0:0:0:
282,223,78127,1,8,0:0:0:0:
168,136,78277,1,4,0:0:0:0:
316,152,79327,1,8,0:0:0:0:
296,144,79402,1,8,0:0:0:0:
316,152,79477,1,8,0:0:0:0:
338,140,79627,1,4,0:0:0:0:
308,230,79927,1,8,0:0:0:0:
308,230,80077,1,8,0:0:0:0:
308,230,80227,1,0,0:0:0:0:
308,230,80377,1,0,0:0:0:0:
308,230,80527,1,8,0:0:0:0:
279,212,80677,1,0,0:0:0:0:
289,305,80977,1,0,0:0:0:0:
289,305,81127,1,8,0:0:0:0:
239,243,81277,1,8,0:0:0:0:
224,242,81427,1,0,0:0:0:0:
188,145,81577,1,0,0:0:0:0:
188,145,81652,1,0,0:0:0:0:
188,145,81727,1,8,0:0:0:0:
316,185,81877,1,8,0:0:0:0:
297,194,82027,1,0,0:0:0:0:
269,234,82327,1,8,0:0:0:0:
269,234,82477,1,8,0:0:0:0:
269,234,82627,1,0,0:0:0:0:
269,234,82777,1,0,0:0:0:0:
269,234,82927,1,8,0:0:0:0:
269,234,83077,1,0,0:0:0:0:
250,271,83377,1,0,0:0:0:0:
250,271,83527,1,8,0:0:0:0:
302,213,83677,1,8,0:0:0:0:
217,204,83827,1,0,0:0:0:0:
287,264,83977,1,0,0:0:0:0:
245,253,84052,1,0,0:0:0:0:
237,249,84127,1,8,0:0:0:0:
233,247,84277,1,0,0:0:0:0:
233,247,84427,1,8,0:0:0:0:
327,225,84727,1,0,0:0:0:0:
185,238,84877,1,0,0:0:0:0:
185,238,85027,1,8,0:0:0:0:
185,238,85177,1,8,0:0:0:0:
167,232,85327,1,0,0:0:0:0:
167,232,85477,1,8,0:0:0:0:
356,215,85777,1,0,0:0:0:0:
356,215,85927,1,8,0:0:0:0:
356,215,86077,1,8,0:0:0:0:
348,214,86227,1,0,0:0:0:0:
348,214,86377,1,0,0:0:0:0:
336,206,86452,1,0,0:0:0:0:
310,204,86527,1,8,0:0:0:0:
310,204,86677,1,0,0:0:0:0:
310,204,86827,1,8,0:0:0:0:
314,205,87127,1,8,0:0:0:0:
310,204,87277,1,0,0:0:0:0:
310,204,87427,1,8,0:0:0:0:
310,204,87577,1,0,0:0:0:0:
251,140,87652,1,0,0:0:0:0:
239,132,87727,1,8,0:0:0:0:
300,204,87802,1,0,0:0:0:0:
300,204,87877,1,8,0:0:0:0:
365,246,89227,1,4,0:0:0:0:
329,232,89527,1,8,0:0:0:0:
329,232,89677,1,8,0:0:0:0:
323,224,89827,1,0,0:0:0:0:
323,224,89977,1,0,0:0:0:0:
323,224,90127,1,8,0:0:0:0:
314,219,90427,1,0,0:0:0:0:
314,221,90577,1,0,0:0:0:0:
310,228,90727,1,8,0:0:0:0:
282,234,90877,1,0,0:0:0:0:
282,234,91027,1,8,0:0:0:0:
282,234,91177,1,8,0:0:0:0:
282,234,91327,1,0,0:0:0:0:
271,231,91627,1,8,0:0:0:0:
259,233,91777,1,0,0:0:0:0:
186,227,91927,1,8,0:0:0:0:
186,227,92077,1,8,0:0:0:0:
294,234,92227,1,0,0:0:0:0:
318,258,92377,1,0,0:0:0:0:
340,253,92527,1,8,0:0:0:0:
340,253,92677,1,8,0:0:0:0:
340,253,92827,1,0,0:0:0:0:
349,212,93127,1,8,0:0:0:0:
349,212,93427,1,0,0:0:0:0:
349,212,93727,1,8,0:0:0:0:
349,212,94027,1,0,0:0:0:0:
355,211,94177,1,0,0:0:0:0:
352,217,94327,1,8,0:0:0:0:
378,215,94627,1,0,0:0:0:0:
378,215,94777,1,8,0:0:0:0:
367,214,94927,1,8,0:0:0:0:
361,214,95077,1,0,0:0:0:0:
360,215,95227,1,8,0:0:0:0:
264,173,95527,1,8,0:0:0:0:
250,294,95677,1,0,0:0:0:0:
212,235,95827,1,8,0:0:0:0:
264,179,95977,1,8,0:0:0:0:
247,195,96127,1,0,0:0:0:0:
247,195,96277,1,8,0:0:0:0:
247,195,96427,1,0,0:0:0:0:
304,185,96577,1,0,0:0:0:0:
306,195,96727,1,8,0:0:0:0:
306,195,96877,1,0,0:0:0:0:
253,178,97027,1,8,0:0:0:0:
253,178,97177,1,8,0:0:0:0:
341,190,97327,1,0,0:0:0:0:
293,178,97477,1,8,0:0:0:0:
293,178,97627,1,0,0:0:0:0:
393,162,97927,1,8,0:0:0:0:
393,162,98227,1,0,0:0:0:0:
393,162,98527,1,8,0:0:0:0:
333,171,98602,1,8,0:0:0:0:
241,156,98677,1,8,0:0:0:0:
262,199,98827,1,4,0:0:0:0:
220,195,98977,1,0,0:0:0:0:
204,177,99052,1,0,0:0:0:0:
281,217,99127,1,8,0:0:0:0:
288,219,99277,1,0,0:0:0:0:
213,202,99427,1,12,0:0:0:0:
210,179,100027,1,0,0:0:0:0:
207,178,100177,1,8,0:0:0:0:
149,178,100252,1,8,0:0:0:0:
201,175,100327,1,8,0:0:0:0:
149,178,100477,1,0,0:0:0:0:
149,178,100627,1,8,0:0:0:0:
138,183,100777,1,0,0:0:0:0:
96,176,100852,1,0,0:0:0:0:
96,176,100927,1,8,0:0:0:0:
80,172,101002,1,8,0:0:0:0:
40,163,101077,1,0,0:0:0:0:
125,176,101227,1,4,0:0:0:0:
195,175,101377,1,0,0:0:0:0:
190,176,101452,1,0,0:0:0:0:
179,174,101527,1,8,0:0:0:0:
215,182,101677,1,0,0:0:0:0:
215,183,101827,1,12,0:0:0:0:
242,212,102427,1,0,0:0:0:0:
242,212,102577,1,8,0:0:0:0:
218,214,102652,1,8,0:0:0:0:
242,212,102727,1,8,0:0:0:0:
199,216,102877,1,0,0:0:0:0:
165,227,103027,1,8,0:0:0:0:
173,227,103102,1,8,0:0:0:0:
149,232,103177,1,0,0:0:0:0:
170,227,103252,1,0,0:0:0:0:
194,239,103327,1,8,0:0:0:0:
175,232,103477,1,8,0:0:0:0:
178,230,103627,1,4,0:0:0:0:
334,259,103777,1,0,0:0:0:0:
299,254,103852,1,0,0:0:0:0:
235,243,103927,1,8,0:0:0:0:
235,243,104077,1,0,0:0:0:0:
261,255,104227,1,12,0:0:0:0:
193,178,104377,1,0,0:0:0:0:
304,263,104527,1,8,0:0:0:0:
268,165,104602,1,8,0:0:0:0:
268,171,104677,1,8,0:0:0:0:
255,169,104827,1,4,0:0:0:0:
282,214,105127,1,8,0:0:0:0:
304,212,105277,1,0,0:0:0:0:
311,216,105427,1,8,0:0:0:0:
307,213,105502,1,8,0:0:0:0:
275,207,105577,1,0,0:0:0:0:
222,198,105652,1,0,0:0:0:0:
210,197,105727,1,8,0:0:0:0:
210,197,105877,1,8,0:0:0:0:
210,196,106027,1,4,0:0:0:0:
210,194,106327,1,4,0:0:0:0:
210,194,106627,1,12,0:0:0:0:
210,196,106927,1,12,0:0:0:0:
210,194,107227,1,4,0:0:0:0:
274,131,107827,1,8,0:0:0:0:
302,120,107902,1,8,0:0:0:0:
302,120,107977,1,8,0:0:0:0:
302,120,108052,1,8,0:0:0:0:
302,120,108127,1,8,0:0:0:0:
302,120,108277,1,8,0:0:0:0:
302,120,108427,1,4,0:0:0:0:
322,194,108577,1,8,0:0:0:0:
346,215,108877,1,0,0:0:0:0:
346,215,109027,1,8,0:0:0:0:
270,196,109177,1,0,0:0:0:0:
346,215,109327,1,0,0:0:0:0:
270,196,109477,1,8,0:0:0:0:
270,196,109777,1,0,0:0:0:0:
301,186,109927,1,8,0:0:0:0:
301,186,110077,1,8,0:0:0:0:
279,215,110152,1,8,0:0:0:0:
242,195,110227,1,0,0:0:0:0:
242,195,110377,1,0,0:0:0:0:
242,195,110527,1,8,0:0:0:0:
330,172,110827,1,4,0:0:0:0:
292,159,110977,1,8,0:0:0:0:
273,151,111277,1,0,0:0:0:0:
272,151,111427,1,8,0:0:0:0:
281,150,111577,1,0,0:0:0:0:
281,150,111727,1,0,0:0:0:0:
281,150,111877,1,8,0:0:0:0:
243,138,112177,1,0,0:0:0:0:
243,138,112327,1,8,0:0:0:0:
189,125,112477,1,8,0:0:0:0:
239,142,112552,1,8,0:0:0:0:
276,135,112627,1,8,0:0:0:0:
276,135,112777,1,0,0:0:0:0:
276,135,112927,1,8,0:0:0:0:
344,113,113227,1,4,0:0:0:0:
314,133,113377,1,8,0:0:0:0:
314,133,113677,1,0,0:0:0:0:
252,118,113827,1,8,0:0:0:0:
252,118,113977,1,0,0:0:0:0:
252,118,114127,1,0,0:0:0:0:
242,112,114277,1,8,0:0:0:0:
242,115,114577,1,0,0:0:0:0:
277,126,114727,1,8,0:0:0:0:
283,121,114877,1,8,0:0:0:0:
276,117,114952,1,8,0:0:0:0:
239,179,115027,1,0,0:0:0:0:
239,179,115177,1,0,0:0:0:0:
239,179,115327,1,8,0:0:0:0:
281,109,115627,1,4,0:0:0:0:
260,89,115777,1,8,0:0:0:0:
260,101,115927,1,0,0:0:0:0:
188,123,116077,1,0,0:0:0:0:
264,109,116227,1,8,0:0:0:0:
299,147,116527,1,0,0:0:0:0:
299,147,116677,1,8,0:0:0:0:
260,183,116827,1,0,0:0:0:0:
271,160,116977,1,8,0:0:0:0:
275,162,117127,1,8,0:0:0:0:
259,149,117277,1,0,0:0:0:0:
259,150,117427,1,8,0:0:0:0:
314,153,118027,1,4,0:0:0:0:
313,202,118327,1,8,0:0:0:0:
306,215,118477,1,0,0:0:0:0:
258,208,118552,1,0,0:0:0:0:
218,285,118627,1,8,0:0:0:0:
244,220,118777,1,8,0:0:0:0:
271,230,118927,1,0,0:0:0:0:
271,230,119077,1,8,0:0:0:0:
209,232,119152,1,8,0:0:0:0:
234,274,119227,1,0,0:0:0:0:
243,98,119377,1,0,0:0:0:0:
243,98,119527,1,8,0:0:0:0:
363,280,119677,1,0,0:0:0:0:
282,225,119752,1,0,0:0:0:0:
218,158,119827,1,0,0:0:0:0:
218,158,119977,1,0,0:0:0:0:
218,158,120127,1,8,0:0:0:0:
193,180,120277,1,0,0:0:0:0:
204,190,120427,1,12,0:0:0:0:
205,258,120727,1,0,0:0:0:0:
288,274,120877,1,8,0:0:0:0:
189,257,120952,1,8,0:0:0:0:
246,301,121027,1,8,0:0:0:0:
291,202,121177,1,8,0:0:0:0:
230,206,121327,1,0,0:0:0:0:
219,213,121477,1,8,0:0:0:0:
133,225,121552,1,8,0:0:0:0:
376,242,121627,1,0,0:0:0:0:
376,242,121777,1,0,0:0:0:0:
212,214,121927,1,8,0:0:0:0:
288,292,122077,1,0,0:0:0:0:
205,275,122152,1,0,0:0:0:0:
237,283,122227,1,8,0:0:0:0:
199,273,122302,1,8,0:0:0:0:
197,272,122377,1,0,0:0:0:0:
222,228,122527,1,8,0:0:0:0:
263,172,122677,1,0,0:0:0:0:
263,172,122827,1,4,0:0:0:0:
346,161,123127,1,8,0:0:0:0:
336,163,123277,1,0,0:0:0:0:
269,158,123352,1,0,0:0:0:0:
288,255,123427,1,8,0:0:0:0:
268,249,123577,1,8,0:0:0:0:
291,298,123727,1,0,0:0:0:0:
316,259,123877,1,8,0:0:0:0:
301,245,123952,1,8,0:0:0:0:
276,235,124027,1,0,0:0:0:0:
312,205,124177,1,0,0:0:0:0:
312,205,124327,1,8,0:0:0:0:
340,264,124477,1,0,0:0:0:0:
302,251,124552,1,0,0:0:0:0:
340,264,124627,1,0,0:0:0:0:
302,251,124777,1,0,0:0:0:0:
285,245,124927,1,8,0:0:0:0:
231,186,125227,1,0,0:0:0:0:
280,218,125377,1,0,0:0:0:0:
214,148,125452,1,0,0:0:0:0:
214,148,125527,1,8,0:0:0:0:
214,148,125677,1,0,0:0:0:0:
214,148,125827,1,8,0:0:0:0:
279,270,125902,1,0,0:0:0:0:
214,148,125977,1,8,0:0:0:0:
194,110,126052,1,8,0:0:0:0:
194,110,126127,1,0,0:0:0:0:
214,148,126277,1,8,0:0:0:0:
321,170,126427,1,0,0:0:0:0:
296,172,126502,1,0,0:0:0:0:
321,170,126577,1,0,0:0:0:0:
296,172,126727,1,8,0:0:0:0:
184,157,126802,1,0,0:0:0:0:
190,137,126877,1,0,0:0:0:0:
190,153,127027,1,8,0:0:0:0:
190,195,127102,1,8,0:0:0:0:
177,190,127177,1,0,0:0:0:0:
202,172,127252,1,0,0:0:0:0:
234,173,127327,1,8,0:0:0:0:
266,167,127627,1,4,0:0:0:0:
297,173,127927,1,8,0:0:0:0:
297,173,128077,1,0,0:0:0:0:
288,171,128152,1,0,0:0:0:0:
196,165,128227,1,8,0:0:0:0:
313,200,128377,1,8,0:0:0:0:
301,164,128527,1,0,0:0:0:0:
301,164,128677,1,8,0:0:0:0:
315,170,128752,1,8,0:0:0:0:
313,169,128827,1,8,0:0:0:0:
276,167,128977,1,0,0:0:0:0:
276,167,129127,1,8,0:0:0:0:
276,167,129277,1,8,0:0:0:0:
267,170,129427,1,0,0:0:0:0:
267,170,129502,1,0,0:0:0:0:
276,167,129577,1,0,0:0:0:0:
234,166,129652,1,0,0:0:0:0:
254,158,129727,1,8,0:0:0:0:
144,175,129877,1,0,0:0:0:0:
161,176,130027,1,12,0:0:0:0:
363,167,130327,1,0,0:0:0:0:
306,248,130477,1,8,0:0:0:0:
199,226,130552,1,8,0:0:0:0:
306,248,130627,1,8,0:0:0:0:
199,226,130777,1,8,0:0:0:0:
164,210,130927,1,0,0:0:0:0:
222,173,131077,1,8,0:0:0:0:
222,173,131152,1,8,0:0:0:0:
106,149,131227,1,0,0:0:0:0:
282,148,131377,1,0,0:0:0:0:
282,148,131527,1,8,0:0:0:0:
282,148,131677,1,0,0:0:0:0:
216,131,131752,1,0,0:0:0:0:
202,127,131827,1,8,0:0:0:0:
204,128,131902,1,8,0:0:0:0:
205,128,131977,1,0,0:0:0:0:
205,128,132127,1,8,0:0:0:0:
206,128,132277,1,0,0:0:0:0:
185,126,132427,1,4,0:0:0:0:
249,242,132727,1,8,0:0:0:0:
295,213,132877,1,0,0:0:0:0:
233,189,132952,1,0,0:0:0:0:
80,183,133027,1,8,0:0:0:0:
238,171,133177,1,8,0:0:0:0:
238,171,133327,1,0,0:0:0:0:
245,174,133477,1,8,0:0:0:0:
241,172,133552,1,8,0:0:0:0:
238,171,133627,1,0,0:0:0:0:
238,171,133777,1,0,0:0:0:0:
240,171,133927,1,8,0:0:0:0:
278,191,134077,1,8,0:0:0:0:
238,171,134227,1,0,0:0:0:0:
238,171,134302,1,0,0:0:0:0:
178,129,134377,1,0,0:0:0:0:
178,129,134452,1,0,0:0:0:0:
178,129,134527,1,8,0:0:0:0:
281,223,134827,1,0,0:0:0:0:
336,226,134977,1,0,0:0:0:0:
268,209,135052,1,0,0:0:0:0:
336,199,135127,1,8,0:0:0:0:
336,199,135277,1,0,0:0:0:0:
336,199,135427,1,8,0:0:0:0:
336,199,135502,1,8,0:0:0:0:
274,194,135577,1,0,0:0:0:0:
262,192,135652,1,0,0:0:0:0:
275,182,135727,1,8,0:0:0:0:
275,182,135877,1,8,0:0:0:0:
298,226,136027,1,0,0:0:0:0:
302,221,136102,1,0,0:0:0:0:
303,212,136177,1,0,0:0:0:0:
286,191,136327,1,8,0:0:0:0:
249,174,136402,1,0,0:0:0:0:
221,169,136477,1,0,0:0:0:0:
249,174,136627,1,8,0:0:0:0:
262,158,136702,1,8,0:0:0:0:
262,158,136777,1,0,0:0:0:0:
262,158,136852,1,0,0:0:0:0:
262,158,136927,1,8,0:0:0:0:
330,232,137002,1,8,0:0:0:0:
330,232,137077,1,8,0:0:0:0:
313,202,137527,1,12,0:0:0:0:
306,215,137677,1,0,0:0:0:0:
258,208,137752,1,0,0:0:0:0:
218,285,137827,1,8,0:0:0:0:
244,220,137977,1,8,0:0:0:0:
271,230,138127,1,0,0:0:0:0:
271,230,138277,1,8,0:0:0:0:
209,232,138352,1,8,0:0:0:0:
234,274,138427,1,0,0:0:0:0:
298,238,138502,1,0,0:0:0:0:
243,98,138577,1,0,0:0:0:0:
243,98,138727,1,8,0:0:0:0:
363,280,138877,1,0,0:0:0:0:
282,225,138952,1,0,0:0:0:0:
218,158,139027,1,0,0:0:0:0:
218,158,139177,1,0,0:0:0:0:
218,158,139327,1,8,0:0:0:0:
193,180,139477,1,0,0:0:0:0:
204,190,139627,1,12,0:0:0:0:
205,258,139927,1,0,0:0:0:0:
288,274,140077,1,8,0:0:0:0:
189,257,140152,1,8,0:0:0:0:
246,301,140227,1,8,0:0:0:0:
291,202,140377,1,8,0:0:0:0:
230,206,140527,1,0,0:0:0:0:
219,213,140677,1,8,0:0:0:0:
133,225,140752,1,8,0:0:0:0:
376,242,140827,1,0,0:0:0:0:
182,258,140902,1,0,0:0:0:0:
186,250,140977,1,8,0:0:0:0:
272,272,141127,1,0,0:0:0:0:
312,241,141277,1,8,0:0:0:0:
205,275,141352,1,0,0:0:0:0:
237,283,141427,1,8,0:0:0:0:
199,273,141502,1,8,0:0:0:0:
197,272,141577,1,0,0:0:0:0:
222,228,141727,1,8,0:0:0:0:
263,172,141877,1,0,0:0:0:0:
263,172,142027,1,4,0:0:0:0:
346,161,142327,1,8,0:0:0:0:
336,163,142477,1,0,0:0:0:0:
269,158,142552,1,0,0:0:0:0:
288,255,142627,1,8,0:0:0:0:
268,249,142777,1,8,0:0:0:0:
291,298,142927,1,0,0:0:0:0:
316,259,143077,1,8,0:0:0:0:
301,245,143152,1,8,0:0:0:0:
276,235,143227,1,0,0:0:0:0:
310,224,143302,1,0,0:0:0:0:
312,205,143377,1,0,0:0:0:0:
312,205,143527,1,8,0:0:0:0:
340,264,143677,1,0,0:0:0:0:
302,251,143752,1,0,0:0:0:0:
340,264,143827,1,0,0:0:0:0:
302,251,143977,1,0,0:0:0:0:
285,245,144127,1,8,0:0:0:0:
231,186,144427,1,0,0:0:0:0:
280,218,144577,1,0,0:0:0:0:
214,148,144727,1,8,0:0:0:0:
348,201,144802,1,8,0:0:0:0:
214,148,144877,1,0,0:0:0:0:
214,148,144952,1,0,0:0:0:0:
214,148,145027,1,8,0:0:0:0:
214,148,145177,1,0,0:0:0:0:
214,148,145327,1,8,0:0:0:0:
214,148,145477,1,8,0:0:0:0:
321,170,145627,1,0,0:0:0:0:
296,172,145702,1,0,0:0:0:0:
321,170,145777,1,0,0:0:0:0:
296,172,145927,1,8,0:0:0:0:
184,157,146002,1,0,0:0:0:0:
190,137,146077,1,0,0:0:0:0:
190,153,146227,1,8,0:0:0:0:
190,195,146302,1,8,0:0:0:0:
177,190,146377,1,0,0:0:0:0:
202,172,146452,1,0,0:0:0:0:
234,173,146527,1,8,0:0:0:0:
321,199,146602,1,8,0:0:0:0:
289,206,146677,1,8,0:0:0:0:
266,167,146827,1,4,0:0:0:0:
297,173,147127,1,8,0:0:0:0:
297,173,147277,1,0,0:0:0:0:
288,171,147352,1,0,0:0:0:0:
196,165,147427,1,8,0:0:0:0:
313,200,147577,1,8,0:0:0:0:
301,164,147727,1,0,0:0:0:0:
301,164,147877,1,8,0:0:0:0:
346,267,147952,1,0,0:0:0:0:
352,274,148027,1,8,0:0:0:0:
315,258,148102,1,8,0:0:0:0:
276,167,148177,1,0,0:0:0:0:
276,167,148327,1,8,0:0:0:0:
276,167,148477,1,8,0:0:0:0:
267,170,148627,1,0,0:0:0:0:
267,170,148702,1,0,0:0:0:0:
276,167,148777,1,0,0:0:0:0:
234,166,148852,1,0,0:0:0:0:
254,158,148927,1,8,0:0:0:0:
144,175,149077,1,0,0:0:0:0:
161,176,149227,1,12,0:0:0:0:
363,167,149527,1,0,0:0:0:0:
306,248,149677,1,8,0:0:0:0:
199,226,149752,1,8,0:0:0:0:
306,248,149827,1,8,0:0:0:0:
199,226,149977,1,8,0:0:0:0:
164,210,150127,1,0,0:0:0:0:
222,173,150277,1,8,0:0:0:0:
222,173,150352,1,8,0:0:0:0:
106,149,150427,1,0,0:0:0:0:
270,215,150502,1,0,0:0:0:0:
282,148,150577,1,0,0:0:0:0:
282,148,150727,1,8,0:0:0:0:
282,148,150877,1,0,0:0:0:0:
216,131,150952,1,0,0:0:0:0:
202,127,151027,1,8,0:0:0:0:
204,128,151102,1,8,0:0:0:0:
205,128,151177,1,0,0:0:0:0:
205,128,151327,1,8,0:0:0:0:
206,128,151477,1,0,0:0:0:0:
185,126,151627,1,4,0:0:0:0:
249,242,151927,1,8,0:0:0:0:
295,213,152077,1,0,0:0:0:0:
233,189,152152,1,0,0:0:0:0:
80,183,152227,1,8,0:0:0:0:
238,171,152377,1,8,0:0:0:0:
238,171,152527,1,0,0:0:0:0:
245,174,152677,1,8,0:0:0:0:
231,279,152752,1,0,0:0:0:0:
192,271,152827,1,8,0:0:0:0:
183,257,152902,1,8,0:0:0:0:
269,269,152977,1,0,0:0:0:0:
248,256,153127,1,8,0:0:0:0:
245,259,153277,1,8,0:0:0:0:
320,307,153427,1,0,0:0:0:0:
337,288,153502,1,0,0:0:0:0:
178,129,153577,1,0,0:0:0:0:
178,129,153652,1,0,0:0:0:0:
178,129,153727,1,8,0:0:0:0:
281,223,154027,1,0,0:0:0:0:
336,226,154177,1,0,0:0:0:0:
268,209,154252,1,0,0:0:0:0:
336,199,154327,1,8,0:0:0:0:
217,259,154402,1,0,0:0:0:0:
336,199,154477,1,8,0:0:0:0:
336,199,154627,1,0,0:0:0:0:
336,199,154702,1,8,0:0:0:0:
274,194,154777,1,0,0:0:0:0:
262,192,154852,1,0,0:0:0:0:
275,182,154927,1,8,0:0:0:0:
275,182,155077,1,8,0:0:0:0:
298,226,155227,1,0,0:0:0:0:
302,221,155302,1,0,0:0:0:0:
303,212,155377,1,0,0:0:0:0:
286,191,155527,1,8,0:0:0:0:
249,174,155602,1,0,0:0:0:0:
221,169,155677,1,0,0:0:0:0:
249,174,155827,1,8,0:0:0:0:
262,158,155902,1,8,0:0:0:0:
262,158,155977,1,0,0:0:0:0:
262,158,156052,1,0,0:0:0:0:
262,158,156127,1,8,0:0:0:0:
287,237,156202,1,8,0:0:0:0:
263,233,156277,1,8,0:0:0:0:
238,200,156427,1,4,0:0:0:0:
326,220,156577,1,0,0:0:0:0:
326,220,156727,1,8,0:0:0:0:
335,221,156877,1,0,0:0:0:0:
214,242,156952,1,0,0:0:0:0:
335,221,157027,1,8,0:0:0:0:
282,223,157177,1,0,0:0:0:0:
282,223,157327,1,8,0:0:0:0:
168,136,157477,1,4,0:0:0:0:
340,227,158527,1,8,0:0:0:0:
263,207,158602,1,8,0:0:0:0:
340,227,158677,1,8,0:0:0:0:
295,213,158827,1,4,0:0:0:0:
308,230,159127,1,8,0:0:0:0:
308,230,159277,1,8,0:0:0:0:
308,230,159427,1,0,0:0:0:0:
308,230,159577,1,0,0:0:0:0:
308,230,159727,1,8,0:0:0:0:
279,212,159877,1,0,0:0:0:0:
289,305,160177,1,0,0:0:0:0:
289,305,160327,1,8,0:0:0:0:
239,243,160477,1,8,0:0:0:0:
224,242,160627,1,0,0:0:0:0:
188,145,160777,1,0,0:0:0:0:
188,145,160852,1,0,0:0:0:0:
188,145,160927,1,8,0:0:0:0:
316,185,161077,1,8,0:0:0:0:
297,194,161227,1,0,0:0:0:0:
269,234,161527,1,8,0:0:0:0:
269,234,161677,1,8,0:0:0:0:
269,234,161827,1,0,0:0:0:0:
269,234,161977,1,0,0:0:0:0:
269,234,162127,1,8,0:0:0:0:
269,234,162277,1,0,0:0:0:0:
250,271,162577,1,0,0:0:0:0:
250,271,162727,1,8,0:0:0:0:
302,213,162877,1,8,0:0:0:0:
217,204,163027,1,0,0:0:0:0:
287,264,163177,1,0,0:0:0:0:
245,253,163252,1,0,0:0:0:0:
237,249,163327,1,8,0:0:0:0:
233,247,163477,1,0,0:0:0:0:
233,247,163627,1,8,0:0:0:0:
327,225,163927,1,0,0:0:0:0:
185,238,164077,1,0,0:0:0:0:
185,238,164227,1,8,0:0:0:0:
185,238,164377,1,8,0:0:0:0:
167,232,164527,1,0,0:0:0:0:
167,232,164677,1,8,0:0:0:0:
356,215,164977,1,0,0:0:0:0:
356,215,165127,1,8,0:0:0:0:
356,215,165277,1,8,0:0:0:0:
348,214,165427,1,0,0:0:0:0:
348,214,165577,1,0,0:0:0:0:
336,206,165652,1,0,0:0:0:0:
310,204,165727,1,8,0:0:0:0:
310,204,165877,1,0,0:0:0:0:
310,204,166027,1,8,0:0:0:0:
314,205,166327,1,8,0:0:0:0:
310,204,166477,1,0,0:0:0:0:
310,204,166627,1,8,0:0:0:0:
310,204,166777,1,8,0:0:0:0:
310,204,166927,1,0,0:0:0:0:
300,204,167077,1,8,0:0:0:0:
300,204,167227,1,0,0:0:0:0:
296,202,167377,1,0,0:0:0:0:
276,202,167527,1,8,0:0:0:0:
272,192,167677,1,0,0:0:0:0:
271,193,167827,1,0,0:0:0:0:
256,193,167902,1,0,0:0:0:0:
271,193,167977,1,0,0:0:0:0:
256,193,168052,1,0,0:0:0:0:
251,192,168127,1,8,0:0:0:0:
84,243,168277,1,8,0:0:0:0:
255,190,168427,1,4,0:0:0:0:
308,230,168727,1,8,0:0:0:0:
308,230,168877,1,8,0:0:0:0:
308,230,169027,1,0,0:0:0:0:
308,230,169177,1,0,0:0:0:0:
308,230,169327,1,8,0:0:0:0:
279,212,169477,1,0,0:0:0:0:
289,305,169777,1,0,0:0:0:0:
289,305,169927,1,8,0:0:0:0:
239,243,170077,1,8,0:0:0:0:
224,242,170227,1,0,0:0:0:0:
188,145,170377,1,0,0:0:0:0:
188,145,170452,1,0,0:0:0:0:
188,145,170527,1,8,0:0:0:0:
316,185,170677,1,8,0:0:0:0:
297,194,170827,1,0,0:0:0:0:
269,234,171127,1,8,0:0:0:0:
269,234,171277,1,8,0:0:0:0:
269,234,171427,1,0,0:0:0:0:
269,234,171577,1,0,0:0:0:0:
269,234,171727,1,8,0:0:0:0:
269,234,171877,1,0,0:0:0:0:
250,271,172177,1,0,0:0:0:0:
250,271,172327,1,8,0:0:0:0:
302,213,172477,1,8,0:0:0:0:
217,204,172627,1,0,0:0:0:0:
287,264,172777,1,0,0:0:0:0:
245,253,172852,1,0,0:0:0:0:
237,249,172927,1,8,0:0:0:0:
233,247,173077,1,0,0:0:0:0:
233,247,173227,1,8,0:0:0:0:
327,225,173527,1,0,0:0:0:0:
185,238,173677,1,0,0:0:0:0:
185,238,173827,1,8,0:0:0:0:
185,238,173977,1,8,0:0:0:0:
167,232,174127,1,0,0:0:0:0:
167,232,174277,1,8,0:0:0:0:
356,215,174577,1,0,0:0:0:0:
356,215,174727,1,8,0:0:0:0:
356,215,174877,1,8,0:0:0:0:
348,214,175027,1,0,0:0:0:0:
348,214,175177,1,0,0:0:0:0:
336,206,175252,1,0,0:0:0:0:
310,204,175327,1,8,0:0:0:0:
310,204,175477,1,0,0:0:0:0:
310,204,175627,1,8,0:0:0:0:
314,205,175927,1,8,0:0:0:0:
310,204,176077,1,0,0:0:0:0:
310,204,176227,1,8,0:0:0:0:
310,204,176377,1,8,0:0:0:0:
310,204,176527,1,0,0:0:0:0:
300,204,176677,1,8,0:0:0:0:
300,204,176827,1,0,0:0:0:0:
296,202,176977,1,0,0:0:0:0:
276,202,177127,1,8,0:0:0:0:
272,192,177277,1,0,0:0:0:0:
271,193,177427,1,0,0:0:0:0:
256,193,177502,1,0,0:0:0:0:
271,193,177577,1,0,0:0:0:0:
256,193,177652,1,0,0:0:0:0:
251,192,177727,1,8,0:0:0:0:
274,206,177877,1,8,0:0:0:0:
149,187,178027,1,0,0:0:0:0:
320,160,178177,1,4,0:0:0:0:
320,160,178327,1,12,0:0:0:0:
320,128,178477,1,4,0:0:0:0:
288,160,178777,1,12,0:0:0:0:
288,160,178927,1,4,0:0:0:0:
288,128,179077,1,12,0:0:0:0:
