osu file format v14

[General]
AudioFilename: audio.mp3
AudioLeadIn: 0
PreviewTime: 117577
Countdown: 1
SampleSet: Normal
StackLeniency: 0.7
Mode: 1
LetterboxInBreaks: 0
WidescreenStoryboard: 1

[Editor]
Bookmarks: 10027,29227,48427,58027,79627,89227,98827,108427,118027,137227,158827
DistanceSpacing: 0.8
BeatDivisor: 4
GridSize: 32
TimelineZoom: 1.700001

[Metadata]
Title:Mousou Kajitsu
TitleUnicode:妄想果実
Artist:Nanaki feat.GUMI
ArtistUnicode:七希 feat.GUMI
Creator:Chromoxx
Version:Kantan
Source:
Tags:GUMI vocaloid Tomisaka hardcore Fancies Fruit diva megpoid トミサカ
BeatmapID:1279291
BeatmapSetID:602993

[Difficulty]
HPDrainRate:8
CircleSize:5
OverallDifficulty:4
ApproachRate:5
SliderMultiplier:1.2
SliderTickRate:1

[Events]
//Background and Video events
0,0,"EXyGpu1.jpg",0,100
Video,43,"kajitsu.avi"
//Break Periods
//Storyboard Layer 0 (Background)
//Storyboard Layer 1 (Fail)
//Storyboard Layer 2 (Pass)
//Storyboard Layer 3 (Foreground)
//Storyboard Sound Samples

[TimingPoints]
427,300,4,1,0,90,1,0
7627,-100,4,1,0,60,0,0
9952,-100,4,1,0,90,0,0
58027,-100,4,1,0,100,0,1
79627,-100,4,1,0,100,0,0
79777,-100,4,1,0,90,0,0
88027,-100,4,1,0,60,0,0
89152,-100,4,1,0,90,0,0
118027,-100,4,1,0,100,0,1
137227,-100,4,1,0,100,0,0
137527,-100,4,1,0,100,0,1
158827,-100,4,1,0,100,0,0

[HitObjects]
311,227,427,5,4,0:0:0:0:
256,224,1027,1,8,0:0:0:0:
416,288,1927,1,0,0:0:0:0:
416,288,2227,1,8,0:0:0:0:
416,288,2827,1,0,0:0:0:0:
224,192,3427,1,8,0:0:0:0:
288,224,4627,1,8,0:0:0:0:
288,224,4927,1,8,0:0:0:0:
288,224,5227,1,4,0:0:0:0:
224,192,5827,1,8,0:0:0:0:
288,224,6727,1,0,0:0:0:0:
288,224,7027,1,8,0:0:0:0:
288,192,7627,1,0,0:0:0:0:
320,224,10027,1,4,0:0:0:0:
224,160,10627,1,8,0:0:0:0:
224,160,11227,1,0,0:0:0:0:
224,160,11827,1,8,0:0:0:0:
224,160,12127,1,8,0:0:0:0:
224,160,12427,1,0,0:0:0:0:
224,160,13027,1,8,0:0:0:0:
224,160,13627,1,0,0:0:0:0:
224,160,14827,1,8,0:0:0:0:
224,160,15427,1,0,0:0:0:0:
224,160,16027,1,8,0:0:0:0:
224,160,16627,1,0,0:0:0:0:
224,160,16927,1,0,0:0:0:0:
224,160,17227,1,8,0:0:0:0:
224,160,17827,1,0,0:0:0:0:
224,160,18427,1,8,0:0:0:0:
224,160,19627,1,4,0:0:0:0:
288,160,20227,1,8,0:0:0:0:
288,128,20827,1,0,0:0:0:0:
288,128,21427,1,8,0:0:0:0:
288,128,21727,1,8,0:0:0:0:
288,128,22027,1,0,0:0:0:0:
288,128,22627,1,8,0:0:0:0:
288,128,23227,1,0,0:0:0:0:
288,128,24427,1,8,0:0:0:0:
288,128,25027,1,0,0:0:0:0:
288,128,25627,1,8,0:0:0:0:
288,128,26227,1,0,0:0:0:0:
288,128,26527,1,0,0:0:0:0:
288,128,26827,1,8,0:0:0:0:
288,128,27427,1,0,0:0:0:0:
288,128,28027,1,8,0:0:0:0:
256,160,29227,1,0,0:0:0:0:
256,160,29827,1,8,0:0:0:0:
256,160,30427,1,0,0:0:0:0:
256,160,31027,1,0,0:0:0:0:
256,160,31627,1,8,0:0:0:0:
256,160,32227,1,8,0:0:0:0:
256,160,32827,1,0,0:0:0:0:
288,224,34027,1,0,0:0:0:0:
224,192,34627,1,8,0:0:0:0:
224,192,35227,1,8,0:0:0:0:
224,192,35827,1,0,0:0:0:0:
224,192,36427,1,8,0:0:0:0:
224,192,37027,1,8,0:0:0:0:
224,192,37627,1,0,0:0:0:0:
288,160,38827,1,4,0:0:0:0:
320,192,39427,1,8,0:0:0:0:
320,192,40027,1,0,0:0:0:0:
320,192,40627,1,0,0:0:0:0:
320,192,41227,1,8,0:0:0:0:
320,192,41827,1,8,0:0:0:0:
320,192,42427,1,0,0:0:0:0:
320,192,43627,1,8,0:0:0:0:
320,192,44227,1,0,0:0:0:0:
320,192,44827,1,8,0:0:0:0:
320,192,45427,1,8,0:0:0:0:
320,192,46027,1,0,0:0:0:0:
320,192,46627,1,8,0:0:0:0:
320,192,47227,1,0,0:0:0:0:
320,224,48427,1,4,0:0:0:0:
256,160,49027,1,8,0:0:0:0:
320,224,49627,1,0,0:0:0:0:
320,224,49927,1,0,0:0:0:0:
320,224,50227,1,8,0:0:0:0:
256,224,50827,1,4,0:0:0:0:
320,224,51427,1,8,0:0:0:0:
288,224,52027,1,8,0:0:0:0:
288,224,52327,1,0,0:0:0:0:
224,224,52627,1,8,0:0:0:0:
192,128,53227,1,4,0:0:0:0:
320,224,54427,1,4,0:0:0:0:
320,224,55027,1,12,0:0:0:0:
320,224,55627,1,4,0:0:0:0:
320,224,56227,1,12,0:0:0:0:
320,224,56527,1,12,0:0:0:0:
320,224,56827,1,4,0:0:0:0:
96,160,57427,2,8,L|128:160,4,30
256,192,58027,1,4,0:0:0:0:
224,192,58627,1,8,0:0:0:0:
320,192,59227,1,0,0:0:0:0:
320,192,59527,1,0,0:0:0:0:
320,192,59827,1,8,0:0:0:0:
320,192,60427,1,0,0:0:0:0:
320,192,61027,1,8,0:0:0:0:
320,192,61627,1,0,0:0:0:0:
320,192,61927,1,8,0:0:0:0:
320,192,62227,1,0,0:0:0:0:
256,192,62827,1,8,0:0:0:0:
288,192,63427,1,0,0:0:0:0:
288,192,64027,1,8,0:0:0:0:
288,192,64327,1,8,0:0:0:0:
288,192,64627,1,0,0:0:0:0:
288,192,65227,1,8,0:0:0:0:
256,160,66427,1,12,0:0:0:0:
256,160,67027,1,12,0:0:0:0:
256,128,67627,1,4,0:0:0:0:
256,192,68227,1,8,0:0:0:0:
256,192,68827,1,0,0:0:0:0:
256,192,69127,1,0,0:0:0:0:
256,192,69427,1,8,0:0:0:0:
256,192,70027,1,0,0:0:0:0:
256,192,70627,1,8,0:0:0:0:
256,192,71227,1,0,0:0:0:0:
256,192,71527,1,8,0:0:0:0:
256,192,71827,1,0,0:0:0:0:
256,192,72427,1,8,0:0:0:0:
256,192,73027,1,0,0:0:0:0:
256,192,73627,1,8,0:0:0:0:
256,192,73927,1,8,0:0:0:0:
256,192,74227,1,0,0:0:0:0:
256,192,74827,1,8,0:0:0:0:
288,224,75127,1,0,0:0:0:0:
288,224,75427,1,8,0:0:0:0:
224,192,76027,1,0,0:0:0:0:
256,224,76627,1,8,0:0:0:0:
256,192,77227,1,4,0:0:0:0:
256,128,78277,1,12,0:0:0:0:
192,128,79627,1,4,0:0:0:0:
224,160,80227,1,8,0:0:0:0:
224,160,80827,1,0,0:0:0:0:
224,160,81427,1,8,0:0:0:0:
224,160,81727,1,8,0:0:0:0:
224,160,82027,1,0,0:0:0:0:
224,160,82627,1,8,0:0:0:0:
224,160,83227,1,0,0:0:0:0:
224,160,84427,1,8,0:0:0:0:
224,160,85027,1,0,0:0:0:0:
224,160,85627,1,8,0:0:0:0:
224,160,86227,1,0,0:0:0:0:
224,160,86527,1,0,0:0:0:0:
224,160,86827,1,8,0:0:0:0:
224,160,87427,1,0,0:0:0:0:
96,160,87727,1,8,0:0:0:0:
256,160,89227,1,0,0:0:0:0:
256,160,89827,1,8,0:0:0:0:
256,160,90427,1,0,0:0:0:0:
256,160,91027,1,0,0:0:0:0:
256,160,91627,1,8,0:0:0:0:
256,160,92227,1,8,0:0:0:0:
256,160,92827,1,0,0:0:0:0:
288,224,94027,1,0,0:0:0:0:
224,192,94627,1,8,0:0:0:0:
224,192,95227,1,8,0:0:0:0:
224,192,95827,1,0,0:0:0:0:
224,192,96427,1,8,0:0:0:0:
224,192,97027,1,8,0:0:0:0:
224,192,97627,1,0,0:0:0:0:
320,224,98827,1,4,0:0:0:0:
256,160,99427,1,8,0:0:0:0:
320,224,100027,1,0,0:0:0:0:
320,224,100327,1,0,0:0:0:0:
320,224,100627,1,8,0:0:0:0:
256,224,101227,1,4,0:0:0:0:
320,224,101827,1,8,0:0:0:0:
288,224,102427,1,8,0:0:0:0:
288,224,102727,1,0,0:0:0:0:
224,224,103027,1,8,0:0:0:0:
192,128,103627,1,4,0:0:0:0:
320,224,104827,1,4,0:0:0:0:
320,224,105427,1,12,0:0:0:0:
320,224,106027,1,4,0:0:0:0:
320,224,106627,1,12,0:0:0:0:
320,224,106927,1,12,0:0:0:0:
320,224,107227,1,4,0:0:0:0:
96,160,107827,2,8,L|128:160,4,30
256,192,108427,1,4,0:0:0:0:
224,192,109027,1,8,0:0:0:0:
224,192,109927,1,0,0:0:0:0:
224,192,110227,1,8,0:0:0:0:
128,160,110827,1,0,0:0:0:0:
288,192,111427,1,8,0:0:0:0:
288,192,112327,1,0,0:0:0:0:
288,192,112627,1,8,0:0:0:0:
128,128,113227,1,4,0:0:0:0:
320,192,113827,1,8,0:0:0:0:
320,160,114727,1,0,0:0:0:0:
320,160,115027,1,8,0:0:0:0:
320,160,115627,1,4,0:0:0:0:
256,160,116227,1,8,0:0:0:0:
256,160,116827,1,0,0:0:0:0:
256,192,118027,1,4,0:0:0:0:
224,192,118627,1,8,0:0:0:0:
320,192,119227,1,0,0:0:0:0:
320,192,119527,1,0,0:0:0:0:
320,192,119827,1,8,0:0:0:0:
320,192,120427,1,0,0:0:0:0:
320,192,121027,1,8,0:0:0:0:
320,192,121627,1,0,0:0:0:0:
320,192,121927,1,8,0:0:0:0:
320,192,122227,1,0,0:0:0:0:
256,192,122827,1,8,0:0:0:0:
288,192,123427,1,0,0:0:0:0:
288,192,124027,1,8,0:0:0:0:
288,192,124327,1,8,0:0:0:0:
288,192,124627,1,0,0:0:0:0:
288,192,125227,1,8,0:0:0:0:
256,160,126427,1,12,0:0:0:0:
256,160,127027,1,12,0:0:0:0:
256,128,127627,1,4,0:0:0:0:
256,192,128227,1,8,0:0:0:0:
256,192,128827,1,0,0:0:0:0:
256,192,129127,1,0,0:0:0:0:
256,192,129427,1,8,0:0:0:0:
256,192,130027,1,0,0:0:0:0:
256,192,130627,1,8,0:0:0:0:
256,192,131227,1,0,0:0:0:0:
256,192,131527,1,8,0:0:0:0:
256,192,131827,1,0,0:0:0:0:
256,192,132427,1,8,0:0:0:0:
256,192,133027,1,0,0:0:0:0:
256,192,133627,1,8,0:0:0:0:
256,192,133927,1,8,0:0:0:0:
256,192,134227,1,0,0:0:0:0:
256,192,134827,1,8,0:0:0:0:
288,224,135127,1,0,0:0:0:0:
288,224,135427,1,8,0:0:0:0:
224,192,136027,1,0,0:0:0:0:
256,224,136627,1,8,0:0:0:0:
128,160,137527,1,12,0:0:0:0:
96,96,138127,1,8,0:0:0:0:
320,192,138427,1,0,0:0:0:0:
256,160,138727,1,0,0:0:0:0:
320,192,139027,1,8,0:0:0:0:
320,192,139627,1,0,0:0:0:0:
320,192,140227,1,8,0:0:0:0:
320,192,140827,1,0,0:0:0:0:
320,192,141127,1,8,0:0:0:0:
320,192,141427,1,0,0:0:0:0:
256,192,142027,1,8,0:0:0:0:
288,192,142627,1,0,0:0:0:0:
288,192,143227,1,8,0:0:0:0:
288,192,143527,1,8,0:0:0:0:
288,192,143827,1,0,0:0:0:0:
288,192,144427,1,8,0:0:0:0:
256,160,145627,1,12,0:0:0:0:
256,160,146227,1,12,0:0:0:0:
256,128,146827,1,4,0:0:0:0:
256,192,147427,1,8,0:0:0:0:
256,192,148027,1,0,0:0:0:0:
256,192,148327,1,0,0:0:0:0:
256,192,148627,1,8,0:0:0:0:
256,192,149227,1,0,0:0:0:0:
256,192,149827,1,8,0:0:0:0:
256,192,150427,1,0,0:0:0:0:
256,192,150727,1,8,0:0:0:0:
256,192,151027,1,0,0:0:0:0:
256,192,151627,1,8,0:0:0:0:
256,192,152227,1,0,0:0:0:0:
256,192,152827,1,8,0:0:0:0:
256,192,153127,1,8,0:0:0:0:
256,192,153427,1,0,0:0:0:0:
256,192,154027,1,8,0:0:0:0:
288,224,154327,1,0,0:0:0:0:
288,224,154627,1,8,0:0:0:0:
224,192,155227,1,0,0:0:0:0:
256,224,155827,1,8,0:0:0:0:
256,192,156427,1,4,0:0:0:0:
256,128,157477,1,12,0:0:0:0:
320,224,158827,1,4,0:0:0:0:
224,160,159427,1,8,0:0:0:0:
224,160,160027,1,0,0:0:0:0:
224,160,160627,1,8,0:0:0:0:
224,160,160927,1,8,0:0:0:0:
224,160,161227,1,0,0:0:0:0:
224,160,161827,1,8,0:0:0:0:
224,160,162427,1,0,0:0:0:0:
224,160,163627,1,8,0:0:0:0:
224,160,164227,1,0,0:0:0:0:
224,160,164827,1,8,0:0:0:0:
224,160,165427,1,0,0:0:0:0:
224,160,165727,1,0,0:0:0:0:
224,160,166027,1,8,0:0:0:0:
224,160,166627,1,0,0:0:0:0:
224,160,167227,1,8,0:0:0:0:
224,160,168427,1,4,0:0:0:0:
288,160,169027,1,8,0:0:0:0:
288,128,169627,1,0,0:0:0:0:
288,128,170227,1,8,0:0:0:0:
288,128,170527,1,8,0:0:0:0:
288,128,170827,1,0,0:0:0:0:
288,128,171427,1,8,0:0:0:0:
288,128,172027,1,0,0:0:0:0:
288,128,173227,1,8,0:0:0:0:
288,128,173827,1,0,0:0:0:0:
288,128,174427,1,8,0:0:0:0:
288,128,175027,1,0,0:0:0:0:
288,128,175327,1,0,0:0:0:0:
288,128,175627,1,8,0:0:0:0:
288,128,176227,1,0,0:0:0:0:
288,128,176827,1,8,0:0:0:0:
288,192,177427,1,8,0:0:0:0:
256,160,178027,1,0,0:0:0:0:
256,256,178777,1,4,0:0:0:0:
256,256,179077,1,12,0:0:0:0:
