osu file format v14

[General]
AudioFilename: audio.mp3
AudioLeadIn: 0
PreviewTime: 117577
Countdown: 1
SampleSet: Normal
StackLeniency: 0.7
Mode: 1
LetterboxInBreaks: 0
WidescreenStoryboard: 1

[Editor]
Bookmarks: 10027,29227,48427,58027,79627,89227,98827,108427,118027,137227,158827
DistanceSpacing: 0.8
BeatDivisor: 4
GridSize: 32
TimelineZoom: 2.7

[Metadata]
Title:Mousou Kajitsu
TitleUnicode:妄想果実
Artist:Nanaki feat.GUMI
ArtistUnicode:七希 feat.GUMI
Creator:Chromoxx
Version:Inner Oni
Source:
Tags:GUMI vocaloid Tomisaka hardcore Fancies Fruit diva megpoid トミサカ
BeatmapID:1274287
BeatmapSetID:602993

[Difficulty]
HPDrainRate:6
CircleSize:5
OverallDifficulty:6.5
ApproachRate:5
SliderMultiplier:1.4
SliderTickRate:1

[Events]
//Background and Video events
0,0,"EXyGpu1.jpg",0,100
Video,43,"kajitsu.avi"
//Break Periods
//Storyboard Layer 0 (Background)
//Storyboard Layer 1 (Fail)
//Storyboard Layer 2 (Pass)
//Storyboard Layer 3 (Foreground)
//Storyboard Sound Samples

[TimingPoints]
427,300,4,1,0,90,1,0
7627,-100,4,1,0,60,0,0
9952,-100,4,1,0,90,0,0
58027,-100,4,1,0,100,0,1
79627,-100,4,1,0,100,0,0
79777,-100,4,1,0,90,0,0
88027,-100,4,1,0,60,0,0
89152,-100,4,1,0,90,0,0
118027,-100,4,1,0,100,0,1
137227,-100,4,1,0,100,0,0
137527,-100,4,1,0,100,0,1
158827,-100,4,1,0,100,0,0

[HitObjects]
256,192,427,5,4,0:0:0:0:
352,224,727,1,0,0:0:0:0:
352,224,877,1,0,0:0:0:0:
288,192,1027,1,8,0:0:0:0:
256,224,1177,1,0,0:0:0:0:
192,224,1252,1,0,0:0:0:0:
256,224,1327,1,0,0:0:0:0:
192,224,1477,1,8,0:0:0:0:
256,160,1777,1,0,0:0:0:0:
224,160,1927,1,8,0:0:0:0:
224,160,2077,1,0,0:0:0:0:
224,160,2152,1,0,0:0:0:0:
192,160,2227,1,8,0:0:0:0:
192,128,2377,1,0,0:0:0:0:
192,128,2527,1,8,0:0:0:0:
416,256,2827,1,4,0:0:0:0:
288,160,2977,1,0,0:0:0:0:
288,128,3127,1,8,0:0:0:0:
256,128,3277,1,0,0:0:0:0:
224,128,3427,1,8,0:0:0:0:
224,128,3577,1,0,0:0:0:0:
128,128,3652,1,0,0:0:0:0:
224,128,3727,1,0,0:0:0:0:
256,224,3877,1,8,0:0:0:0:
192,256,4177,1,0,0:0:0:0:
288,224,4327,1,8,0:0:0:0:
288,224,4477,1,0,0:0:0:0:
320,192,4627,1,8,0:0:0:0:
256,160,4702,1,8,0:0:0:0:
224,160,4777,1,0,0:0:0:0:
224,160,4852,1,0,0:0:0:0:
224,160,4927,1,8,0:0:0:0:
256,160,5002,1,0,0:0:0:0:
224,128,5077,1,8,0:0:0:0:
288,160,5227,1,4,0:0:0:0:
288,160,5527,1,0,0:0:0:0:
288,160,5677,1,0,0:0:0:0:
224,160,5827,1,8,0:0:0:0:
256,160,5977,1,0,0:0:0:0:
192,160,6052,1,0,0:0:0:0:
256,160,6127,1,0,0:0:0:0:
192,160,6277,1,8,0:0:0:0:
192,160,6577,1,0,0:0:0:0:
192,160,6727,1,8,0:0:0:0:
224,160,6877,1,0,0:0:0:0:
224,160,6952,1,0,0:0:0:0:
192,128,7027,1,8,0:0:0:0:
192,128,7177,1,0,0:0:0:0:
192,128,7327,1,8,0:0:0:0:
192,128,7627,1,0,0:0:0:0:
128,224,10027,1,4,0:0:0:0:
192,192,10327,1,8,0:0:0:0:
192,192,10477,1,8,0:0:0:0:
224,192,10627,1,0,0:0:0:0:
256,160,10702,1,0,0:0:0:0:
224,192,10777,1,0,0:0:0:0:
192,160,10927,1,8,0:0:0:0:
192,160,11077,1,0,0:0:0:0:
192,160,11377,1,0,0:0:0:0:
288,128,11527,1,8,0:0:0:0:
192,160,11677,1,0,0:0:0:0:
288,192,11827,1,8,0:0:0:0:
224,160,11902,1,8,0:0:0:0:
160,256,11977,1,0,0:0:0:0:
160,256,12052,1,0,0:0:0:0:
128,224,12127,1,8,0:0:0:0:
192,224,12277,1,0,0:0:0:0:
192,96,12427,1,8,0:0:0:0:
320,256,12577,1,0,0:0:0:0:
224,224,12652,1,0,0:0:0:0:
320,256,12727,1,0,0:0:0:0:
224,192,12877,1,8,0:0:0:0:
224,192,13027,1,0,0:0:0:0:
224,192,13177,1,0,0:0:0:0:
192,128,13327,1,8,0:0:0:0:
192,128,13477,1,0,0:0:0:0:
256,160,13777,1,0,0:0:0:0:
256,160,13927,1,8,0:0:0:0:
256,192,14077,1,0,0:0:0:0:
256,192,14227,1,8,0:0:0:0:
352,160,14377,1,0,0:0:0:0:
256,160,14452,1,0,0:0:0:0:
160,128,14527,1,8,0:0:0:0:
160,128,14602,1,8,0:0:0:0:
288,160,14677,1,0,0:0:0:0:
320,224,14827,1,8,0:0:0:0:
320,224,14977,1,0,0:0:0:0:
352,192,15127,1,0,0:0:0:0:
256,192,15277,1,8,0:0:0:0:
352,192,15427,1,0,0:0:0:0:
224,96,15502,1,0,0:0:0:0:
224,96,15577,1,0,0:0:0:0:
224,128,15727,1,8,0:0:0:0:
224,128,15877,1,0,0:0:0:0:
320,160,16177,1,0,0:0:0:0:
220,124,16327,1,8,0:0:0:0:
220,124,16477,1,0,0:0:0:0:
218,121,16627,1,8,0:0:0:0:
218,121,16702,1,8,0:0:0:0:
235,104,16777,1,0,0:0:0:0:
235,104,16852,1,0,0:0:0:0:
235,104,16927,1,8,0:0:0:0:
288,270,17077,1,0,0:0:0:0:
328,269,17227,1,8,0:0:0:0:
277,239,17377,1,0,0:0:0:0:
236,219,17452,1,0,0:0:0:0:
277,239,17527,1,0,0:0:0:0:
236,219,17677,1,8,0:0:0:0:
239,207,17827,1,0,0:0:0:0:
239,207,17977,1,0,0:0:0:0:
167,114,18127,1,8,0:0:0:0:
178,184,18277,1,8,0:0:0:0:
181,127,18427,1,0,0:0:0:0:
242,160,18502,1,0,0:0:0:0:
303,245,18577,1,0,0:0:0:0:
303,245,18727,1,8,0:0:0:0:
264,253,18877,1,0,0:0:0:0:
248,174,18952,1,0,0:0:0:0:
278,157,19027,1,8,0:0:0:0:
273,154,19102,1,8,0:0:0:0:
253,146,19177,1,0,0:0:0:0:
245,143,19252,1,0,0:0:0:0:
221,137,19327,1,8,0:0:0:0:
245,142,19477,1,8,0:0:0:0:
211,137,19627,1,4,0:0:0:0:
192,192,19927,1,8,0:0:0:0:
192,192,20077,1,8,0:0:0:0:
224,192,20227,1,0,0:0:0:0:
256,160,20302,1,0,0:0:0:0:
224,192,20377,1,0,0:0:0:0:
192,160,20527,1,8,0:0:0:0:
192,160,20677,1,0,0:0:0:0:
192,160,20977,1,0,0:0:0:0:
288,128,21127,1,8,0:0:0:0:
192,160,21277,1,0,0:0:0:0:
288,192,21427,1,8,0:0:0:0:
224,160,21502,1,8,0:0:0:0:
160,256,21577,1,0,0:0:0:0:
160,256,21652,1,0,0:0:0:0:
128,224,21727,1,8,0:0:0:0:
192,224,21877,1,0,0:0:0:0:
192,96,22027,1,8,0:0:0:0:
320,256,22177,1,0,0:0:0:0:
224,224,22252,1,0,0:0:0:0:
320,256,22327,1,0,0:0:0:0:
224,192,22477,1,8,0:0:0:0:
224,192,22627,1,0,0:0:0:0:
224,192,22777,1,0,0:0:0:0:
192,128,22927,1,8,0:0:0:0:
192,128,23077,1,0,0:0:0:0:
256,160,23377,1,0,0:0:0:0:
256,160,23527,1,8,0:0:0:0:
256,192,23677,1,0,0:0:0:0:
256,192,23827,1,8,0:0:0:0:
352,160,23977,1,0,0:0:0:0:
256,160,24052,1,0,0:0:0:0:
160,128,24127,1,8,0:0:0:0:
160,128,24202,1,8,0:0:0:0:
288,160,24277,1,0,0:0:0:0:
320,224,24427,1,8,0:0:0:0:
320,224,24577,1,0,0:0:0:0:
352,192,24727,1,0,0:0:0:0:
256,192,24877,1,8,0:0:0:0:
352,192,25027,1,0,0:0:0:0:
224,96,25102,1,0,0:0:0:0:
224,96,25177,1,0,0:0:0:0:
224,128,25327,1,8,0:0:0:0:
224,128,25477,1,0,0:0:0:0:
320,160,25777,1,0,0:0:0:0:
220,124,25927,1,8,0:0:0:0:
220,124,26077,1,0,0:0:0:0:
218,121,26227,1,8,0:0:0:0:
218,121,26302,1,8,0:0:0:0:
235,104,26377,1,0,0:0:0:0:
235,104,26452,1,0,0:0:0:0:
235,104,26527,1,8,0:0:0:0:
288,270,26677,1,0,0:0:0:0:
328,269,26827,1,8,0:0:0:0:
277,239,26977,1,0,0:0:0:0:
236,219,27052,1,0,0:0:0:0:
277,239,27127,1,0,0:0:0:0:
236,219,27277,1,8,0:0:0:0:
239,207,27427,1,0,0:0:0:0:
239,207,27577,1,0,0:0:0:0:
167,114,27727,1,8,0:0:0:0:
178,184,27877,1,8,0:0:0:0:
181,127,28027,1,0,0:0:0:0:
242,160,28102,1,0,0:0:0:0:
303,245,28177,1,0,0:0:0:0:
303,245,28327,1,8,0:0:0:0:
264,253,28477,1,0,0:0:0:0:
248,174,28552,1,0,0:0:0:0:
278,157,28627,1,8,0:0:0:0:
273,154,28702,1,8,0:0:0:0:
253,146,28777,1,0,0:0:0:0:
245,143,28852,1,0,0:0:0:0:
221,137,28927,1,8,0:0:0:0:
245,142,29077,1,8,0:0:0:0:
211,137,29227,1,4,0:0:0:0:
327,206,29527,1,8,0:0:0:0:
327,206,29827,1,0,0:0:0:0:
327,206,29977,1,0,0:0:0:0:
261,225,30127,1,8,0:0:0:0:
272,255,30277,1,0,0:0:0:0:
229,291,30427,1,8,0:0:0:0:
229,291,30577,1,8,0:0:0:0:
220,276,30727,1,0,0:0:0:0:
202,258,30877,1,8,0:0:0:0:
203,195,31027,1,0,0:0:0:0:
195,254,31177,1,0,0:0:0:0:
175,178,31327,1,8,0:0:0:0:
169,184,31477,1,8,0:0:0:0:
213,197,31627,1,0,0:0:0:0:
312,191,31777,1,8,0:0:0:0:
312,191,31927,1,8,0:0:0:0:
287,229,32077,1,0,0:0:0:0:
287,229,32227,1,8,0:0:0:0:
287,229,32377,1,0,0:0:0:0:
230,200,32527,1,8,0:0:0:0:
230,200,32677,1,8,0:0:0:0:
230,200,32827,1,0,0:0:0:0:
241,199,33127,1,8,0:0:0:0:
241,199,33277,1,8,0:0:0:0:
241,199,33427,1,0,0:0:0:0:
241,199,33577,1,0,0:0:0:0:
241,199,33727,1,8,0:0:0:0:
282,198,34027,1,0,0:0:0:0:
338,209,34177,1,0,0:0:0:0:
338,209,34327,1,8,0:0:0:0:
338,209,34627,1,0,0:0:0:0:
298,202,34777,1,8,0:0:0:0:
298,202,34927,1,8,0:0:0:0:
264,178,35227,1,0,0:0:0:0:
264,178,35377,1,0,0:0:0:0:
271,171,35527,1,8,0:0:0:0:
180,323,35677,1,0,0:0:0:0:
159,260,35827,1,8,0:0:0:0:
205,188,35977,1,0,0:0:0:0:
203,206,36127,1,8,0:0:0:0:
205,188,36277,1,8,0:0:0:0:
175,168,36427,1,0,0:0:0:0:
166,155,36577,1,8,0:0:0:0:
166,155,36727,1,8,0:0:0:0:
166,155,36877,1,0,0:0:0:0:
328,249,37027,1,8,0:0:0:0:
328,249,37177,1,8,0:0:0:0:
284,233,37327,1,0,0:0:0:0:
284,233,37477,1,8,0:0:0:0:
284,233,37627,1,0,0:0:0:0:
288,259,38227,1,8,0:0:0:0:
275,225,38827,1,4,0:0:0:0:
287,228,39127,1,8,0:0:0:0:
287,228,39277,1,8,0:0:0:0:
290,227,39427,1,0,0:0:0:0:
290,227,39727,1,8,0:0:0:0:
290,227,39877,1,8,0:0:0:0:
282,226,40027,1,0,0:0:0:0:
282,226,40177,1,0,0:0:0:0:
281,230,40327,1,8,0:0:0:0:
281,230,40477,1,0,0:0:0:0:
195,197,40627,1,8,0:0:0:0:
248,184,40777,1,8,0:0:0:0:
248,184,40927,1,0,0:0:0:0:
224,166,41077,1,8,0:0:0:0:
224,166,41227,1,0,0:0:0:0:
230,160,41377,1,0,0:0:0:0:
230,161,41527,1,8,0:0:0:0:
174,233,41677,1,0,0:0:0:0:
239,259,41827,1,8,0:0:0:0:
239,259,41977,1,8,0:0:0:0:
224,244,42127,1,0,0:0:0:0:
223,244,42277,1,8,0:0:0:0:
223,244,42427,1,0,0:0:0:0:
309,164,42727,1,8,0:0:0:0:
309,164,42877,1,8,0:0:0:0:
309,164,43027,1,0,0:0:0:0:
309,164,43177,1,0,0:0:0:0:
235,196,43327,1,8,0:0:0:0:
235,196,43627,1,0,0:0:0:0:
305,146,43777,1,0,0:0:0:0:
264,194,43927,1,8,0:0:0:0:
264,194,44227,1,0,0:0:0:0:
217,174,44377,1,8,0:0:0:0:
217,174,44527,1,8,0:0:0:0:
219,199,44827,1,0,0:0:0:0:
248,202,44977,1,0,0:0:0:0:
222,189,45127,1,8,0:0:0:0:
222,189,45277,1,0,0:0:0:0:
222,189,45427,1,8,0:0:0:0:
211,184,45577,1,8,0:0:0:0:
211,184,45727,1,0,0:0:0:0:
163,188,45877,1,8,0:0:0:0:
163,188,46027,1,0,0:0:0:0:
149,177,46177,1,8,0:0:0:0:
149,177,46327,1,8,0:0:0:0:
148,208,46477,1,0,0:0:0:0:
148,208,46627,1,8,0:0:0:0:
121,201,46777,1,0,0:0:0:0:
121,201,46927,1,8,0:0:0:0:
121,201,47077,1,8,0:0:0:0:
167,186,47227,1,0,0:0:0:0:
306,173,47527,1,8,0:0:0:0:
306,173,47677,1,8,0:0:0:0:
306,173,47827,1,0,0:0:0:0:
306,173,47977,1,0,0:0:0:0:
282,166,48127,1,8,0:0:0:0:
241,154,48202,1,8,0:0:0:0:
282,166,48277,1,8,0:0:0:0:
257,191,48427,1,4,0:0:0:0:
266,157,48577,1,0,0:0:0:0:
261,183,48652,1,0,0:0:0:0:
214,176,48727,1,8,0:0:0:0:
300,177,48877,1,0,0:0:0:0:
213,147,49027,1,12,0:0:0:0:
233,147,49327,1,0,0:0:0:0:
233,147,49477,1,0,0:0:0:0:
269,141,49627,1,8,0:0:0:0:
263,138,49702,1,8,0:0:0:0:
269,141,49777,1,8,0:0:0:0:
304,145,49927,1,0,0:0:0:0:
290,141,50002,1,8,0:0:0:0:
269,125,50077,1,8,0:0:0:0:
262,122,50227,1,0,0:0:0:0:
223,114,50302,1,0,0:0:0:0:
192,107,50377,1,8,0:0:0:0:
192,107,50452,1,0,0:0:0:0:
192,107,50527,1,8,0:0:0:0:
186,104,50602,1,8,0:0:0:0:
186,100,50677,1,0,0:0:0:0:
141,67,50827,1,4,0:0:0:0:
167,217,50977,1,0,0:0:0:0:
151,201,51052,1,0,0:0:0:0:
236,230,51127,1,8,0:0:0:0:
261,232,51277,1,0,0:0:0:0:
293,276,51427,1,12,0:0:0:0:
247,151,51727,1,8,0:0:0:0:
247,151,51877,1,8,0:0:0:0:
247,151,52027,1,0,0:0:0:0:
213,124,52102,1,0,0:0:0:0:
197,127,52177,1,0,0:0:0:0:
213,124,52327,1,8,0:0:0:0:
139,161,52402,1,8,0:0:0:0:
158,160,52477,1,8,0:0:0:0:
283,276,52627,1,0,0:0:0:0:
273,269,52702,1,0,0:0:0:0:
283,276,52777,1,0,0:0:0:0:
273,269,52852,1,0,0:0:0:0:
240,253,52927,1,8,0:0:0:0:
234,249,53002,1,0,0:0:0:0:
221,246,53077,1,8,0:0:0:0:
199,231,53227,1,4,0:0:0:0:
149,200,53377,1,0,0:0:0:0:
226,209,53452,1,0,0:0:0:0:
215,194,53527,1,8,0:0:0:0:
259,190,53677,1,0,0:0:0:0:
259,190,53827,1,12,0:0:0:0:
292,189,53977,1,0,0:0:0:0:
295,195,54127,1,8,0:0:0:0:
295,194,54202,1,8,0:0:0:0:
295,195,54277,1,8,0:0:0:0:
161,178,54427,1,4,0:0:0:0:
224,172,54577,1,0,0:0:0:0:
272,153,54727,1,8,0:0:0:0:
276,156,54877,1,0,0:0:0:0:
272,153,54952,1,0,0:0:0:0:
231,142,55027,1,8,0:0:0:0:
274,137,55102,1,8,0:0:0:0:
253,132,55177,1,0,0:0:0:0:
182,112,55252,1,0,0:0:0:0:
237,109,55327,1,8,0:0:0:0:
237,109,55477,1,8,0:0:0:0:
253,135,55627,1,4,0:0:0:0:
251,135,55927,1,4,0:0:0:0:
253,135,56227,1,12,0:0:0:0:
253,135,56527,1,12,0:0:0:0:
251,135,56827,1,4,0:0:0:0:
291,105,57427,1,8,0:0:0:0:
291,105,57502,1,8,0:0:0:0:
291,105,57577,1,8,0:0:0:0:
291,105,57652,1,8,0:0:0:0:
291,105,57727,1,8,0:0:0:0:
291,105,57802,1,8,0:0:0:0:
291,105,57877,1,8,0:0:0:0:
256,224,58027,5,4,0:0:0:0:
288,224,58252,1,0,0:0:0:0:
192,224,58327,1,8,0:0:0:0:
288,160,58477,1,0,0:0:0:0:
288,160,58552,1,0,0:0:0:0:
288,160,58627,1,0,0:0:0:0:
288,256,58777,1,8,0:0:0:0:
224,256,58927,1,0,0:0:0:0:
256,224,59002,1,0,0:0:0:0:
224,224,59077,1,8,0:0:0:0:
224,224,59227,1,0,0:0:0:0:
224,160,59377,1,8,0:0:0:0:
224,160,59452,1,0,0:0:0:0:
320,96,59527,1,8,0:0:0:0:
384,320,59677,1,8,0:0:0:0:
288,224,59827,1,0,0:0:0:0:
256,192,59902,1,0,0:0:0:0:
288,224,59977,1,0,0:0:0:0:
256,192,60052,1,0,0:0:0:0:
224,160,60127,1,8,0:0:0:0:
192,128,60277,1,0,0:0:0:0:
192,160,60427,1,12,0:0:0:0:
160,160,60652,1,0,0:0:0:0:
160,192,60727,1,8,0:0:0:0:
160,192,60877,1,8,0:0:0:0:
192,192,60952,1,8,0:0:0:0:
160,192,61027,1,0,0:0:0:0:
256,256,61177,1,8,0:0:0:0:
256,224,61327,1,0,0:0:0:0:
224,224,61402,1,0,0:0:0:0:
192,224,61477,1,8,0:0:0:0:
192,224,61627,1,0,0:0:0:0:
192,224,61777,1,8,0:0:0:0:
192,256,61852,1,8,0:0:0:0:
128,256,61927,1,0,0:0:0:0:
160,224,62002,1,0,0:0:0:0:
128,192,62077,1,8,0:0:0:0:
160,192,62227,1,0,0:0:0:0:
160,192,62377,1,0,0:0:0:0:
128,160,62452,1,0,0:0:0:0:
128,160,62527,1,8,0:0:0:0:
128,160,62602,1,0,0:0:0:0:
64,128,62677,1,8,0:0:0:0:
64,128,62827,1,4,0:0:0:0:
256,192,63052,1,0,0:0:0:0:
224,160,63127,1,8,0:0:0:0:
192,160,63277,1,0,0:0:0:0:
160,256,63352,1,0,0:0:0:0:
128,192,63427,1,0,0:0:0:0:
192,192,63577,1,8,0:0:0:0:
160,192,63727,1,0,0:0:0:0:
192,160,63802,1,0,0:0:0:0:
128,224,63877,1,8,0:0:0:0:
96,128,64027,1,0,0:0:0:0:
256,224,64177,1,8,0:0:0:0:
256,192,64252,1,0,0:0:0:0:
224,160,64327,1,8,0:0:0:0:
128,192,64477,1,8,0:0:0:0:
160,256,64627,1,0,0:0:0:0:
96,192,64702,1,0,0:0:0:0:
160,256,64777,1,0,0:0:0:0:
128,128,64852,1,0,0:0:0:0:
128,128,64927,1,8,0:0:0:0:
128,192,65077,1,0,0:0:0:0:
128,160,65227,1,8,0:0:0:0:
224,128,65377,1,0,0:0:0:0:
224,128,65452,1,0,0:0:0:0:
224,128,65527,1,8,0:0:0:0:
224,256,65677,1,8,0:0:0:0:
192,224,65752,1,8,0:0:0:0:
160,224,65827,1,0,0:0:0:0:
128,224,65977,1,0,0:0:0:0:
160,224,66127,1,8,0:0:0:0:
160,256,66277,1,8,0:0:0:0:
160,192,66427,1,0,0:0:0:0:
160,192,66502,1,0,0:0:0:0:
160,192,66577,1,0,0:0:0:0:
128,192,66727,1,8,0:0:0:0:
128,192,66802,1,0,0:0:0:0:
128,192,66877,1,0,0:0:0:0:
256,192,67027,1,8,0:0:0:0:
256,192,67102,1,8,0:0:0:0:
256,224,67177,1,0,0:0:0:0:
224,192,67252,1,0,0:0:0:0:
256,192,67327,1,8,0:0:0:0:
64,160,67402,1,0,0:0:0:0:
64,128,67477,1,8,0:0:0:0:
160,160,67627,1,4,0:0:0:0:
320,224,67852,1,0,0:0:0:0:
256,128,67927,1,8,0:0:0:0:
256,128,68077,1,0,0:0:0:0:
192,128,68152,1,0,0:0:0:0:
256,128,68227,1,0,0:0:0:0:
192,128,68377,1,8,0:0:0:0:
192,96,68527,1,0,0:0:0:0:
96,224,68602,1,0,0:0:0:0:
128,224,68677,1,8,0:0:0:0:
128,224,68827,1,0,0:0:0:0:
224,128,68977,1,8,0:0:0:0:
224,128,69052,1,0,0:0:0:0:
224,128,69127,1,8,0:0:0:0:
320,192,69277,1,8,0:0:0:0:
288,256,69427,1,0,0:0:0:0:
288,256,69502,1,0,0:0:0:0:
224,224,69577,1,8,0:0:0:0:
288,224,69652,1,0,0:0:0:0:
288,224,69727,1,8,0:0:0:0:
192,256,69877,1,0,0:0:0:0:
192,224,70027,1,12,0:0:0:0:
352,256,70252,1,0,0:0:0:0:
160,192,70327,1,8,0:0:0:0:
256,192,70477,1,8,0:0:0:0:
256,256,70552,1,8,0:0:0:0:
288,192,70627,1,0,0:0:0:0:
288,192,70777,1,8,0:0:0:0:
224,192,70927,1,0,0:0:0:0:
192,192,71002,1,0,0:0:0:0:
160,192,71077,1,8,0:0:0:0:
160,192,71227,1,0,0:0:0:0:
224,128,71377,1,8,0:0:0:0:
224,128,71452,1,0,0:0:0:0:
224,128,71527,1,8,0:0:0:0:
224,128,71602,1,8,0:0:0:0:
224,128,71677,1,0,0:0:0:0:
224,128,71827,1,8,0:0:0:0:
224,128,71902,1,8,0:0:0:0:
224,128,71977,1,0,0:0:0:0:
224,128,72052,1,0,0:0:0:0:
224,128,72127,1,8,0:0:0:0:
288,256,72202,1,0,0:0:0:0:
256,224,72277,1,8,0:0:0:0:
256,192,72427,1,4,0:0:0:0:
320,224,72652,1,0,0:0:0:0:
224,192,72727,1,8,0:0:0:0:
256,192,72877,1,0,0:0:0:0:
160,192,72952,1,0,0:0:0:0:
256,192,73027,1,0,0:0:0:0:
224,160,73177,1,8,0:0:0:0:
256,160,73327,1,0,0:0:0:0:
192,160,73402,1,0,0:0:0:0:
160,128,73477,1,8,0:0:0:0:
192,128,73627,1,0,0:0:0:0:
192,128,73777,1,8,0:0:0:0:
192,128,73852,1,0,0:0:0:0:
192,128,73927,1,8,0:0:0:0:
224,128,74077,1,8,0:0:0:0:
224,128,74227,1,0,0:0:0:0:
224,128,74302,1,0,0:0:0:0:
192,128,74377,1,0,0:0:0:0:
224,128,74452,1,0,0:0:0:0:
192,128,74527,1,8,0:0:0:0:
192,128,74677,1,0,0:0:0:0:
224,128,74827,1,8,0:0:0:0:
352,224,74977,1,0,0:0:0:0:
352,224,75052,1,8,0:0:0:0:
352,224,75127,1,0,0:0:0:0:
352,224,75202,1,0,0:0:0:0:
352,224,75277,1,8,0:0:0:0:
320,288,75427,1,0,0:0:0:0:
320,256,75502,1,0,0:0:0:0:
256,256,75577,1,8,0:0:0:0:
256,256,75652,1,0,0:0:0:0:
224,224,75727,1,8,0:0:0:0:
224,224,75802,1,8,0:0:0:0:
224,224,75877,1,0,0:0:0:0:
224,224,76027,1,8,0:0:0:0:
256,288,76102,1,8,0:0:0:0:
224,192,76177,1,0,0:0:0:0:
288,96,76327,1,8,0:0:0:0:
160,256,76402,1,0,0:0:0:0:
288,96,76477,1,0,0:0:0:0:
160,256,76627,1,8,0:0:0:0:
160,256,76702,1,8,0:0:0:0:
160,224,76777,1,0,0:0:0:0:
160,224,76852,1,0,0:0:0:0:
160,224,76927,1,8,0:0:0:0:
160,224,77002,1,0,0:0:0:0:
160,192,77077,1,8,0:0:0:0:
224,192,77227,1,4,0:0:0:0:
288,192,77377,1,0,0:0:0:0:
256,192,77452,1,0,0:0:0:0:
256,224,77527,1,8,0:0:0:0:
256,224,77677,1,0,0:0:0:0:
256,224,77827,1,8,0:0:0:0:
224,192,77902,1,8,0:0:0:0:
192,192,77977,1,0,0:0:0:0:
256,224,78127,1,8,0:0:0:0:
224,128,78277,1,4,0:0:0:0:
320,192,79327,1,8,0:0:0:0:
288,192,79402,1,8,0:0:0:0:
320,192,79477,1,8,0:0:0:0:
288,192,79627,1,4,0:0:0:0:
192,192,79927,1,8,0:0:0:0:
192,192,80077,1,8,0:0:0:0:
224,192,80227,1,0,0:0:0:0:
256,160,80302,1,0,0:0:0:0:
224,192,80377,1,0,0:0:0:0:
192,160,80527,1,8,0:0:0:0:
192,160,80677,1,0,0:0:0:0:
192,160,80977,1,0,0:0:0:0:
288,128,81127,1,8,0:0:0:0:
192,160,81277,1,0,0:0:0:0:
288,192,81427,1,8,0:0:0:0:
224,160,81502,1,8,0:0:0:0:
160,256,81577,1,0,0:0:0:0:
160,256,81652,1,0,0:0:0:0:
128,224,81727,1,8,0:0:0:0:
192,224,81877,1,0,0:0:0:0:
192,96,82027,1,8,0:0:0:0:
320,256,82177,1,0,0:0:0:0:
224,224,82252,1,0,0:0:0:0:
320,256,82327,1,0,0:0:0:0:
224,192,82477,1,8,0:0:0:0:
224,192,82627,1,0,0:0:0:0:
224,192,82777,1,0,0:0:0:0:
192,128,82927,1,8,0:0:0:0:
192,128,83077,1,0,0:0:0:0:
256,160,83377,1,0,0:0:0:0:
256,160,83527,1,8,0:0:0:0:
256,192,83677,1,0,0:0:0:0:
256,192,83827,1,8,0:0:0:0:
352,160,83977,1,0,0:0:0:0:
256,160,84052,1,0,0:0:0:0:
160,128,84127,1,8,0:0:0:0:
160,128,84202,1,8,0:0:0:0:
288,160,84277,1,0,0:0:0:0:
320,224,84427,1,8,0:0:0:0:
320,224,84577,1,0,0:0:0:0:
352,192,84727,1,0,0:0:0:0:
256,192,84877,1,8,0:0:0:0:
352,192,85027,1,0,0:0:0:0:
224,96,85102,1,0,0:0:0:0:
224,96,85177,1,0,0:0:0:0:
224,128,85327,1,8,0:0:0:0:
224,128,85477,1,0,0:0:0:0:
320,160,85777,1,0,0:0:0:0:
220,124,85927,1,8,0:0:0:0:
220,124,86077,1,0,0:0:0:0:
218,121,86227,1,8,0:0:0:0:
218,121,86302,1,8,0:0:0:0:
235,104,86377,1,0,0:0:0:0:
235,104,86452,1,0,0:0:0:0:
235,104,86527,1,8,0:0:0:0:
288,270,86677,1,0,0:0:0:0:
328,269,86827,1,8,0:0:0:0:
277,239,86977,1,0,0:0:0:0:
236,219,87052,1,0,0:0:0:0:
277,239,87127,1,0,0:0:0:0:
236,219,87277,1,8,0:0:0:0:
239,207,87427,1,0,0:0:0:0:
239,207,87577,1,0,0:0:0:0:
272,220,87652,1,0,0:0:0:0:
167,114,87727,1,8,0:0:0:0:
333,207,87802,1,0,0:0:0:0:
178,184,87877,1,8,0:0:0:0:
298,200,87952,1,8,0:0:0:0:
250,162,89227,1,4,0:0:0:0:
263,234,89527,1,8,0:0:0:0:
263,234,89677,1,0,0:0:0:0:
143,188,89827,1,8,0:0:0:0:
143,188,89977,1,8,0:0:0:0:
260,216,90127,1,0,0:0:0:0:
260,216,90277,1,8,0:0:0:0:
206,194,90427,1,0,0:0:0:0:
206,194,90577,1,0,0:0:0:0:
255,218,90727,1,8,0:0:0:0:
255,218,90877,1,0,0:0:0:0:
206,194,91027,1,8,0:0:0:0:
206,194,91177,1,0,0:0:0:0:
147,174,91327,1,8,0:0:0:0:
147,174,91477,1,8,0:0:0:0:
225,221,91627,1,0,0:0:0:0:
225,221,91777,1,8,0:0:0:0:
225,221,91927,1,8,0:0:0:0:
278,239,92077,1,0,0:0:0:0:
278,239,92227,1,8,0:0:0:0:
278,239,92377,1,8,0:0:0:0:
250,220,92527,1,0,0:0:0:0:
249,220,92677,1,8,0:0:0:0:
249,220,92827,1,0,0:0:0:0:
270,222,93127,1,8,0:0:0:0:
270,222,93277,1,8,0:0:0:0:
270,222,93427,1,0,0:0:0:0:
269,222,93577,1,0,0:0:0:0:
173,200,93727,1,8,0:0:0:0:
173,200,94027,1,0,0:0:0:0:
244,203,94177,1,0,0:0:0:0:
244,203,94327,1,8,0:0:0:0:
244,203,94477,1,0,0:0:0:0:
254,228,94627,1,8,0:0:0:0:
254,222,94777,1,8,0:0:0:0:
256,244,94927,1,0,0:0:0:0:
218,216,95077,1,8,0:0:0:0:
217,173,95227,1,0,0:0:0:0:
175,229,95377,1,8,0:0:0:0:
332,194,95527,1,8,0:0:0:0:
201,237,95677,1,8,0:0:0:0:
218,216,95827,1,0,0:0:0:0:
179,201,95977,1,0,0:0:0:0:
218,210,96127,1,8,0:0:0:0:
213,281,96277,1,8,0:0:0:0:
292,273,96427,1,0,0:0:0:0:
292,273,96577,1,8,0:0:0:0:
292,273,96727,1,8,0:0:0:0:
229,248,96877,1,0,0:0:0:0:
229,248,97027,1,8,0:0:0:0:
229,248,97177,1,8,0:0:0:0:
229,248,97327,1,0,0:0:0:0:
229,248,97477,1,8,0:0:0:0:
229,248,97627,1,0,0:0:0:0:
224,241,97927,1,8,0:0:0:0:
224,241,98077,1,8,0:0:0:0:
224,241,98227,1,0,0:0:0:0:
224,241,98377,1,0,0:0:0:0:
276,132,98527,1,8,0:0:0:0:
276,132,98602,1,8,0:0:0:0:
276,132,98677,1,8,0:0:0:0:
276,132,98827,1,4,0:0:0:0:
266,157,98977,1,0,0:0:0:0:
261,183,99052,1,0,0:0:0:0:
214,176,99127,1,8,0:0:0:0:
300,177,99277,1,0,0:0:0:0:
213,147,99427,1,12,0:0:0:0:
233,147,99727,1,0,0:0:0:0:
233,147,99877,1,0,0:0:0:0:
269,141,100027,1,8,0:0:0:0:
263,138,100102,1,8,0:0:0:0:
269,141,100177,1,8,0:0:0:0:
304,145,100327,1,0,0:0:0:0:
290,141,100402,1,8,0:0:0:0:
269,125,100477,1,8,0:0:0:0:
262,122,100627,1,0,0:0:0:0:
223,114,100702,1,0,0:0:0:0:
192,107,100777,1,8,0:0:0:0:
192,107,100852,1,0,0:0:0:0:
192,107,100927,1,8,0:0:0:0:
186,104,101002,1,8,0:0:0:0:
186,100,101077,1,0,0:0:0:0:
141,67,101227,1,4,0:0:0:0:
167,217,101377,1,0,0:0:0:0:
151,201,101452,1,0,0:0:0:0:
236,230,101527,1,8,0:0:0:0:
261,232,101677,1,0,0:0:0:0:
293,276,101827,1,12,0:0:0:0:
247,151,102127,1,8,0:0:0:0:
247,151,102277,1,8,0:0:0:0:
247,151,102427,1,0,0:0:0:0:
213,124,102502,1,0,0:0:0:0:
197,127,102577,1,0,0:0:0:0:
213,124,102727,1,8,0:0:0:0:
139,161,102802,1,8,0:0:0:0:
158,160,102877,1,8,0:0:0:0:
283,276,103027,1,0,0:0:0:0:
273,269,103102,1,0,0:0:0:0:
283,276,103177,1,0,0:0:0:0:
273,269,103252,1,0,0:0:0:0:
240,253,103327,1,8,0:0:0:0:
234,249,103402,1,0,0:0:0:0:
221,246,103477,1,8,0:0:0:0:
199,231,103627,1,4,0:0:0:0:
149,200,103777,1,0,0:0:0:0:
226,209,103852,1,0,0:0:0:0:
215,194,103927,1,8,0:0:0:0:
259,190,104077,1,0,0:0:0:0:
259,190,104227,1,12,0:0:0:0:
292,189,104377,1,0,0:0:0:0:
295,195,104527,1,8,0:0:0:0:
295,194,104602,1,8,0:0:0:0:
295,195,104677,1,8,0:0:0:0:
161,178,104827,1,4,0:0:0:0:
224,172,104977,1,0,0:0:0:0:
272,153,105127,1,8,0:0:0:0:
276,156,105277,1,0,0:0:0:0:
272,153,105352,1,0,0:0:0:0:
231,142,105427,1,8,0:0:0:0:
274,137,105502,1,8,0:0:0:0:
253,132,105577,1,0,0:0:0:0:
182,112,105652,1,0,0:0:0:0:
237,109,105727,1,8,0:0:0:0:
237,109,105877,1,8,0:0:0:0:
253,135,106027,1,4,0:0:0:0:
251,135,106327,1,4,0:0:0:0:
253,135,106627,1,12,0:0:0:0:
253,135,106927,1,12,0:0:0:0:
251,135,107227,1,4,0:0:0:0:
247,153,107827,1,8,0:0:0:0:
247,153,107902,1,8,0:0:0:0:
247,153,107977,1,8,0:0:0:0:
248,152,108052,1,8,0:0:0:0:
248,152,108127,1,8,0:0:0:0:
248,152,108202,1,8,0:0:0:0:
247,153,108277,1,8,0:0:0:0:
247,153,108427,1,4,0:0:0:0:
292,165,108577,1,8,0:0:0:0:
152,170,108877,1,0,0:0:0:0:
159,146,109027,1,12,0:0:0:0:
255,171,109177,1,0,0:0:0:0:
277,310,109252,1,0,0:0:0:0:
255,171,109327,1,0,0:0:0:0:
196,140,109477,1,8,0:0:0:0:
196,140,109777,1,0,0:0:0:0:
173,133,109927,1,8,0:0:0:0:
172,257,110077,1,8,0:0:0:0:
120,110,110152,1,8,0:0:0:0:
135,116,110227,1,0,0:0:0:0:
266,210,110377,1,0,0:0:0:0:
250,174,110527,1,8,0:0:0:0:
250,174,110677,1,8,0:0:0:0:
227,162,110827,1,4,0:0:0:0:
228,141,110977,1,8,0:0:0:0:
228,141,111277,1,0,0:0:0:0:
277,216,111427,1,12,0:0:0:0:
297,200,111577,1,0,0:0:0:0:
236,187,111652,1,0,0:0:0:0:
297,200,111727,1,0,0:0:0:0:
249,188,111877,1,8,0:0:0:0:
297,169,112177,1,0,0:0:0:0:
297,169,112327,1,8,0:0:0:0:
253,146,112477,1,0,0:0:0:0:
151,124,112552,1,0,0:0:0:0:
253,146,112627,1,8,0:0:0:0:
164,129,112777,1,8,0:0:0:0:
209,85,112852,1,8,0:0:0:0:
209,85,112927,1,0,0:0:0:0:
205,211,113077,1,8,0:0:0:0:
208,131,113227,1,4,0:0:0:0:
204,196,113377,1,8,0:0:0:0:
203,189,113677,1,0,0:0:0:0:
261,215,113827,1,12,0:0:0:0:
235,196,113977,1,0,0:0:0:0:
167,182,114052,1,0,0:0:0:0:
235,196,114127,1,0,0:0:0:0:
172,184,114277,1,8,0:0:0:0:
311,200,114577,1,0,0:0:0:0:
228,149,114727,1,8,0:0:0:0:
170,241,114877,1,8,0:0:0:0:
143,231,114952,1,8,0:0:0:0:
123,230,115027,1,0,0:0:0:0:
270,226,115177,1,0,0:0:0:0:
264,223,115327,1,8,0:0:0:0:
263,221,115477,1,8,0:0:0:0:
256,182,115627,1,4,0:0:0:0:
204,151,115777,1,8,0:0:0:0:
293,169,116077,1,0,0:0:0:0:
248,154,116227,1,12,0:0:0:0:
288,167,116377,1,0,0:0:0:0:
253,156,116452,1,0,0:0:0:0:
288,167,116527,1,0,0:0:0:0:
253,152,116677,1,8,0:0:0:0:
256,154,116827,1,0,0:0:0:0:
227,116,116977,1,8,0:0:0:0:
251,206,117127,1,8,0:0:0:0:
193,182,117277,1,0,0:0:0:0:
251,206,117427,1,8,0:0:0:0:
256,224,118027,5,4,0:0:0:0:
288,224,118252,1,0,0:0:0:0:
192,224,118327,1,8,0:0:0:0:
288,160,118477,1,0,0:0:0:0:
288,160,118552,1,0,0:0:0:0:
288,160,118627,1,0,0:0:0:0:
288,256,118777,1,8,0:0:0:0:
224,256,118927,1,0,0:0:0:0:
256,224,119002,1,0,0:0:0:0:
224,224,119077,1,8,0:0:0:0:
224,224,119227,1,0,0:0:0:0:
224,160,119377,1,8,0:0:0:0:
224,160,119452,1,0,0:0:0:0:
320,96,119527,1,8,0:0:0:0:
384,320,119677,1,8,0:0:0:0:
288,224,119827,1,0,0:0:0:0:
256,192,119902,1,0,0:0:0:0:
288,224,119977,1,0,0:0:0:0:
256,192,120052,1,0,0:0:0:0:
224,160,120127,1,8,0:0:0:0:
192,128,120277,1,0,0:0:0:0:
192,160,120427,1,12,0:0:0:0:
160,160,120652,1,0,0:0:0:0:
160,192,120727,1,8,0:0:0:0:
160,192,120877,1,8,0:0:0:0:
192,192,120952,1,8,0:0:0:0:
160,192,121027,1,0,0:0:0:0:
256,256,121177,1,8,0:0:0:0:
256,224,121327,1,0,0:0:0:0:
224,224,121402,1,0,0:0:0:0:
192,224,121477,1,8,0:0:0:0:
192,224,121627,1,0,0:0:0:0:
192,224,121777,1,8,0:0:0:0:
192,256,121852,1,8,0:0:0:0:
128,256,121927,1,0,0:0:0:0:
160,224,122002,1,0,0:0:0:0:
128,192,122077,1,8,0:0:0:0:
160,192,122227,1,0,0:0:0:0:
160,192,122377,1,0,0:0:0:0:
128,160,122452,1,0,0:0:0:0:
128,160,122527,1,8,0:0:0:0:
128,160,122602,1,0,0:0:0:0:
64,128,122677,1,8,0:0:0:0:
64,128,122827,1,4,0:0:0:0:
256,192,123052,1,0,0:0:0:0:
224,160,123127,1,8,0:0:0:0:
192,160,123277,1,0,0:0:0:0:
160,256,123352,1,0,0:0:0:0:
128,192,123427,1,0,0:0:0:0:
192,192,123577,1,8,0:0:0:0:
160,192,123727,1,0,0:0:0:0:
192,160,123802,1,0,0:0:0:0:
128,224,123877,1,8,0:0:0:0:
96,128,124027,1,0,0:0:0:0:
256,224,124177,1,8,0:0:0:0:
256,192,124252,1,0,0:0:0:0:
224,160,124327,1,8,0:0:0:0:
128,192,124477,1,8,0:0:0:0:
160,256,124627,1,0,0:0:0:0:
96,192,124702,1,0,0:0:0:0:
160,256,124777,1,0,0:0:0:0:
128,128,124852,1,0,0:0:0:0:
128,128,124927,1,8,0:0:0:0:
128,192,125077,1,0,0:0:0:0:
128,160,125227,1,8,0:0:0:0:
224,128,125377,1,0,0:0:0:0:
224,128,125452,1,0,0:0:0:0:
224,128,125527,1,8,0:0:0:0:
224,256,125677,1,0,0:0:0:0:
160,224,125827,1,8,0:0:0:0:
128,224,125977,1,8,0:0:0:0:
228,113,126052,1,8,0:0:0:0:
228,113,126127,1,0,0:0:0:0:
160,256,126277,1,8,0:0:0:0:
160,192,126427,1,0,0:0:0:0:
160,192,126502,1,0,0:0:0:0:
160,192,126577,1,0,0:0:0:0:
128,192,126727,1,8,0:0:0:0:
128,192,126802,1,0,0:0:0:0:
128,192,126877,1,0,0:0:0:0:
256,192,127027,1,8,0:0:0:0:
256,192,127102,1,8,0:0:0:0:
256,224,127177,1,0,0:0:0:0:
224,192,127252,1,0,0:0:0:0:
256,192,127327,1,8,0:0:0:0:
64,160,127402,1,0,0:0:0:0:
64,128,127477,1,8,0:0:0:0:
160,160,127627,1,4,0:0:0:0:
320,224,127852,1,0,0:0:0:0:
256,128,127927,1,8,0:0:0:0:
256,128,128077,1,0,0:0:0:0:
192,128,128152,1,0,0:0:0:0:
256,128,128227,1,0,0:0:0:0:
192,128,128377,1,8,0:0:0:0:
192,96,128527,1,0,0:0:0:0:
96,224,128602,1,0,0:0:0:0:
128,224,128677,1,8,0:0:0:0:
128,224,128827,1,0,0:0:0:0:
224,128,128977,1,8,0:0:0:0:
224,128,129052,1,0,0:0:0:0:
224,128,129127,1,8,0:0:0:0:
320,192,129277,1,0,0:0:0:0:
288,256,129427,1,8,0:0:0:0:
288,256,129502,1,0,0:0:0:0:
224,224,129577,1,8,0:0:0:0:
288,224,129652,1,8,0:0:0:0:
288,224,129727,1,0,0:0:0:0:
192,256,129877,1,0,0:0:0:0:
192,224,130027,1,12,0:0:0:0:
352,256,130252,1,0,0:0:0:0:
160,192,130327,1,8,0:0:0:0:
256,192,130477,1,8,0:0:0:0:
256,256,130552,1,8,0:0:0:0:
288,192,130627,1,0,0:0:0:0:
288,192,130777,1,8,0:0:0:0:
224,192,130927,1,0,0:0:0:0:
192,192,131002,1,0,0:0:0:0:
160,192,131077,1,8,0:0:0:0:
160,192,131227,1,0,0:0:0:0:
224,128,131377,1,8,0:0:0:0:
224,128,131452,1,0,0:0:0:0:
224,128,131527,1,8,0:0:0:0:
224,128,131602,1,8,0:0:0:0:
224,128,131677,1,0,0:0:0:0:
224,128,131827,1,8,0:0:0:0:
224,128,131902,1,8,0:0:0:0:
224,128,131977,1,0,0:0:0:0:
224,128,132052,1,0,0:0:0:0:
224,128,132127,1,8,0:0:0:0:
288,256,132202,1,0,0:0:0:0:
256,224,132277,1,8,0:0:0:0:
256,192,132427,1,4,0:0:0:0:
320,224,132652,1,0,0:0:0:0:
224,192,132727,1,8,0:0:0:0:
256,192,132877,1,0,0:0:0:0:
160,192,132952,1,0,0:0:0:0:
256,192,133027,1,0,0:0:0:0:
224,160,133177,1,8,0:0:0:0:
256,160,133327,1,0,0:0:0:0:
192,160,133402,1,0,0:0:0:0:
160,128,133477,1,8,0:0:0:0:
192,128,133627,1,0,0:0:0:0:
192,128,133777,1,8,0:0:0:0:
192,128,133852,1,0,0:0:0:0:
192,128,133927,1,8,0:0:0:0:
224,128,134077,1,0,0:0:0:0:
224,128,134227,1,8,0:0:0:0:
224,128,134302,1,8,0:0:0:0:
192,128,134377,1,0,0:0:0:0:
224,128,134452,1,0,0:0:0:0:
192,128,134527,1,8,0:0:0:0:
192,128,134677,1,0,0:0:0:0:
224,128,134827,1,8,0:0:0:0:
352,224,134977,1,0,0:0:0:0:
352,224,135052,1,8,0:0:0:0:
352,224,135127,1,0,0:0:0:0:
352,224,135202,1,0,0:0:0:0:
352,224,135277,1,8,0:0:0:0:
320,288,135427,1,0,0:0:0:0:
320,256,135502,1,0,0:0:0:0:
256,256,135577,1,8,0:0:0:0:
256,256,135652,1,0,0:0:0:0:
224,224,135727,1,8,0:0:0:0:
224,224,135802,1,8,0:0:0:0:
224,224,135877,1,0,0:0:0:0:
224,224,136027,1,8,0:0:0:0:
256,288,136102,1,8,0:0:0:0:
224,192,136177,1,0,0:0:0:0:
288,96,136327,1,8,0:0:0:0:
160,256,136402,1,0,0:0:0:0:
288,96,136477,1,0,0:0:0:0:
160,256,136627,1,8,0:0:0:0:
160,256,136702,1,8,0:0:0:0:
160,224,136777,1,0,0:0:0:0:
160,224,136852,1,0,0:0:0:0:
160,224,136927,1,8,0:0:0:0:
160,224,137002,1,0,0:0:0:0:
160,192,137077,1,8,0:0:0:0:
130,125,137152,1,8,0:0:0:0:
333,184,137527,1,12,0:0:0:0:
288,160,137677,1,0,0:0:0:0:
288,160,137752,1,0,0:0:0:0:
288,160,137827,1,0,0:0:0:0:
288,256,137977,1,8,0:0:0:0:
224,256,138127,1,0,0:0:0:0:
256,224,138202,1,0,0:0:0:0:
224,224,138277,1,8,0:0:0:0:
165,156,138352,1,8,0:0:0:0:
224,224,138427,1,0,0:0:0:0:
224,160,138577,1,8,0:0:0:0:
224,160,138652,1,0,0:0:0:0:
320,96,138727,1,8,0:0:0:0:
384,320,138877,1,8,0:0:0:0:
288,224,139027,1,0,0:0:0:0:
256,192,139102,1,0,0:0:0:0:
333,237,139177,1,8,0:0:0:0:
256,192,139252,1,0,0:0:0:0:
224,160,139327,1,8,0:0:0:0:
333,237,139402,1,8,0:0:0:0:
192,128,139477,1,0,0:0:0:0:
192,160,139627,1,12,0:0:0:0:
160,160,139852,1,0,0:0:0:0:
160,192,139927,1,8,0:0:0:0:
160,192,140077,1,8,0:0:0:0:
192,192,140152,1,8,0:0:0:0:
160,192,140227,1,0,0:0:0:0:
256,256,140377,1,8,0:0:0:0:
256,224,140527,1,0,0:0:0:0:
224,224,140602,1,0,0:0:0:0:
192,224,140677,1,8,0:0:0:0:
159,175,140752,1,8,0:0:0:0:
192,224,140827,1,0,0:0:0:0:
192,224,140977,1,8,0:0:0:0:
192,256,141052,1,8,0:0:0:0:
128,256,141127,1,0,0:0:0:0:
160,224,141202,1,0,0:0:0:0:
128,192,141277,1,8,0:0:0:0:
160,192,141427,1,0,0:0:0:0:
239,165,141502,1,0,0:0:0:0:
160,192,141577,1,0,0:0:0:0:
128,160,141652,1,0,0:0:0:0:
128,160,141727,1,8,0:0:0:0:
128,160,141802,1,0,0:0:0:0:
64,128,141877,1,8,0:0:0:0:
64,128,142027,1,4,0:0:0:0:
256,192,142252,1,0,0:0:0:0:
224,160,142327,1,8,0:0:0:0:
192,160,142477,1,0,0:0:0:0:
160,256,142552,1,0,0:0:0:0:
128,192,142627,1,0,0:0:0:0:
192,192,142777,1,8,0:0:0:0:
160,192,142927,1,0,0:0:0:0:
192,160,143002,1,0,0:0:0:0:
128,224,143077,1,8,0:0:0:0:
279,172,143152,1,8,0:0:0:0:
96,128,143227,1,0,0:0:0:0:
256,224,143377,1,8,0:0:0:0:
256,192,143452,1,0,0:0:0:0:
224,160,143527,1,8,0:0:0:0:
128,192,143677,1,8,0:0:0:0:
160,256,143827,1,0,0:0:0:0:
240,220,143902,1,0,0:0:0:0:
160,192,143977,1,8,0:0:0:0:
128,128,144052,1,0,0:0:0:0:
128,128,144127,1,8,0:0:0:0:
227,199,144202,1,8,0:0:0:0:
128,192,144277,1,0,0:0:0:0:
128,160,144427,1,8,0:0:0:0:
224,128,144577,1,0,0:0:0:0:
224,128,144652,1,0,0:0:0:0:
224,128,144727,1,8,0:0:0:0:
224,256,144877,1,8,0:0:0:0:
192,224,144952,1,8,0:0:0:0:
160,224,145027,1,0,0:0:0:0:
128,224,145177,1,0,0:0:0:0:
160,224,145327,1,8,0:0:0:0:
160,256,145477,1,8,0:0:0:0:
160,192,145627,1,0,0:0:0:0:
160,192,145702,1,0,0:0:0:0:
160,192,145777,1,0,0:0:0:0:
128,192,145852,1,0,0:0:0:0:
128,192,145927,1,8,0:0:0:0:
128,192,146077,1,0,0:0:0:0:
251,99,146152,1,0,0:0:0:0:
256,192,146227,1,8,0:0:0:0:
256,192,146302,1,8,0:0:0:0:
256,224,146377,1,0,0:0:0:0:
224,192,146452,1,0,0:0:0:0:
256,192,146527,1,8,0:0:0:0:
64,160,146602,1,0,0:0:0:0:
64,128,146677,1,8,0:0:0:0:
160,160,146827,1,4,0:0:0:0:
320,224,147052,1,0,0:0:0:0:
256,128,147127,1,8,0:0:0:0:
256,128,147277,1,0,0:0:0:0:
192,128,147352,1,0,0:0:0:0:
256,128,147427,1,0,0:0:0:0:
192,128,147577,1,8,0:0:0:0:
192,96,147727,1,0,0:0:0:0:
96,224,147802,1,0,0:0:0:0:
128,224,147877,1,8,0:0:0:0:
343,226,147952,1,8,0:0:0:0:
128,224,148027,1,0,0:0:0:0:
224,128,148177,1,8,0:0:0:0:
224,128,148252,1,0,0:0:0:0:
224,128,148327,1,8,0:0:0:0:
320,192,148477,1,8,0:0:0:0:
288,256,148627,1,0,0:0:0:0:
288,256,148702,1,0,0:0:0:0:
224,224,148777,1,8,0:0:0:0:
288,224,148852,1,0,0:0:0:0:
288,224,148927,1,8,0:0:0:0:
281,186,149002,1,8,0:0:0:0:
192,256,149077,1,0,0:0:0:0:
192,224,149227,1,12,0:0:0:0:
352,256,149452,1,0,0:0:0:0:
160,192,149527,1,8,0:0:0:0:
256,192,149677,1,8,0:0:0:0:
256,256,149752,1,8,0:0:0:0:
288,192,149827,1,0,0:0:0:0:
288,192,149977,1,8,0:0:0:0:
151,180,150052,1,8,0:0:0:0:
224,192,150127,1,0,0:0:0:0:
192,192,150202,1,0,0:0:0:0:
160,192,150277,1,8,0:0:0:0:
160,192,150427,1,0,0:0:0:0:
224,128,150577,1,8,0:0:0:0:
224,128,150652,1,0,0:0:0:0:
224,128,150727,1,8,0:0:0:0:
224,128,150802,1,8,0:0:0:0:
224,128,150877,1,0,0:0:0:0:
224,128,151027,1,8,0:0:0:0:
224,128,151102,1,8,0:0:0:0:
224,128,151177,1,0,0:0:0:0:
224,128,151252,1,0,0:0:0:0:
224,128,151327,1,8,0:0:0:0:
288,256,151402,1,0,0:0:0:0:
256,224,151477,1,8,0:0:0:0:
256,192,151627,1,4,0:0:0:0:
320,224,151852,1,0,0:0:0:0:
224,192,151927,1,8,0:0:0:0:
256,192,152077,1,0,0:0:0:0:
160,192,152152,1,0,0:0:0:0:
256,192,152227,1,0,0:0:0:0:
224,160,152377,1,8,0:0:0:0:
256,160,152527,1,0,0:0:0:0:
192,160,152602,1,0,0:0:0:0:
160,128,152677,1,8,0:0:0:0:
132,216,152752,1,8,0:0:0:0:
170,220,152827,1,0,0:0:0:0:
192,128,152977,1,8,0:0:0:0:
192,128,153052,1,0,0:0:0:0:
192,128,153127,1,8,0:0:0:0:
224,128,153277,1,8,0:0:0:0:
224,128,153427,1,0,0:0:0:0:
224,128,153502,1,0,0:0:0:0:
237,248,153577,1,8,0:0:0:0:
224,128,153652,1,0,0:0:0:0:
192,128,153727,1,8,0:0:0:0:
211,243,153802,1,8,0:0:0:0:
192,128,153877,1,0,0:0:0:0:
224,128,154027,1,8,0:0:0:0:
352,224,154177,1,0,0:0:0:0:
352,224,154252,1,8,0:0:0:0:
352,224,154327,1,0,0:0:0:0:
352,224,154402,1,0,0:0:0:0:
352,224,154477,1,8,0:0:0:0:
320,288,154627,1,0,0:0:0:0:
320,256,154702,1,0,0:0:0:0:
256,256,154777,1,8,0:0:0:0:
256,256,154852,1,0,0:0:0:0:
224,224,154927,1,8,0:0:0:0:
224,224,155002,1,8,0:0:0:0:
224,224,155077,1,0,0:0:0:0:
224,224,155227,1,8,0:0:0:0:
256,288,155302,1,8,0:0:0:0:
224,192,155377,1,0,0:0:0:0:
160,256,155452,1,8,0:0:0:0:
288,96,155527,1,0,0:0:0:0:
288,96,155677,1,8,0:0:0:0:
219,144,155752,1,0,0:0:0:0:
160,256,155827,1,8,0:0:0:0:
160,256,155902,1,8,0:0:0:0:
160,224,155977,1,0,0:0:0:0:
160,224,156052,1,0,0:0:0:0:
160,224,156127,1,8,0:0:0:0:
160,224,156202,1,0,0:0:0:0:
160,192,156277,1,8,0:0:0:0:
224,192,156427,1,4,0:0:0:0:
288,192,156577,1,0,0:0:0:0:
256,192,156652,1,0,0:0:0:0:
256,224,156727,1,8,0:0:0:0:
256,224,156877,1,0,0:0:0:0:
256,224,157027,1,8,0:0:0:0:
224,192,157102,1,8,0:0:0:0:
192,192,157177,1,0,0:0:0:0:
256,224,157327,1,8,0:0:0:0:
224,128,157477,1,4,0:0:0:0:
320,192,158527,1,8,0:0:0:0:
288,192,158602,1,8,0:0:0:0:
320,192,158677,1,8,0:0:0:0:
288,192,158827,1,4,0:0:0:0:
192,192,159127,1,8,0:0:0:0:
192,192,159277,1,8,0:0:0:0:
224,192,159427,1,0,0:0:0:0:
256,160,159502,1,0,0:0:0:0:
224,192,159577,1,0,0:0:0:0:
192,160,159727,1,8,0:0:0:0:
192,160,159877,1,0,0:0:0:0:
192,160,160177,1,0,0:0:0:0:
288,128,160327,1,8,0:0:0:0:
192,160,160477,1,0,0:0:0:0:
288,192,160627,1,8,0:0:0:0:
224,160,160702,1,8,0:0:0:0:
160,256,160777,1,0,0:0:0:0:
160,256,160852,1,0,0:0:0:0:
128,224,160927,1,8,0:0:0:0:
192,224,161077,1,0,0:0:0:0:
192,96,161227,1,8,0:0:0:0:
320,256,161377,1,0,0:0:0:0:
224,224,161452,1,0,0:0:0:0:
320,256,161527,1,0,0:0:0:0:
224,192,161677,1,8,0:0:0:0:
224,192,161827,1,0,0:0:0:0:
224,192,161977,1,0,0:0:0:0:
192,128,162127,1,8,0:0:0:0:
192,128,162277,1,0,0:0:0:0:
256,160,162577,1,0,0:0:0:0:
256,160,162727,1,8,0:0:0:0:
256,192,162877,1,0,0:0:0:0:
256,192,163027,1,8,0:0:0:0:
352,160,163177,1,0,0:0:0:0:
256,160,163252,1,0,0:0:0:0:
160,128,163327,1,8,0:0:0:0:
160,128,163402,1,8,0:0:0:0:
288,160,163477,1,0,0:0:0:0:
320,224,163627,1,8,0:0:0:0:
320,224,163777,1,0,0:0:0:0:
352,192,163927,1,0,0:0:0:0:
256,192,164077,1,8,0:0:0:0:
352,192,164227,1,0,0:0:0:0:
224,96,164302,1,0,0:0:0:0:
224,96,164377,1,0,0:0:0:0:
224,128,164527,1,8,0:0:0:0:
224,128,164677,1,0,0:0:0:0:
320,160,164977,1,0,0:0:0:0:
220,124,165127,1,8,0:0:0:0:
220,124,165277,1,0,0:0:0:0:
218,121,165427,1,8,0:0:0:0:
218,121,165502,1,8,0:0:0:0:
235,104,165577,1,0,0:0:0:0:
235,104,165652,1,0,0:0:0:0:
235,104,165727,1,8,0:0:0:0:
288,270,165877,1,0,0:0:0:0:
328,269,166027,1,8,0:0:0:0:
277,239,166177,1,0,0:0:0:0:
236,219,166252,1,0,0:0:0:0:
277,239,166327,1,0,0:0:0:0:
236,219,166477,1,8,0:0:0:0:
239,207,166627,1,0,0:0:0:0:
239,207,166777,1,0,0:0:0:0:
167,114,166927,1,8,0:0:0:0:
178,184,167077,1,8,0:0:0:0:
181,127,167227,1,0,0:0:0:0:
242,160,167302,1,0,0:0:0:0:
303,245,167377,1,0,0:0:0:0:
303,245,167527,1,8,0:0:0:0:
264,253,167677,1,0,0:0:0:0:
248,174,167752,1,0,0:0:0:0:
278,157,167827,1,8,0:0:0:0:
273,154,167902,1,8,0:0:0:0:
253,146,167977,1,0,0:0:0:0:
245,143,168052,1,0,0:0:0:0:
221,137,168127,1,8,0:0:0:0:
245,142,168277,1,8,0:0:0:0:
211,137,168427,1,4,0:0:0:0:
192,192,168727,1,8,0:0:0:0:
192,192,168877,1,8,0:0:0:0:
224,192,169027,1,0,0:0:0:0:
256,160,169102,1,0,0:0:0:0:
224,192,169177,1,0,0:0:0:0:
192,160,169327,1,8,0:0:0:0:
192,160,169477,1,0,0:0:0:0:
192,160,169777,1,0,0:0:0:0:
288,128,169927,1,8,0:0:0:0:
192,160,170077,1,0,0:0:0:0:
288,192,170227,1,8,0:0:0:0:
224,160,170302,1,8,0:0:0:0:
160,256,170377,1,0,0:0:0:0:
160,256,170452,1,0,0:0:0:0:
128,224,170527,1,8,0:0:0:0:
192,224,170677,1,0,0:0:0:0:
192,96,170827,1,8,0:0:0:0:
320,256,170977,1,0,0:0:0:0:
224,224,171052,1,0,0:0:0:0:
320,256,171127,1,0,0:0:0:0:
224,192,171277,1,8,0:0:0:0:
224,192,171427,1,0,0:0:0:0:
224,192,171577,1,0,0:0:0:0:
192,128,171727,1,8,0:0:0:0:
192,128,171877,1,0,0:0:0:0:
256,160,172177,1,0,0:0:0:0:
256,160,172327,1,8,0:0:0:0:
256,192,172477,1,0,0:0:0:0:
256,192,172627,1,8,0:0:0:0:
352,160,172777,1,0,0:0:0:0:
256,160,172852,1,0,0:0:0:0:
160,128,172927,1,8,0:0:0:0:
160,128,173002,1,8,0:0:0:0:
288,160,173077,1,0,0:0:0:0:
320,224,173227,1,8,0:0:0:0:
320,224,173377,1,0,0:0:0:0:
352,192,173527,1,0,0:0:0:0:
256,192,173677,1,8,0:0:0:0:
352,192,173827,1,0,0:0:0:0:
224,96,173902,1,0,0:0:0:0:
224,96,173977,1,0,0:0:0:0:
224,128,174127,1,8,0:0:0:0:
224,128,174277,1,0,0:0:0:0:
320,160,174577,1,0,0:0:0:0:
220,124,174727,1,8,0:0:0:0:
220,124,174877,1,0,0:0:0:0:
218,121,175027,1,8,0:0:0:0:
218,121,175102,1,8,0:0:0:0:
235,104,175177,1,0,0:0:0:0:
235,104,175252,1,0,0:0:0:0:
235,104,175327,1,8,0:0:0:0:
288,270,175477,1,0,0:0:0:0:
328,269,175627,1,8,0:0:0:0:
277,239,175777,1,0,0:0:0:0:
236,219,175852,1,0,0:0:0:0:
277,239,175927,1,0,0:0:0:0:
236,219,176077,1,8,0:0:0:0:
239,207,176227,1,0,0:0:0:0:
239,207,176377,1,0,0:0:0:0:
167,114,176527,1,8,0:0:0:0:
178,184,176677,1,8,0:0:0:0:
181,127,176827,1,0,0:0:0:0:
242,160,176902,1,0,0:0:0:0:
303,245,176977,1,0,0:0:0:0:
303,245,177127,1,8,0:0:0:0:
264,253,177277,1,0,0:0:0:0:
248,174,177352,1,0,0:0:0:0:
278,157,177427,1,8,0:0:0:0:
273,154,177502,1,8,0:0:0:0:
253,146,177577,1,0,0:0:0:0:
245,143,177652,1,0,0:0:0:0:
221,137,177727,1,8,0:0:0:0:
245,142,177877,1,8,0:0:0:0:
211,137,178027,1,4,0:0:0:0:
319,118,178177,1,4,0:0:0:0:
289,74,178327,1,12,0:0:0:0:
289,74,178477,1,4,0:0:0:0:
289,74,178777,1,12,0:0:0:0:
289,74,178927,1,4,0:0:0:0:
289,74,179077,1,12,0:0:0:0:
