osu file format v14

[General]
AudioFilename: audio.mp3
AudioLeadIn: 0
PreviewTime: 117577
Countdown: 1
SampleSet: Normal
StackLeniency: 0.7
Mode: 1
LetterboxInBreaks: 0
WidescreenStoryboard: 1

[Editor]
Bookmarks: 10027,29227,48427,58027,79627,89227,98827,108427,118027,137227,158827
DistanceSpacing: 0.8
BeatDivisor: 16
GridSize: 32
TimelineZoom: 2.7

[Metadata]
Title:Mousou Kajitsu
TitleUnicode:妄想果実
Artist:Nanaki feat.GUMI
ArtistUnicode:七希 feat.GUMI
Creator:Chromoxx
Version:Futsuu
Source:
Tags:GUMI vocaloid Tomisaka hardcore Fancies Fruit diva megpoid トミサカ
BeatmapID:1279290
BeatmapSetID:602993

[Difficulty]
HPDrainRate:7
CircleSize:5
OverallDifficulty:4.5
ApproachRate:5
SliderMultiplier:1.3
SliderTickRate:1

[Events]
//Background and Video events
0,0,"EXyGpu1.jpg",0,100
Video,43,"kajitsu.avi"
//Break Periods
//Storyboard Layer 0 (Background)
//Storyboard Layer 1 (Fail)
//Storyboard Layer 2 (Pass)
//Storyboard Layer 3 (Foreground)
//Storyboard Sound Samples

[TimingPoints]
427,300,4,1,0,90,1,0
7627,-100,4,1,0,60,0,0
9952,-100,4,1,0,90,0,0
58027,-100,4,1,0,100,0,1
79627,-100,4,1,0,100,0,0
79777,-100,4,1,0,90,0,0
88027,-100,4,1,0,60,0,0
89152,-100,4,1,0,90,0,0
118027,-100,4,1,0,100,0,1
137227,-100,4,1,0,100,0,0
137527,-100,4,1,0,100,0,1
158827,-100,4,1,0,100,0,0

[HitObjects]
192,160,427,5,4,0:0:0:0:
288,288,1027,1,8,0:0:0:0:
281,243,1477,1,0,0:0:0:0:
288,224,1927,1,0,0:0:0:0:
256,192,2227,1,8,0:0:0:0:
334,236,2827,1,4,0:0:0:0:
304,228,3427,1,8,0:0:0:0:
304,228,3877,1,0,0:0:0:0:
304,228,4327,1,0,0:0:0:0:
304,228,4627,1,8,0:0:0:0:
327,197,4777,1,8,0:0:0:0:
304,228,4927,1,8,0:0:0:0:
229,209,5227,1,4,0:0:0:0:
325,191,5827,1,8,0:0:0:0:
225,177,6277,1,0,0:0:0:0:
325,191,6727,1,0,0:0:0:0:
325,206,7027,1,8,0:0:0:0:
325,206,7627,1,0,0:0:0:0:
200,142,10027,1,4,0:0:0:0:
215,254,10627,1,8,0:0:0:0:
215,254,10927,1,8,0:0:0:0:
215,254,11227,1,0,0:0:0:0:
215,254,11527,1,0,0:0:0:0:
215,254,11827,1,8,0:0:0:0:
303,265,12427,1,0,0:0:0:0:
303,265,13027,1,8,0:0:0:0:
303,265,13327,1,0,0:0:0:0:
303,265,13627,1,8,0:0:0:0:
218,229,13927,1,8,0:0:0:0:
218,229,14227,1,0,0:0:0:0:
298,216,14827,1,8,0:0:0:0:
298,216,15427,1,0,0:0:0:0:
298,216,15727,1,0,0:0:0:0:
298,216,16027,1,8,0:0:0:0:
298,216,16327,1,8,0:0:0:0:
298,216,16627,1,0,0:0:0:0:
320,186,17227,1,8,0:0:0:0:
320,186,17827,1,0,0:0:0:0:
320,186,18127,1,8,0:0:0:0:
320,186,18427,1,0,0:0:0:0:
192,192,18727,1,0,0:0:0:0:
317,250,19027,1,8,0:0:0:0:
311,210,19177,1,0,0:0:0:0:
253,146,19327,1,8,0:0:0:0:
277,158,19627,1,4,0:0:0:0:
215,254,20227,1,8,0:0:0:0:
215,254,20527,1,8,0:0:0:0:
215,254,20827,1,0,0:0:0:0:
215,254,21127,1,0,0:0:0:0:
215,254,21427,1,8,0:0:0:0:
303,265,22027,1,0,0:0:0:0:
303,265,22627,1,8,0:0:0:0:
303,265,22927,1,0,0:0:0:0:
303,265,23227,1,8,0:0:0:0:
218,229,23527,1,8,0:0:0:0:
218,229,23827,1,0,0:0:0:0:
298,216,24427,1,8,0:0:0:0:
298,216,25027,1,0,0:0:0:0:
298,216,25327,1,0,0:0:0:0:
298,216,25627,1,8,0:0:0:0:
298,216,25927,1,8,0:0:0:0:
298,216,26227,1,0,0:0:0:0:
320,186,26827,1,8,0:0:0:0:
320,186,27427,1,0,0:0:0:0:
320,186,27727,1,8,0:0:0:0:
320,186,28027,1,0,0:0:0:0:
192,192,28327,1,0,0:0:0:0:
317,250,28627,1,8,0:0:0:0:
311,210,28777,1,0,0:0:0:0:
253,146,28927,1,8,0:0:0:0:
277,158,29227,1,0,0:0:0:0:
204,223,29827,1,8,0:0:0:0:
249,220,30427,1,0,0:0:0:0:
249,220,30727,1,0,0:0:0:0:
249,220,31027,1,8,0:0:0:0:
249,220,31327,1,8,0:0:0:0:
249,220,31627,1,0,0:0:0:0:
249,220,32227,1,8,0:0:0:0:
249,220,32527,1,8,0:0:0:0:
249,220,32827,1,0,0:0:0:0:
330,264,33127,1,0,0:0:0:0:
309,204,33427,1,8,0:0:0:0:
305,207,34027,1,0,0:0:0:0:
292,236,34627,1,8,0:0:0:0:
292,236,35227,1,0,0:0:0:0:
292,236,35527,1,0,0:0:0:0:
292,236,35827,1,8,0:0:0:0:
244,218,36127,1,0,0:0:0:0:
244,218,36427,1,8,0:0:0:0:
244,218,37027,1,8,0:0:0:0:
244,218,37327,1,8,0:0:0:0:
244,218,37627,1,0,0:0:0:0:
344,208,38827,1,4,0:0:0:0:
254,255,39427,1,8,0:0:0:0:
260,251,40027,1,0,0:0:0:0:
260,251,40327,1,0,0:0:0:0:
260,251,40627,1,8,0:0:0:0:
260,251,40927,1,8,0:0:0:0:
260,251,41227,1,0,0:0:0:0:
260,251,41827,1,8,0:0:0:0:
260,251,42127,1,8,0:0:0:0:
260,251,42427,1,0,0:0:0:0:
260,251,42727,1,0,0:0:0:0:
260,251,43027,1,8,0:0:0:0:
260,251,43627,1,0,0:0:0:0:
260,251,44227,1,8,0:0:0:0:
260,251,44827,1,0,0:0:0:0:
260,251,45127,1,0,0:0:0:0:
260,251,45427,1,8,0:0:0:0:
293,322,45727,1,0,0:0:0:0:
293,322,46027,1,8,0:0:0:0:
242,211,46627,1,0,0:0:0:0:
242,211,46927,1,8,0:0:0:0:
242,211,47227,1,0,0:0:0:0:
132,209,47527,1,0,0:0:0:0:
149,168,47827,1,8,0:0:0:0:
222,198,48427,1,4,0:0:0:0:
223,265,48727,1,8,0:0:0:0:
223,265,48877,1,0,0:0:0:0:
238,265,49027,1,12,0:0:0:0:
326,282,49627,1,0,0:0:0:0:
320,279,49927,1,8,0:0:0:0:
320,279,50077,1,8,0:0:0:0:
320,279,50227,1,0,0:0:0:0:
207,284,50527,1,8,0:0:0:0:
286,208,50827,1,4,0:0:0:0:
255,211,51127,1,8,0:0:0:0:
255,211,51277,1,0,0:0:0:0:
215,191,51427,1,12,0:0:0:0:
245,248,52027,1,0,0:0:0:0:
224,283,52177,1,0,0:0:0:0:
133,265,52327,1,8,0:0:0:0:
224,283,52627,1,0,0:0:0:0:
200,253,52927,1,8,0:0:0:0:
195,245,53227,1,4,0:0:0:0:
185,238,53527,1,8,0:0:0:0:
185,238,53677,1,0,0:0:0:0:
157,227,53827,1,12,0:0:0:0:
212,238,54427,1,4,0:0:0:0:
149,215,55027,1,12,0:0:0:0:
270,211,55627,1,4,0:0:0:0:
270,211,55927,1,4,0:0:0:0:
264,210,56227,1,12,0:0:0:0:
264,210,56527,1,12,0:0:0:0:
264,210,56827,1,4,0:0:0:0:
160,160,57427,2,0,L|345:71,1,203.125
322,188,58027,1,4,0:0:0:0:
219,293,58327,1,8,0:0:0:0:
307,258,58477,1,0,0:0:0:0:
307,258,58777,1,8,0:0:0:0:
283,249,59077,1,0,0:0:0:0:
271,242,59377,1,0,0:0:0:0:
186,226,59527,1,8,0:0:0:0:
271,242,59827,1,0,0:0:0:0:
225,285,60427,1,8,0:0:0:0:
225,285,60727,1,0,0:0:0:0:
225,285,60877,1,8,0:0:0:0:
225,285,61177,1,8,0:0:0:0:
225,285,61477,1,0,0:0:0:0:
236,268,61777,1,0,0:0:0:0:
236,268,62077,1,8,0:0:0:0:
245,124,62377,1,0,0:0:0:0:
215,127,62527,1,8,0:0:0:0:
330,178,62827,1,0,0:0:0:0:
193,299,63127,1,8,0:0:0:0:
193,299,63277,1,0,0:0:0:0:
207,278,63577,1,0,0:0:0:0:
207,278,63877,1,8,0:0:0:0:
192,274,64177,1,0,0:0:0:0:
192,274,64327,1,8,0:0:0:0:
192,274,64627,1,0,0:0:0:0:
251,232,65227,1,8,0:0:0:0:
251,232,65527,1,0,0:0:0:0:
187,260,65677,1,0,0:0:0:0:
251,232,65827,1,8,0:0:0:0:
109,217,66127,1,8,0:0:0:0:
298,230,66427,1,4,0:0:0:0:
298,230,66727,1,4,0:0:0:0:
298,230,67027,1,12,0:0:0:0:
298,230,67327,1,12,0:0:0:0:
272,211,67627,1,4,0:0:0:0:
164,224,67927,1,8,0:0:0:0:
164,224,68077,1,0,0:0:0:0:
193,300,68377,1,0,0:0:0:0:
193,300,68677,1,8,0:0:0:0:
216,275,68977,1,0,0:0:0:0:
216,275,69127,1,8,0:0:0:0:
240,157,69427,1,0,0:0:0:0:
240,157,70027,1,8,0:0:0:0:
240,157,70327,1,0,0:0:0:0:
170,224,70477,1,8,0:0:0:0:
170,224,70777,1,8,0:0:0:0:
170,224,71077,1,0,0:0:0:0:
143,206,71377,1,8,0:0:0:0:
140,200,71527,1,8,0:0:0:0:
140,200,71827,1,0,0:0:0:0:
318,235,72127,1,0,0:0:0:0:
181,240,72427,1,8,0:0:0:0:
197,262,72727,1,8,0:0:0:0:
197,262,72877,1,0,0:0:0:0:
197,262,73177,1,0,0:0:0:0:
197,262,73477,1,8,0:0:0:0:
125,223,73777,1,0,0:0:0:0:
102,225,73927,1,8,0:0:0:0:
190,260,74227,1,0,0:0:0:0:
171,278,74827,1,0,0:0:0:0:
171,278,75127,1,8,0:0:0:0:
171,278,75277,1,8,0:0:0:0:
171,278,75427,1,0,0:0:0:0:
260,184,75727,1,8,0:0:0:0:
177,132,76027,1,0,0:0:0:0:
224,134,76177,1,0,0:0:0:0:
224,134,76327,1,8,0:0:0:0:
224,134,76627,1,0,0:0:0:0:
280,272,76927,1,8,0:0:0:0:
264,194,77227,1,4,0:0:0:0:
264,194,77527,1,4,0:0:0:0:
264,194,77827,1,12,0:0:0:0:
237,193,78277,1,4,0:0:0:0:
200,142,79627,1,4,0:0:0:0:
215,254,80227,1,8,0:0:0:0:
215,254,80527,1,8,0:0:0:0:
215,254,80827,1,0,0:0:0:0:
215,254,81127,1,0,0:0:0:0:
215,254,81427,1,8,0:0:0:0:
303,265,82027,1,0,0:0:0:0:
303,265,82627,1,8,0:0:0:0:
303,265,82927,1,0,0:0:0:0:
303,265,83227,1,8,0:0:0:0:
218,229,83527,1,8,0:0:0:0:
218,229,83827,1,0,0:0:0:0:
298,216,84427,1,8,0:0:0:0:
298,216,85027,1,0,0:0:0:0:
298,216,85327,1,0,0:0:0:0:
298,216,85627,1,8,0:0:0:0:
298,216,85927,1,8,0:0:0:0:
298,216,86227,1,0,0:0:0:0:
320,186,86827,1,8,0:0:0:0:
280,289,87127,1,0,0:0:0:0:
175,220,87427,1,8,0:0:0:0:
320,186,87727,1,8,0:0:0:0:
277,158,89227,1,0,0:0:0:0:
204,223,89827,1,8,0:0:0:0:
249,220,90427,1,0,0:0:0:0:
249,220,90727,1,0,0:0:0:0:
249,220,91027,1,8,0:0:0:0:
249,220,91327,1,8,0:0:0:0:
249,220,91627,1,0,0:0:0:0:
249,220,92227,1,8,0:0:0:0:
249,220,92527,1,8,0:0:0:0:
249,220,92827,1,0,0:0:0:0:
330,264,93127,1,0,0:0:0:0:
309,204,93427,1,8,0:0:0:0:
305,207,94027,1,0,0:0:0:0:
292,236,94627,1,8,0:0:0:0:
292,236,95227,1,0,0:0:0:0:
292,236,95527,1,0,0:0:0:0:
292,236,95827,1,8,0:0:0:0:
244,218,96127,1,0,0:0:0:0:
244,218,96427,1,8,0:0:0:0:
244,218,97027,1,0,0:0:0:0:
244,218,97327,1,8,0:0:0:0:
244,218,97627,1,0,0:0:0:0:
284,185,97927,1,0,0:0:0:0:
254,191,98227,1,8,0:0:0:0:
222,198,98827,1,4,0:0:0:0:
223,265,99127,1,8,0:0:0:0:
223,265,99277,1,0,0:0:0:0:
238,265,99427,1,12,0:0:0:0:
326,282,100027,1,0,0:0:0:0:
320,279,100327,1,8,0:0:0:0:
320,279,100477,1,8,0:0:0:0:
320,279,100627,1,0,0:0:0:0:
207,284,100927,1,8,0:0:0:0:
286,208,101227,1,4,0:0:0:0:
255,211,101527,1,8,0:0:0:0:
255,211,101677,1,0,0:0:0:0:
215,191,101827,1,12,0:0:0:0:
245,248,102427,1,0,0:0:0:0:
224,283,102577,1,0,0:0:0:0:
133,265,102727,1,8,0:0:0:0:
224,283,103027,1,0,0:0:0:0:
200,253,103327,1,8,0:0:0:0:
195,245,103627,1,4,0:0:0:0:
185,238,103927,1,8,0:0:0:0:
185,238,104077,1,0,0:0:0:0:
157,227,104227,1,12,0:0:0:0:
212,238,104827,1,4,0:0:0:0:
149,215,105427,1,12,0:0:0:0:
270,211,106027,1,4,0:0:0:0:
270,211,106327,1,4,0:0:0:0:
264,210,106627,1,12,0:0:0:0:
264,210,106927,1,12,0:0:0:0:
264,210,107227,1,4,0:0:0:0:
128,215,107827,2,0,L|333:188,1,203.125
322,188,108427,1,4,0:0:0:0:
280,238,109027,1,8,0:0:0:0:
197,183,109327,1,0,0:0:0:0:
280,238,109627,1,0,0:0:0:0:
280,238,109927,1,0,0:0:0:0:
280,238,110227,1,8,0:0:0:0:
225,276,110827,1,0,0:0:0:0:
225,276,111427,1,8,0:0:0:0:
244,264,111727,1,8,0:0:0:0:
225,263,112027,1,0,0:0:0:0:
225,263,112327,1,0,0:0:0:0:
225,263,112627,1,8,0:0:0:0:
214,187,113227,1,4,0:0:0:0:
201,171,113827,1,8,0:0:0:0:
396,228,114127,1,0,0:0:0:0:
181,149,114427,1,0,0:0:0:0:
181,149,114727,1,0,0:0:0:0:
181,149,115027,1,8,0:0:0:0:
261,170,115627,1,4,0:0:0:0:
255,158,116227,1,8,0:0:0:0:
195,157,116527,1,8,0:0:0:0:
255,158,116827,1,0,0:0:0:0:
255,158,117127,1,8,0:0:0:0:
255,158,117427,1,8,0:0:0:0:
322,188,118027,1,4,0:0:0:0:
219,293,118327,1,8,0:0:0:0:
307,258,118477,1,0,0:0:0:0:
307,258,118777,1,8,0:0:0:0:
283,249,119077,1,0,0:0:0:0:
271,242,119377,1,0,0:0:0:0:
186,226,119527,1,8,0:0:0:0:
271,242,119827,1,0,0:0:0:0:
225,285,120427,1,8,0:0:0:0:
225,285,120727,1,0,0:0:0:0:
225,285,120877,1,8,0:0:0:0:
225,285,121177,1,8,0:0:0:0:
225,285,121477,1,0,0:0:0:0:
236,268,121777,1,0,0:0:0:0:
236,268,122077,1,8,0:0:0:0:
245,124,122377,1,0,0:0:0:0:
215,127,122527,1,8,0:0:0:0:
330,178,122827,1,0,0:0:0:0:
193,299,123127,1,8,0:0:0:0:
193,299,123277,1,0,0:0:0:0:
207,278,123577,1,0,0:0:0:0:
207,278,123877,1,8,0:0:0:0:
192,274,124177,1,0,0:0:0:0:
192,274,124327,1,8,0:0:0:0:
192,274,124627,1,0,0:0:0:0:
251,232,125227,1,8,0:0:0:0:
251,232,125527,1,0,0:0:0:0:
187,260,125677,1,0,0:0:0:0:
251,232,125827,1,8,0:0:0:0:
109,217,126127,1,8,0:0:0:0:
298,230,126427,1,4,0:0:0:0:
298,230,126727,1,4,0:0:0:0:
298,230,127027,1,12,0:0:0:0:
298,230,127327,1,12,0:0:0:0:
272,211,127627,1,4,0:0:0:0:
164,224,127927,1,8,0:0:0:0:
164,224,128077,1,0,0:0:0:0:
193,300,128377,1,0,0:0:0:0:
193,300,128677,1,8,0:0:0:0:
216,275,128977,1,0,0:0:0:0:
216,275,129127,1,8,0:0:0:0:
240,157,129427,1,0,0:0:0:0:
240,157,130027,1,8,0:0:0:0:
240,157,130327,1,0,0:0:0:0:
170,224,130477,1,8,0:0:0:0:
170,224,130777,1,8,0:0:0:0:
170,224,131077,1,0,0:0:0:0:
143,206,131377,1,8,0:0:0:0:
140,200,131527,1,8,0:0:0:0:
140,200,131827,1,0,0:0:0:0:
329,231,132127,1,0,0:0:0:0:
181,240,132427,1,8,0:0:0:0:
197,262,132727,1,8,0:0:0:0:
197,262,132877,1,0,0:0:0:0:
197,262,133177,1,0,0:0:0:0:
197,262,133477,1,8,0:0:0:0:
125,223,133777,1,0,0:0:0:0:
102,225,133927,1,8,0:0:0:0:
190,260,134227,1,0,0:0:0:0:
171,278,134827,1,0,0:0:0:0:
171,278,135127,1,8,0:0:0:0:
171,278,135277,1,8,0:0:0:0:
171,278,135427,1,0,0:0:0:0:
260,184,135727,1,8,0:0:0:0:
177,132,136027,1,0,0:0:0:0:
224,134,136177,1,0,0:0:0:0:
224,134,136327,1,8,0:0:0:0:
224,134,136627,1,0,0:0:0:0:
101,138,136927,1,8,0:0:0:0:
219,293,137527,1,12,0:0:0:0:
291,175,137827,1,0,0:0:0:0:
307,258,137977,1,8,0:0:0:0:
283,249,138277,1,0,0:0:0:0:
299,210,138577,1,0,0:0:0:0:
186,226,138727,1,8,0:0:0:0:
271,242,139027,1,0,0:0:0:0:
225,285,139627,1,8,0:0:0:0:
225,285,139927,1,0,0:0:0:0:
225,285,140077,1,8,0:0:0:0:
225,285,140377,1,8,0:0:0:0:
225,285,140677,1,0,0:0:0:0:
236,268,140977,1,0,0:0:0:0:
236,268,141277,1,8,0:0:0:0:
245,124,141577,1,0,0:0:0:0:
215,127,141727,1,8,0:0:0:0:
330,178,142027,1,0,0:0:0:0:
193,299,142327,1,8,0:0:0:0:
193,299,142477,1,0,0:0:0:0:
207,278,142777,1,0,0:0:0:0:
207,278,143077,1,8,0:0:0:0:
192,274,143377,1,0,0:0:0:0:
192,274,143527,1,8,0:0:0:0:
192,274,143827,1,0,0:0:0:0:
251,232,144427,1,8,0:0:0:0:
251,232,144727,1,0,0:0:0:0:
187,260,144877,1,0,0:0:0:0:
251,232,145027,1,8,0:0:0:0:
109,217,145327,1,8,0:0:0:0:
298,230,145627,1,4,0:0:0:0:
298,230,145927,1,4,0:0:0:0:
298,230,146227,1,12,0:0:0:0:
298,230,146527,1,12,0:0:0:0:
272,211,146827,1,4,0:0:0:0:
164,224,147127,1,8,0:0:0:0:
164,224,147277,1,0,0:0:0:0:
193,300,147577,1,0,0:0:0:0:
193,300,147877,1,8,0:0:0:0:
216,275,148177,1,0,0:0:0:0:
216,275,148327,1,8,0:0:0:0:
240,157,148627,1,0,0:0:0:0:
240,157,149227,1,8,0:0:0:0:
240,157,149527,1,0,0:0:0:0:
170,224,149677,1,8,0:0:0:0:
170,224,149977,1,8,0:0:0:0:
170,224,150277,1,0,0:0:0:0:
143,206,150577,1,8,0:0:0:0:
140,200,150727,1,8,0:0:0:0:
140,200,151027,1,0,0:0:0:0:
181,240,151627,1,8,0:0:0:0:
197,262,151927,1,8,0:0:0:0:
197,262,152077,1,0,0:0:0:0:
197,262,152377,1,0,0:0:0:0:
197,262,152677,1,8,0:0:0:0:
125,223,152977,1,0,0:0:0:0:
102,225,153127,1,8,0:0:0:0:
190,260,153427,1,0,0:0:0:0:
171,278,154027,1,0,0:0:0:0:
171,278,154327,1,8,0:0:0:0:
171,278,154477,1,8,0:0:0:0:
171,278,154627,1,0,0:0:0:0:
260,184,154927,1,8,0:0:0:0:
177,132,155227,1,0,0:0:0:0:
224,134,155377,1,0,0:0:0:0:
224,134,155527,1,8,0:0:0:0:
224,134,155827,1,0,0:0:0:0:
264,194,156427,1,4,0:0:0:0:
264,194,156727,1,4,0:0:0:0:
264,194,157027,1,12,0:0:0:0:
237,193,157477,1,4,0:0:0:0:
200,142,158827,1,4,0:0:0:0:
215,254,159427,1,8,0:0:0:0:
215,254,159727,1,8,0:0:0:0:
215,254,160027,1,0,0:0:0:0:
215,254,160327,1,0,0:0:0:0:
215,254,160627,1,8,0:0:0:0:
303,265,161227,1,0,0:0:0:0:
303,265,161827,1,8,0:0:0:0:
303,265,162127,1,0,0:0:0:0:
303,265,162427,1,8,0:0:0:0:
218,229,162727,1,8,0:0:0:0:
218,229,163027,1,0,0:0:0:0:
298,216,163627,1,8,0:0:0:0:
298,216,164227,1,0,0:0:0:0:
298,216,164527,1,0,0:0:0:0:
298,216,164827,1,8,0:0:0:0:
298,216,165127,1,8,0:0:0:0:
298,216,165427,1,0,0:0:0:0:
320,186,166027,1,8,0:0:0:0:
320,186,166627,1,0,0:0:0:0:
320,186,166927,1,8,0:0:0:0:
320,186,167227,1,0,0:0:0:0:
192,192,167527,1,0,0:0:0:0:
317,250,167827,1,8,0:0:0:0:
311,210,167977,1,0,0:0:0:0:
253,146,168127,1,8,0:0:0:0:
277,158,168427,1,4,0:0:0:0:
215,254,169027,1,8,0:0:0:0:
215,254,169327,1,8,0:0:0:0:
215,254,169627,1,0,0:0:0:0:
215,254,169927,1,0,0:0:0:0:
215,254,170227,1,8,0:0:0:0:
303,265,170827,1,0,0:0:0:0:
303,265,171427,1,8,0:0:0:0:
303,265,171727,1,0,0:0:0:0:
303,265,172027,1,8,0:0:0:0:
218,229,172327,1,8,0:0:0:0:
218,229,172627,1,0,0:0:0:0:
298,216,173227,1,8,0:0:0:0:
298,216,173827,1,0,0:0:0:0:
298,216,174127,1,0,0:0:0:0:
298,216,174427,1,8,0:0:0:0:
298,216,174727,1,8,0:0:0:0:
298,216,175027,1,0,0:0:0:0:
320,186,175627,1,8,0:0:0:0:
320,186,176227,1,0,0:0:0:0:
320,186,176527,1,8,0:0:0:0:
320,186,176827,1,0,0:0:0:0:
192,192,177127,1,0,0:0:0:0:
317,250,177427,1,8,0:0:0:0:
311,210,177577,1,0,0:0:0:0:
253,146,177727,1,8,0:0:0:0:
277,158,178027,1,4,0:0:0:0:
213,159,178477,1,12,0:0:0:0:
239,134,178777,1,4,0:0:0:0:
239,134,179077,1,12,0:0:0:0:
